  0
SECTION
  2
HEADER
  9
$ACADVER
  1
AC1015
  9
$ACADMAINTVER
 70
     6
  9
$DWGCODEPAGE
  3
ANSI_1252
  9
$INSBASE
 10
0.0
 20
0.0
 30
0.0
  9
$EXTMIN
 10
0.0
 20
0.0
 30
0.0
  9
$EXTMAX
 10
33.0
 20
25.5
 30
0.0
  9
$LIMMIN
 10
0.0
 20
0.0
  9
$LIMMAX
 10
33.0
 20
25.5
  9
$ORTHOMODE
 70
     0
  9
$REGENMODE
 70
     1
  9
$FILLMODE
 70
     1
  9
$QTEXTMODE
 70
     0
  9
$MIRRTEXT
 70
     1
  9
$LTSCALE
 40
3.0
  9
$ATTMODE
 70
     1
  9
$TEXTSIZE
 40
0.3333333333
  9
$TRACEWID
 40
0.05
  9
$TEXTSTYLE
  7
Standard
  9
$CLAYER
  8
0
  9
$CELTYPE
  6
ByLayer
  9
$CECOLOR
 62
   256
  9
$CELTSCALE
 40
1.0
  9
$DISPSILH
 70
     0
  9
$DIMSCALE
 40
1.0
  9
$DIMASZ
 40
0.25
  9
$DIMEXO
 40
0.15
  9
$DIMDLI
 40
0.38
  9
$DIMRND
 40
0.0
  9
$DIMDLE
 40
0.0
  9
$DIMEXE
 40
0.375
  9
$DIMTP
 40
0.0
  9
$DIMTM
 40
0.0
  9
$DIMTXT
 40
0.3333333333
  9
$DIMCEN
 40
0.09
  9
$DIMTSZ
 40
0.0
  9
$DIMTOL
 70
     0
  9
$DIMLIM
 70
     0
  9
$DIMTIH
 70
     1
  9
$DIMTOH
 70
     1
  9
$DIMSE1
 70
     0
  9
$DIMSE2
 70
     0
  9
$DIMTAD
 70
     0
  9
$DIMZIN
 70
     0
  9
$DIMBLK
  1

  9
$DIMASO
 70
     1
  9
$DIMSHO
 70
     1
  9
$DIMPOST
  1

  9
$DIMAPOST
  1

  9
$DIMALT
 70
     0
  9
$DIMALTD
 70
     2
  9
$DIMALTF
 40
25.4
  9
$DIMLFAC
 40
1.0
  9
$DIMTOFL
 70
     0
  9
$DIMTVP
 40
0.0
  9
$DIMTIX
 70
     0
  9
$DIMSOXD
 70
     0
  9
$DIMSAH
 70
     0
  9
$DIMBLK1
  1

  9
$DIMBLK2
  1

  9
$DIMSTYLE
  2
Standard
  9
$DIMCLRD
 70
     0
  9
$DIMCLRE
 70
     0
  9
$DIMCLRT
 70
     0
  9
$DIMTFAC
 40
1.0
  9
$DIMGAP
 40
0.18
  9
$DIMJUST
 70
     0
  9
$DIMSD1
 70
     0
  9
$DIMSD2
 70
     0
  9
$DIMTOLJ
 70
     1
  9
$DIMTZIN
 70
     0
  9
$DIMALTZ
 70
     0
  9
$DIMALTTZ
 70
     0
  9
$DIMUPT
 70
     0
  9
$DIMDEC
 70
     3
  9
$DIMTDEC
 70
     3
  9
$DIMALTU
 70
     2
  9
$DIMALTTD
 70
     2
  9
$DIMTXSTY
  7
Standard
  9
$DIMAUNIT
 70
     0
  9
$DIMADEC
 70
     2
  9
$DIMALTRND
 40
0.0
  9
$DIMAZIN
 70
     0
  9
$DIMDSEP
 70
    46
  9
$DIMATFIT
 70
     3
  9
$DIMFRAC
 70
     0
  9
$DIMLDRBLK
  1

  9
$DIMLUNIT
 70
     2
  9
$DIMLWD
 70
    -2
  9
$DIMLWE
 70
    -2
  9
$DIMTMOVE
 70
     0
  9
$LUNITS
 70
     2
  9
$LUPREC
 70
     3
  9
$SKETCHINC
 40
0.1
  9
$FILLETRAD
 40
0.5
  9
$AUNITS
 70
     0
  9
$AUPREC
 70
     2
  9
$MENU
  1
.
  9
$ELEVATION
 40
0.0
  9
$PELEVATION
 40
0.0
  9
$THICKNESS
 40
0.0
  9
$LIMCHECK
 70
     0
  9
$CHAMFERA
 40
0.0
  9
$CHAMFERB
 40
0.0
  9
$CHAMFERC
 40
0.0
  9
$CHAMFERD
 40
0.0
  9
$SKPOLY
 70
     0
  9
$TDCREATE
 40
2458396.469933252
  9
$TDUCREATE
 40
2458396.636599919
  9
$TDUPDATE
 40
2458396.469935058
  9
$TDUUPDATE
 40
2458396.636601725
  9
$TDINDWG
 40
0.0000000116
  9
$TDUSRTIMER
 40
0.0000000116
  9
$USRTIMER
 70
     1
  9
$ANGBASE
 50
0.0
  9
$ANGDIR
 70
     0
  9
$PDMODE
 70
     0
  9
$PDSIZE
 40
-1.0
  9
$PLINEWID
 40
0.0
  9
$SPLFRAME
 70
     0
  9
$SPLINETYPE
 70
     6
  9
$SPLINESEGS
 70
     8
  9
$HANDSEED
  5
3CF
  9
$SURFTAB1
 70
     6
  9
$SURFTAB2
 70
     6
  9
$SURFTYPE
 70
     6
  9
$SURFU
 70
     6
  9
$SURFV
 70
     6
  9
$UCSBASE
  2

  9
$UCSNAME
  2

  9
$UCSORG
 10
0.0
 20
0.0
 30
0.0
  9
$UCSXDIR
 10
1.0
 20
0.0
 30
0.0
  9
$UCSYDIR
 10
0.0
 20
1.0
 30
0.0
  9
$UCSORTHOREF
  2

  9
$UCSORTHOVIEW
 70
     0
  9
$UCSORGTOP
 10
0.0
 20
0.0
 30
0.0
  9
$UCSORGBOTTOM
 10
0.0
 20
0.0
 30
0.0
  9
$UCSORGLEFT
 10
0.0
 20
0.0
 30
0.0
  9
$UCSORGRIGHT
 10
0.0
 20
0.0
 30
0.0
  9
$UCSORGFRONT
 10
0.0
 20
0.0
 30
0.0
  9
$UCSORGBACK
 10
0.0
 20
0.0
 30
0.0
  9
$PUCSBASE
  2

  9
$PUCSNAME
  2

  9
$PUCSORG
 10
0.0
 20
0.0
 30
0.0
  9
$PUCSXDIR
 10
1.0
 20
0.0
 30
0.0
  9
$PUCSYDIR
 10
0.0
 20
1.0
 30
0.0
  9
$PUCSORTHOREF
  2

  9
$PUCSORTHOVIEW
 70
     0
  9
$PUCSORGTOP
 10
0.0
 20
0.0
 30
0.0
  9
$PUCSORGBOTTOM
 10
0.0
 20
0.0
 30
0.0
  9
$PUCSORGLEFT
 10
0.0
 20
0.0
 30
0.0
  9
$PUCSORGRIGHT
 10
0.0
 20
0.0
 30
0.0
  9
$PUCSORGFRONT
 10
0.0
 20
0.0
 30
0.0
  9
$PUCSORGBACK
 10
0.0
 20
0.0
 30
0.0
  9
$USERI1
 70
     0
  9
$USERI2
 70
     0
  9
$USERI3
 70
     0
  9
$USERI4
 70
     0
  9
$USERI5
 70
     0
  9
$USERR1
 40
0.0
  9
$USERR2
 40
0.0
  9
$USERR3
 40
0.0
  9
$USERR4
 40
0.0
  9
$USERR5
 40
0.0
  9
$WORLDVIEW
 70
     1
  9
$SHADEDGE
 70
     3
  9
$SHADEDIF
 70
    70
  9
$TILEMODE
 70
     1
  9
$MAXACTVP
 70
    64
  9
$PINSBASE
 10
0.0
 20
0.0
 30
0.0
  9
$PLIMCHECK
 70
     0
  9
$PEXTMIN
 10
1.0000000000E+20
 20
1.0000000000E+20
 30
1.0000000000E+20
  9
$PEXTMAX
 10
-1.0000000000E+20
 20
-1.0000000000E+20
 30
-1.0000000000E+20
  9
$PLIMMIN
 10
0.0
 20
0.0
  9
$PLIMMAX
 10
12.0
 20
9.0
  9
$UNITMODE
 70
     0
  9
$VISRETAIN
 70
     1
  9
$PLINEGEN
 70
     0
  9
$PSLTSCALE
 70
     1
  9
$TREEDEPTH
 70
  3020
  9
$CMLSTYLE
  2
Standard
  9
$CMLJUST
 70
     0
  9
$CMLSCALE
 40
1.0
  9
$PROXYGRAPHICS
 70
     1
  9
$MEASUREMENT
 70
     0
  9
$CELWEIGHT
370
    -1
  9
$ENDCAPS
280
     0
  9
$JOINSTYLE
280
     0
  9
$LWDISPLAY
290
     1
  9
$INSUNITS
 70
     1
  9
$HYPERLINKBASE
  1

  9
$STYLESHEET
  1

  9
$XEDIT
290
     1
  9
$CEPSNTYPE
380
     0
  9
$PSTYLEMODE
290
     1
  9
$FINGERPRINTGUID
  2
{3850C25D-D824-4345-9DAB-80863975E6FE}
  9
$VERSIONGUID
  2
{FAEB1C32-E019-11D5-929B-00C0DF256EC4}
  9
$EXTNAMES
290
     1
  9
$PSVPSCALE
 40
0.0
  9
$OLESTARTUP
290
     0
  0
ENDSEC
  0
SECTION
  2
CLASSES
  0
CLASS
  1
ACDBDICTIONARYWDFLT
  2
AcDbDictionaryWithDefault
  3
ObjectDBX Classes
 90
        0
280
     0
281
     0
  0
CLASS
  1
VISUALSTYLE
  2
AcDbVisualStyle
  3
ObjectDBX Classes
 90
     4095
280
     0
281
     0
  0
CLASS
  1
MATERIAL
  2
AcDbMaterial
  3
ObjectDBX Classes
 90
     1153
280
     0
281
     0
  0
CLASS
  1
SCALE
  2
AcDbScale
  3
ObjectDBX Classes
 90
     1153
280
     0
281
     0
  0
CLASS
  1
TABLESTYLE
  2
AcDbTableStyle
  3
ObjectDBX Classes
 90
     4095
280
     0
281
     0
  0
CLASS
  1
MLEADERSTYLE
  2
AcDbMLeaderStyle
  3
ACDB_MLEADERSTYLE_CLASS
 90
     4095
280
     0
281
     0
  0
CLASS
  1
SUN
  2
AcDbSun
  3
SCENEOE
 90
     1153
280
     0
281
     0
  0
CLASS
  1
ACDBPLACEHOLDER
  2
AcDbPlaceHolder
  3
ObjectDBX Classes
 90
        0
280
     0
281
     0
  0
CLASS
  1
LAYOUT
  2
AcDbLayout
  3
ObjectDBX Classes
 90
        0
280
     0
281
     0
  0
ENDSEC
  0
SECTION
  2
TABLES
  0
TABLE
  2
VPORT
  5
8
330
0
100
AcDbSymbolTable
 70
     1
  0
VPORT
  5
29
330
8
100
AcDbSymbolTableRecord
100
AcDbViewportTableRecord
  2
*Active
 70
     0
 10
0.0
 20
0.0
 11
1.0
 21
1.0
 12
16.5
 22
12.75
 13
0.0
 23
0.0
 14
0.5
 24
0.5
 15
0.5
 25
0.5
 16
0.0
 26
0.0
 36
1.0
 17
0.0
 27
0.0
 37
0.0
 40
25.5
 41
1.2941176471
 42
50.0
 43
0.0
 44
0.0
 50
0.0
 51
0.0
 71
     0
 72
  2000
 73
     1
 74
     3
 75
     0
 76
     0
 77
     0
 78
     0
281
     0
 65
     1
110
0.0
120
0.0
130
0.0
111
1.0
121
0.0
131
0.0
112
0.0
122
1.0
132
0.0
 79
     0
146
0.0
  0
ENDTAB
  0
TABLE
  2
LTYPE
  5
5
330
0
100
AcDbSymbolTable
 70
     6
  0
LTYPE
  5
14
330
5
100
AcDbSymbolTableRecord
100
AcDbLinetypeTableRecord
  2
ByBlock
 70
     0
  3

 72
    65
 73
     0
 40
0.0
  0
LTYPE
  5
15
330
5
100
AcDbSymbolTableRecord
100
AcDbLinetypeTableRecord
  2
ByLayer
 70
     0
  3

 72
    65
 73
     0
 40
0.0
  0
LTYPE
  5
16
330
5
100
AcDbSymbolTableRecord
100
AcDbLinetypeTableRecord
  2
Continuous
 70
     0
  3
Solid line
 72
    65
 73
     0
 40
0.0
  0
LTYPE
  5
6E
330
5
100
AcDbSymbolTableRecord
100
AcDbLinetypeTableRecord
  2
HIDDEN
 70
     0
  3
Hidden __ __ __ __ __ __ __ __ __ __ __ __ __ __
 72
    65
 73
     2
 40
0.075
 49
0.05
 74
     0
 49
-0.025
 74
     0
  0
LTYPE
  5
6F
330
5
100
AcDbSymbolTableRecord
100
AcDbLinetypeTableRecord
  2
PHANTOM
 70
     0
  3
Phantom ______  __  __  ______  __  __  ______
 72
    65
 73
     6
 40
0.5
 49
0.25
 74
     0
 49
-0.05
 74
     0
 49
0.05
 74
     0
 49
-0.05
 74
     0
 49
0.05
 74
     0
 49
-0.05
 74
     0
  0
LTYPE
  5
70
330
5
100
AcDbSymbolTableRecord
100
AcDbLinetypeTableRecord
  2
CENTER
 70
     0
  3
Center ____ _ ____ _ ____ _ ____ _ ____ _ ____
 72
    65
 73
     4
 40
0.4
 49
0.25
 74
     0
 49
-0.05
 74
     0
 49
0.05
 74
     0
 49
-0.05
 74
     0
  0
LTYPE
  5
71
330
5
100
AcDbSymbolTableRecord
100
AcDbLinetypeTableRecord
  2
CENTERX2
 70
     0
  3
Center (2x) ________  __  ________  __  _____
 72
    65
 73
     4
 40
0.8
 49
0.5
 74
     0
 49
-0.1
 74
     0
 49
0.1
 74
     0
 49
-0.1
 74
     0
  0
LTYPE
  5
72
330
5
100
AcDbSymbolTableRecord
100
AcDbLinetypeTableRecord
  2
DOT2
 70
     0
  3
Dot (.5x) ........................................
 72
    65
 73
     2
 40
0.025
 49
0.0
 74
     0
 49
-0.025
 74
     0
  0
ENDTAB
  0
TABLE
  2
LAYER
  5
2
330
0
100
AcDbSymbolTable
 70
     9
  0
LAYER
  5
10
330
2
100
AcDbSymbolTableRecord
100
AcDbLayerTableRecord
  2
0
 70
     0
 62
     7
  6
Continuous
370
    -3
390
F
  0
LAYER
  5
73
330
2
100
AcDbSymbolTableRecord
100
AcDbLayerTableRecord
  2
FORMAT
 70
     0
 62
     7
  6
Continuous
370
    -3
390
F
  0
LAYER
  5
74
330
2
100
AcDbSymbolTableRecord
100
AcDbLayerTableRecord
  2
SLD-0
 70
     0
 62
   179
  6
Continuous
370
    -3
390
F
  0
LAYER
  5
75
330
2
100
AcDbSymbolTableRecord
100
AcDbLayerTableRecord
  2
LAYER1
 70
     0
 62
   179
  6
Continuous
370
    -3
390
F
  0
LAYER
  5
76
330
2
100
AcDbSymbolTableRecord
100
AcDbLayerTableRecord
  2
UNASSIGNED
 70
     0
 62
   179
  6
Continuous
370
    -3
390
F
  0
LAYER
  5
77
330
2
100
AcDbSymbolTableRecord
100
AcDbLayerTableRecord
  2
DIMENSION
 70
     0
 62
     5
  6
Continuous
370
    -3
390
F
  0
LAYER
  5
78
330
2
100
AcDbSymbolTableRecord
100
AcDbLayerTableRecord
  2
FRAME
 70
     0
 62
     8
  6
PHANTOM
370
    30
390
F
  0
LAYER
  5
79
330
2
100
AcDbSymbolTableRecord
100
AcDbLayerTableRecord
  2
ALERT
 70
     0
 62
     1
  6
Continuous
370
    80
390
F
  0
LAYER
  5
7A
330
2
100
AcDbSymbolTableRecord
100
AcDbLayerTableRecord
  2
NOTE
 70
     0
 62
     7
  6
Continuous
370
    -3
390
F
  0
ENDTAB
  0
TABLE
  2
STYLE
  5
3
330
0
100
AcDbSymbolTable
 70
     3
  0
STYLE
  5
11
330
3
100
AcDbSymbolTableRecord
100
AcDbTextStyleTableRecord
  2
Standard
 70
     0
 40
0.0
 41
1.0
 50
0.0
 71
     0
 42
0.3333333333
  3
txt
  4

  0
STYLE
  5
22E
330
3
100
AcDbSymbolTableRecord
100
AcDbTextStyleTableRecord
  2
SLDTEXTSTYLE0
 70
     0
 40
0.0
 41
0.605
 50
0.0
 71
     0
 42
0.3333333333
  3
TXT
  4

  0
STYLE
  5
26E
330
3
100
AcDbSymbolTableRecord
100
AcDbTextStyleTableRecord
  2
SLDTEXTSTYLE1
 70
     0
 40
0.0
 41
0.75
 50
0.0
 71
     0
 42
0.3333333333
  3
TXT
  4

  0
ENDTAB
  0
TABLE
  2
VIEW
  5
6
330
0
100
AcDbSymbolTable
 70
     0
  0
ENDTAB
  0
TABLE
  2
UCS
  5
7
330
0
100
AcDbSymbolTable
 70
     0
  0
ENDTAB
  0
TABLE
  2
APPID
  5
9
330
0
100
AcDbSymbolTable
 70
     1
  0
APPID
  5
12
330
9
100
AcDbSymbolTableRecord
100
AcDbRegAppTableRecord
  2
ACAD
 70
     0
  0
ENDTAB
  0
TABLE
  2
DIMSTYLE
  5
A
330
0
100
AcDbSymbolTable
 70
     5
100
AcDbDimStyleTable
  0
DIMSTYLE
105
27
330
A
100
AcDbSymbolTableRecord
100
AcDbDimStyleTableRecord
  2
Standard
 70
     0
178
     0
340
11
  0
DIMSTYLE
105
26F
102
{ACAD_REACTORS
330
26D
330
287
330
29B
330
2C4
102
}
330
A
100
AcDbSymbolTableRecord
100
AcDbDimStyleTableRecord
  2
SLDDIMSTYLE0
 70
     0
 41
0.25
 44
0.0
 45
0.000000001
 78
    12
 79
     3
140
0.25
147
0.0625
148
0.000000001
170
     1
173
     1
178
     0
271
     3
272
     3
276
     2
284
    12
340
26E
  0
DIMSTYLE
105
2B0
102
{ACAD_REACTORS
330
2AF
330
2D7
330
2EB
330
315
330
3BB
102
}
330
A
100
AcDbSymbolTableRecord
100
AcDbDimStyleTableRecord
  2
SLDDIMSTYLE1
 70
     0
 41
0.25
 44
0.0
 45
0.000000001
 78
    12
 79
     3
140
0.25
147
0.0625
148
0.000000001
170
     1
172
     1
173
     1
178
     0
271
     3
272
     3
276
     2
284
    12
289
     0
340
26E
  0
DIMSTYLE
105
301
102
{ACAD_REACTORS
330
300
102
}
330
A
100
AcDbSymbolTableRecord
100
AcDbDimStyleTableRecord
  2
SLDDIMSTYLE2
 70
     0
 41
0.25
 44
0.0
 45
0.000000001
 78
     4
 79
     1
140
0.25
147
0.0625
148
0.000000001
170
     1
173
     1
178
     0
271
     3
272
     3
276
     2
284
    12
340
26E
  0
DIMSTYLE
105
32A
102
{ACAD_REACTORS
330
329
102
}
330
A
100
AcDbSymbolTableRecord
100
AcDbDimStyleTableRecord
  2
SLDDIMSTYLE3
 70
     0
 41
0.25
 44
0.0
 45
0.000000001
 78
    12
 79
     3
140
0.25
141
0.0
147
0.0625
148
0.000000001
170
     1
173
     1
178
     0
271
     3
272
     3
276
     2
284
    12
340
26E
  0
ENDTAB
  0
TABLE
  2
BLOCK_RECORD
  5
1
330
0
100
AcDbSymbolTable
 70
    29
  0
BLOCK_RECORD
  5
1F
330
1
100
AcDbSymbolTableRecord
100
AcDbBlockTableRecord
  2
*Model_Space
340
22
  0
BLOCK_RECORD
  5
1B
330
1
100
AcDbSymbolTableRecord
100
AcDbBlockTableRecord
  2
*Paper_Space
340
1E
  0
BLOCK_RECORD
  5
23
330
1
100
AcDbSymbolTableRecord
100
AcDbBlockTableRecord
  2
*Paper_Space0
340
26
  0
BLOCK_RECORD
  5
7B
330
1
100
AcDbSymbolTableRecord
100
AcDbBlockTableRecord
  2
Block16_1
340
0
102
{BLKREFS
331
21D
331
21E
102
}
  0
BLOCK_RECORD
  5
A7
330
1
100
AcDbSymbolTableRecord
100
AcDbBlockTableRecord
  2
Block17_1_1_1_1_1
340
0
  0
BLOCK_RECORD
  5
162
330
1
100
AcDbSymbolTableRecord
100
AcDbBlockTableRecord
  2
Block17_1_1_1_1
340
0
102
{BLKREFS
331
22D
102
}
  0
BLOCK_RECORD
  5
230
330
1
100
AcDbSymbolTableRecord
100
AcDbBlockTableRecord
  2
SW_NOTE_0
340
0
102
{BLKREFS
331
237
102
}
  0
BLOCK_RECORD
  5
240
330
1
100
AcDbSymbolTableRecord
100
AcDbBlockTableRecord
  2
SW_NOTE_1
340
0
102
{BLKREFS
331
248
102
}
  0
BLOCK_RECORD
  5
249
330
1
100
AcDbSymbolTableRecord
100
AcDbBlockTableRecord
  2
SW_NOTE_2
340
0
102
{BLKREFS
331
24E
102
}
  0
BLOCK_RECORD
  5
270
330
1
100
AcDbSymbolTableRecord
100
AcDbBlockTableRecord
  2
_D
340
0
  0
BLOCK_RECORD
  5
27F
330
1
100
AcDbSymbolTableRecord
100
AcDbBlockTableRecord
  2
SW_SYMBOL_MOD_CL
340
0
102
{BLKREFS
331
284
331
2D4
102
}
  0
BLOCK_RECORD
  5
288
330
1
100
AcDbSymbolTableRecord
100
AcDbBlockTableRecord
  2
_D_1
340
0
  0
BLOCK_RECORD
  5
29C
330
1
100
AcDbSymbolTableRecord
100
AcDbBlockTableRecord
  2
_D_2
340
0
  0
BLOCK_RECORD
  5
2B1
330
1
100
AcDbSymbolTableRecord
100
AcDbBlockTableRecord
  2
_D_3
340
0
  0
BLOCK_RECORD
  5
2C5
330
1
100
AcDbSymbolTableRecord
100
AcDbBlockTableRecord
  2
_D_4
340
0
  0
BLOCK_RECORD
  5
2D8
330
1
100
AcDbSymbolTableRecord
100
AcDbBlockTableRecord
  2
_D_5
340
0
  0
BLOCK_RECORD
  5
2EC
330
1
100
AcDbSymbolTableRecord
100
AcDbBlockTableRecord
  2
_D_6
340
0
  0
BLOCK_RECORD
  5
302
330
1
100
AcDbSymbolTableRecord
100
AcDbBlockTableRecord
  2
_D_7
340
0
  0
BLOCK_RECORD
  5
316
330
1
100
AcDbSymbolTableRecord
100
AcDbBlockTableRecord
  2
_D_8
340
0
  0
BLOCK_RECORD
  5
32B
330
1
100
AcDbSymbolTableRecord
100
AcDbBlockTableRecord
  2
_D_9
340
0
  0
BLOCK_RECORD
  5
339
330
1
100
AcDbSymbolTableRecord
100
AcDbBlockTableRecord
  2
SW_CENTERMARKSYMBOL_0
340
0
102
{BLKREFS
331
344
102
}
  0
BLOCK_RECORD
  5
345
330
1
100
AcDbSymbolTableRecord
100
AcDbBlockTableRecord
  2
SW_CENTERMARKSYMBOL_1
340
0
102
{BLKREFS
331
350
102
}
  0
BLOCK_RECORD
  5
351
330
1
100
AcDbSymbolTableRecord
100
AcDbBlockTableRecord
  2
SW_CENTERMARKSYMBOL_2
340
0
102
{BLKREFS
331
35C
102
}
  0
BLOCK_RECORD
  5
35D
330
1
100
AcDbSymbolTableRecord
100
AcDbBlockTableRecord
  2
SW_CENTERMARKSYMBOL_3
340
0
102
{BLKREFS
331
368
102
}
  0
BLOCK_RECORD
  5
369
330
1
100
AcDbSymbolTableRecord
100
AcDbBlockTableRecord
  2
SW_CENTERMARKSYMBOL_4
340
0
102
{BLKREFS
331
374
102
}
  0
BLOCK_RECORD
  5
375
330
1
100
AcDbSymbolTableRecord
100
AcDbBlockTableRecord
  2
SW_CENTERMARKSYMBOL_5
340
0
102
{BLKREFS
331
380
102
}
  0
BLOCK_RECORD
  5
381
330
1
100
AcDbSymbolTableRecord
100
AcDbBlockTableRecord
  2
SW_CENTERMARKSYMBOL_6
340
0
102
{BLKREFS
331
38C
102
}
  0
BLOCK_RECORD
  5
38D
330
1
100
AcDbSymbolTableRecord
100
AcDbBlockTableRecord
  2
SW_CENTERMARKSYMBOL_7
340
0
102
{BLKREFS
331
398
102
}
  0
BLOCK_RECORD
  5
399
330
1
100
AcDbSymbolTableRecord
100
AcDbBlockTableRecord
  2
SW_CENTERMARKSYMBOL_8
340
0
102
{BLKREFS
331
3A4
102
}
  0
BLOCK_RECORD
  5
3A5
330
1
100
AcDbSymbolTableRecord
100
AcDbBlockTableRecord
  2
SW_CENTERMARKSYMBOL_9
340
0
102
{BLKREFS
331
3B0
102
}
  0
BLOCK_RECORD
  5
3BC
330
1
100
AcDbSymbolTableRecord
100
AcDbBlockTableRecord
  2
_D_10
340
0
  0
ENDTAB
  0
ENDSEC
  0
SECTION
  2
BLOCKS
  0
BLOCK
  5
20
330
1F
100
AcDbEntity
  8
0
100
AcDbBlockBegin
  2
*Model_Space
 70
     0
 10
0.0
 20
0.0
 30
0.0
  3
*Model_Space
  1

  0
ENDBLK
  5
21
330
1F
100
AcDbEntity
  8
0
100
AcDbBlockEnd
  0
BLOCK
  5
1C
330
1B
100
AcDbEntity
 67
     1
  8
0
100
AcDbBlockBegin
  2
*Paper_Space
 70
     0
 10
0.0
 20
0.0
 30
0.0
  3
*Paper_Space
  1

  0
ENDBLK
  5
1D
330
1B
100
AcDbEntity
 67
     1
  8
0
100
AcDbBlockEnd
  0
BLOCK
  5
24
330
23
100
AcDbEntity
  8
0
100
AcDbBlockBegin
  2
*Paper_Space0
 70
     0
 10
0.0
 20
0.0
 30
0.0
  3
*Paper_Space0
  1

  0
ENDBLK
  5
25
330
23
100
AcDbEntity
  8
0
100
AcDbBlockEnd
  0
BLOCK
  5
7C
330
7B
100
AcDbEntity
  8
0
100
AcDbBlockBegin
  2
Block16_1
 70
     0
 10
0.0
 20
0.0
 30
0.0
  3
Block16_1
  1

  0
ARC
  5
7E
330
7B
100
AcDbEntity
  8
0
  6
Continuous
 62
     7
370
     0
100
AcDbCircle
 10
0.1442616701
 20
0.5369905395
 30
0.0
 40
0.1442616700901139
100
AcDbArc
 50
150.0
 51
240.0
  0
ARC
  5
7F
330
7B
100
AcDbEntity
  8
0
  6
Continuous
 62
     7
370
     0
100
AcDbCircle
 10
0.8244880254
 20
0.1442616701
 30
0.0
 40
0.1442616700901133
100
AcDbArc
 50
240.0
 51
330.0
  0
ARC
  5
80
330
7B
100
AcDbEntity
  8
0
  6
Continuous
 62
     7
370
     0
100
AcDbCircle
 10
1.0733907125
 20
0.5753737702
 30
0.0
 40
0.1442616700901164
100
AcDbArc
 50
330.0
 51
60.0
  0
ARC
  5
81
330
7B
100
AcDbEntity
  8
0
  6
Continuous
 62
     7
370
     0
100
AcDbCircle
 10
0.7705205694
 20
0.8157719627
 30
0.0
 40
0.297642962053122
100
AcDbArc
 50
347.0973347856
 51
132.9026652144
  0
ARC
  5
82
330
7B
100
AcDbEntity
  8
0
  6
Continuous
 62
     7
370
     0
100
AcDbCircle
 10
0.3931643571
 20
0.9681026396
 30
0.0
 40
0.1442616700901108
100
AcDbArc
 50
60.0
 51
150.0
  0
ARC
  5
83
330
7B
100
AcDbEntity
  8
0
  6
Continuous
 62
     7
370
     0
100
AcDbCircle
 10
0.7669235863
 20
0.8139819981
 30
0.0
 40
0.1822870176394993
100
AcDbArc
 50
359.895142647
 51
120.104857353
  0
ARC
  5
84
330
7B
100
AcDbEntity
  8
0
  6
Continuous
 62
     7
370
     0
100
AcDbCircle
 10
0.3931281302
 20
0.967011655
 30
0.0
 40
0.0296313401193808
100
AcDbArc
 50
60.0
 51
150.0
  0
ARC
  5
85
330
7B
100
AcDbEntity
  8
0
  6
Continuous
 62
     7
370
     0
100
AcDbCircle
 10
1.0729312512
 20
0.5745271401
 30
0.0
 40
0.0296313401193661
100
AcDbArc
 50
330.0
 51
60.0
  0
ARC
  5
86
330
7B
100
AcDbEntity
  8
0
  6
Continuous
 62
     7
370
     0
100
AcDbCircle
 10
0.8240285641
 20
0.1434150399
 30
0.0
 40
0.0296313401193637
100
AcDbArc
 50
240.0
 51
330.0
  0
ARC
  5
87
330
7B
100
AcDbEntity
  8
0
  6
Continuous
 62
     7
370
     0
100
AcDbCircle
 10
0.1442254431
 20
0.5358995548
 30
0.0
 40
0.0296313401193647
100
AcDbArc
 50
150.0
 51
240.0
  0
ARC
  5
88
330
7B
100
AcDbEntity
  8
SLD-0
  6
Continuous
 62
   179
370
    15
100
AcDbCircle
 10
0.7669235863
 20
0.8139819981
 30
0.0
 40
0.1822870176394993
100
AcDbArc
 50
359.895142647
 51
120.104857353
  0
ARC
  5
89
330
7B
100
AcDbEntity
  8
SLD-0
  6
Continuous
 62
   179
370
    15
100
AcDbCircle
 10
0.3931643571
 20
0.9681026396
 30
0.0
 40
0.1442616700901108
100
AcDbArc
 50
60.0
 51
150.0
  0
ARC
  5
8A
330
7B
100
AcDbEntity
  8
SLD-0
  6
Continuous
 62
   179
370
    15
100
AcDbCircle
 10
0.3931281302
 20
0.967011655
 30
0.0
 40
0.0296313401193808
100
AcDbArc
 50
60.0
 51
150.0
  0
ARC
  5
8B
330
7B
100
AcDbEntity
  8
SLD-0
  6
Continuous
 62
   179
370
    15
100
AcDbCircle
 10
0.7705205694
 20
0.8157719627
 30
0.0
 40
0.297642962053122
100
AcDbArc
 50
347.0973347856
 51
132.9026652144
  0
ARC
  5
8C
330
7B
100
AcDbEntity
  8
SLD-0
  6
Continuous
 62
   179
370
    15
100
AcDbCircle
 10
1.0733907125
 20
0.5753737702
 30
0.0
 40
0.1442616700901164
100
AcDbArc
 50
330.0
 51
60.0
  0
ARC
  5
8D
330
7B
100
AcDbEntity
  8
SLD-0
  6
Continuous
 62
   179
370
    15
100
AcDbCircle
 10
0.8244880254
 20
0.1442616701
 30
0.0
 40
0.1442616700901133
100
AcDbArc
 50
240.0
 51
330.0
  0
ARC
  5
8E
330
7B
100
AcDbEntity
  8
SLD-0
  6
Continuous
 62
   179
370
    15
100
AcDbCircle
 10
0.1442616701
 20
0.5369905395
 30
0.0
 40
0.1442616700901139
100
AcDbArc
 50
150.0
 51
240.0
  0
ARC
  5
8F
330
7B
100
AcDbEntity
  8
SLD-0
  6
Continuous
 62
   179
370
    15
100
AcDbCircle
 10
0.1442254431
 20
0.5358995548
 30
0.0
 40
0.0296313401193647
100
AcDbArc
 50
150.0
 51
240.0
  0
ARC
  5
90
330
7B
100
AcDbEntity
  8
SLD-0
  6
Continuous
 62
   179
370
    15
100
AcDbCircle
 10
0.8240285641
 20
0.1434150399
 30
0.0
 40
0.0296313401193637
100
AcDbArc
 50
240.0
 51
330.0
  0
ARC
  5
91
330
7B
100
AcDbEntity
  8
SLD-0
  6
Continuous
 62
   179
370
    15
100
AcDbCircle
 10
1.0729312512
 20
0.5745271401
 30
0.0
 40
0.0296313401193661
100
AcDbArc
 50
330.0
 51
60.0
  0
LINE
  5
92
330
7B
100
AcDbEntity
  8
0
  6
Continuous
 62
     7
370
     0
100
AcDbLine
 10
0.2682300861
 20
1.0402334746
 30
0.0
 11
0.019327399
 21
0.6091213745
 31
0.0
  0
LINE
  5
93
330
7B
100
AcDbEntity
  8
0
  6
Continuous
 62
     7
370
     0
100
AcDbLine
 10
0.072130835
 20
0.4120562684
 30
0.0
 11
0.7523571904
 21
0.019327399
 31
0.0
  0
LINE
  5
94
330
7B
100
AcDbEntity
  8
0
  6
Continuous
 62
     7
370
     0
100
AcDbLine
 10
0.9494222965
 20
0.072130835
 30
0.0
 11
1.1983249836
 21
0.5032429352
 31
0.0
  0
LINE
  5
95
330
7B
100
AcDbEntity
  8
0
  6
Continuous
 62
     7
370
     0
100
AcDbLine
 10
1.1455215475
 20
0.7003080413
 30
0.0
 11
1.0606482872
 21
0.749309641
 31
0.0
  0
LINE
  5
96
330
7B
100
AcDbEntity
  8
0
  6
Continuous
 62
     7
370
     0
100
AcDbLine
 10
0.5678986515
 20
1.0337987758
 30
0.0
 11
0.4652951922
 21
1.0930369107
 31
0.0
  0
LINE
  5
97
330
7B
100
AcDbEntity
  8
0
  6
Continuous
 62
     7
370
     0
100
AcDbLine
 10
0.9492102987
 20
0.8136483937
 30
0.0
 11
0.6754913202
 21
0.9716801196
 31
0.0
  0
LINE
  5
98
330
7B
100
AcDbEntity
  8
0
  6
Continuous
 62
     7
370
     0
100
AcDbLine
 10
0.4079438003
 20
0.9926731483
 30
0.0
 11
1.0877469212
 21
0.6001886334
 31
0.0
  0
LINE
  5
99
330
7B
100
AcDbEntity
  8
0
  6
Continuous
 62
     7
370
     0
100
AcDbLine
 10
1.0985927445
 20
0.55971147
 30
0.0
 11
0.8496900574
 21
0.1285993699
 31
0.0
  0
LINE
  5
9A
330
7B
100
AcDbEntity
  8
0
  6
Continuous
 62
     7
370
     0
100
AcDbLine
 10
0.8092128941
 20
0.1177535467
 30
0.0
 11
0.1294097731
 21
0.5102380615
 31
0.0
  0
LINE
  5
9B
330
7B
100
AcDbEntity
  8
0
  6
Continuous
 62
     7
370
     0
100
AcDbLine
 10
0.1185639499
 20
0.5507152249
 30
0.0
 11
0.3674666369
 21
0.981827325
 31
0.0
  0
LINE
  5
9C
330
7B
100
AcDbEntity
  8
SLD-0
  6
Continuous
 62
   179
370
    15
100
AcDbLine
 10
0.4652951922
 20
1.0930369107
 30
0.0
 11
0.5678986515
 21
1.0337987758
 31
0.0
  0
LINE
  5
9D
330
7B
100
AcDbEntity
  8
SLD-0
  6
Continuous
 62
   179
370
    15
100
AcDbLine
 10
1.0606482872
 20
0.749309641
 30
0.0
 11
1.1455215475
 21
0.7003080413
 31
0.0
  0
LINE
  5
9E
330
7B
100
AcDbEntity
  8
SLD-0
  6
Continuous
 62
   179
370
    15
100
AcDbLine
 10
0.9494222965
 20
0.072130835
 30
0.0
 11
1.1983249836
 21
0.5032429352
 31
0.0
  0
LINE
  5
9F
330
7B
100
AcDbEntity
  8
SLD-0
  6
Continuous
 62
   179
370
    15
100
AcDbLine
 10
0.072130835
 20
0.4120562684
 30
0.0
 11
0.7523571904
 21
0.019327399
 31
0.0
  0
LINE
  5
A0
330
7B
100
AcDbEntity
  8
SLD-0
  6
Continuous
 62
   179
370
    15
100
AcDbLine
 10
0.019327399
 20
0.6091213745
 30
0.0
 11
0.2682300861
 21
1.0402334746
 31
0.0
  0
LINE
  5
A1
330
7B
100
AcDbEntity
  8
SLD-0
  6
Continuous
 62
   179
370
    15
100
AcDbLine
 10
0.1185639499
 20
0.5507152249
 30
0.0
 11
0.3674666369
 21
0.981827325
 31
0.0
  0
LINE
  5
A2
330
7B
100
AcDbEntity
  8
SLD-0
  6
Continuous
 62
   179
370
    15
100
AcDbLine
 10
0.1294097731
 20
0.5102380615
 30
0.0
 11
0.8092128941
 21
0.1177535467
 31
0.0
  0
LINE
  5
A3
330
7B
100
AcDbEntity
  8
SLD-0
  6
Continuous
 62
   179
370
    15
100
AcDbLine
 10
0.8496900574
 20
0.1285993699
 30
0.0
 11
1.0985927445
 21
0.55971147
 31
0.0
  0
LINE
  5
A4
330
7B
100
AcDbEntity
  8
SLD-0
  6
Continuous
 62
   179
370
    15
100
AcDbLine
 10
0.4079438003
 20
0.9926731483
 30
0.0
 11
1.0877469212
 21
0.6001886334
 31
0.0
  0
LINE
  5
A5
330
7B
100
AcDbEntity
  8
SLD-0
  6
Continuous
 62
   179
370
    15
100
AcDbLine
 10
0.6754913202
 20
0.9716801196
 30
0.0
 11
0.9492102987
 21
0.8136483937
 31
0.0
  0
HATCH
  5
A6
330
7B
100
AcDbEntity
  8
0
  6
Continuous
 62
   179
100
AcDbHatch
 10
0.0
 20
0.0
 30
0.0
210
0.0
220
0.0
230
1.0
  2
SOLID
 70
     1
 71
     0
 91
        3
 92
        0
 93
       10
 72
     1
 10
0.567898651487124
 20
1.033798775839558
 11
0.4652951921950197
 21
1.093036910681636
 72
     2
 10
0.393164357149966
 20
0.9681026395912304
 40
0.1442616700901097
 50
60.00000000000055
 51
150.0000000000006
 73
     1
 72
     1
 10
0.2682300860595603
 20
1.040233474636284
 11
0.0193273989997067
 21
0.6091213745081917
 72
     2
 10
0.1442616700901141
 20
0.536990539463133
 40
0.1442616700901095
 50
149.9999999999992
 51
239.9999999999992
 73
     1
 72
     1
 10
0.0721308350450587
 20
0.4120562683727356
 11
0.7523571903982227
 21
0.0193273989997051
 72
     2
 10
0.8244880254432773
 20
0.1442616700901141
 40
0.1442616700901128
 50
240.0000000000017
 51
330.0000000000004
 73
     1
 72
     1
 10
0.9494222965336837
 20
0.072130835045057
 11
1.198324983593541
 21
0.5032429351731577
 72
     2
 10
1.073390712503128
 20
0.575373770218213
 40
0.1442616700901159
 50
330.0000000000021
 51
420.000000000003
 73
     1
 72
     1
 10
1.145521547548181
 20
0.7003080413086252
 11
1.060648287212062
 21
0.749309641010684
 72
     2
 10
0.770520569376931
 20
0.8157719626939892
 40
0.2976429620531216
 50
347.0973347856244
 51
492.9026652143789
 73
     1
 97
        0
 92
        0
 93
        2
 72
     1
 10
0.9492102986545815
 20
0.8136483937022921
 11
0.6754913202186916
 21
0.9716801195845539
 72
     2
 10
0.7669235862808732
 20
0.8139819980908777
 40
0.1822870176394948
 50
239.8951426469622
 51
360.1048573530384
 73
     0
 97
        0
 92
        0
 93
        8
 72
     1
 10
0.8092128940596605
 20
0.1177535466539445
 11
0.129409773089695
 21
0.5102380615419021
 72
     2
 10
0.1442254431493747
 20
0.5358995548334505
 40
0.0296313401193598
 50
119.9999999999939
 51
210.0000000000092
 73
     0
 72
     1
 10
0.1185639498578385
 20
0.5507152248931317
 11
0.3674666369176839
 21
0.9818273250212209
 72
     2
 10
0.3931281302092421
 20
0.9670116549615265
 40
0.0296313401193751
 50
210.00000000001
 51
300.0000000000126
 73
     0
 72
     1
 10
0.4079438002689316
 20
0.9926731482530734
 11
1.087746921238885
 21
0.600188633365124
 72
     2
 10
1.072931251179192
 20
0.574527140073592
 40
0.0296313401193623
 50
300.0000000000324
 51
389.9999999999932
 73
     0
 72
     1
 10
1.098592744470742
 20
0.5597114700139123
 11
0.8496900574108852
 21
0.1285993698858118
 72
     2
 10
0.8240285641193408
 20
0.143415039945493
 40
0.0296313401193628
 50
30.00000000000047
 51
119.9999999999951
 73
     0
 97
        0
 75
     0
 76
     1
 98
        1
 10
0.0
 20
0.0
  0
ENDBLK
  5
7D
330
7B
100
AcDbEntity
  8
0
100
AcDbBlockEnd
  0
BLOCK
  5
A8
330
A7
100
AcDbEntity
  8
0
100
AcDbBlockBegin
  2
Block17_1_1_1_1_1
 70
     0
 10
0.0
 20
0.0
 30
0.0
  3
Block17_1_1_1_1_1
  1

  0
LINE
  5
AA
330
A7
100
AcDbEntity
  8
0
  6
Continuous
 62
     1
370
     0
100
AcDbLine
 10
4.9461711941
 20
0.3583272689
 30
0.0
 11
5.0950409371
 21
0.3633100543
 31
0.0
  0
LINE
  5
AB
330
A7
100
AcDbEntity
  8
0
  6
Continuous
 62
     1
370
     0
100
AcDbLine
 10
5.1805787545
 20
0.2740532014
 30
0.0
 11
5.1805787545
 21
0.1573549212
 31
0.0
  0
LINE
  5
AC
330
A7
100
AcDbEntity
  8
0
  6
Continuous
 62
     1
370
     0
100
AcDbLine
 10
5.1794594331
 20
0.733624894
 30
0.0
 11
5.1794594331
 21
0.6201040422
 31
0.0
  0
LINE
  5
AD
330
A7
100
AcDbEntity
  8
0
  6
Continuous
 62
     1
370
     0
100
AcDbLine
 10
5.1794594331
 20
0.5288251894
 30
0.0
 11
5.2601588936
 21
0.5109160474
 31
0.0
  0
LINE
  5
AE
330
A7
100
AcDbEntity
  8
0
  6
Continuous
 62
     1
370
     0
100
AcDbLine
 10
5.2077313246
 20
0.1573549212
 30
0.0
 11
5.2077313246
 21
0.2721034158
 31
0.0
  0
LINE
  5
AF
330
A7
100
AcDbEntity
  8
0
  6
Continuous
 62
     1
370
     0
100
AcDbLine
 10
5.2188523241
 20
0.3764530537
 30
0.0
 11
5.1171385075
 21
0.4015114097
 31
0.0
  0
LINE
  5
B0
330
A7
100
AcDbEntity
  8
0
  6
Continuous
 62
     1
370
     0
100
AcDbLine
 10
5.2075868961
 20
0.6190930423
 30
0.0
 11
5.2075868961
 21
0.733624894
 31
0.0
  0
LINE
  5
B1
330
A7
100
AcDbEntity
  8
0
  6
Continuous
 62
     1
370
     0
100
AcDbLine
 10
5.4308373499
 20
0.5488285456
 30
0.0
 11
5.2839173925
 21
0.5408849745
 31
0.0
  0
LINE
  5
B2
330
A7
100
AcDbEntity
  8
0
  6
Continuous
 62
     1
370
     0
100
AcDbLine
 10
4.2397349774
 20
0.3825912677
 30
0.0
 11
4.3926487202
 21
0.3753698395
 31
0.0
  0
LINE
  5
B3
330
A7
100
AcDbEntity
  8
0
  6
Continuous
 62
     1
370
     0
100
AcDbLine
 10
4.1512363744
 20
0.1572104926
 30
0.0
 11
4.1512363744
 21
0.2896514864
 31
0.0
  0
LINE
  5
B4
330
A7
100
AcDbEntity
  8
0
  6
Continuous
 62
     1
370
     0
100
AcDbLine
 10
4.1512363744
 20
0.6078276142
 30
0.0
 11
4.1512363744
 21
0.733624894
 31
0.0
  0
LINE
  5
B5
330
A7
100
AcDbEntity
  8
0
  6
Continuous
 62
     1
370
     0
100
AcDbLine
 10
4.3886769347
 20
0.5298361893
 30
0.0
 11
4.2367380847
 21
0.5217481897
 31
0.0
  0
LINE
  5
B6
330
A7
100
AcDbEntity
  8
0
  6
Continuous
 62
     1
370
     0
100
AcDbLine
 10
4.7210070619
 20
0.5255755467
 30
0.0
 11
4.7210070619
 21
0.4191316946
 31
0.0
  0
LINE
  5
B7
330
A7
100
AcDbEntity
  8
0
  6
Continuous
 62
     1
370
     0
100
AcDbLine
 10
4.9010733748
 20
0.5140934758
 30
0.0
 11
4.9010733748
 21
0.2790359869
 31
0.0
  0
LINE
  5
B8
330
A7
100
AcDbEntity
  8
0
  6
Continuous
 62
     1
370
     0
100
AcDbLine
 10
4.9212572667
 20
0.1719422062
 30
0.0
 11
4.7562476316
 21
0.1719422062
 31
0.0
  0
LINE
  5
B9
330
A7
100
AcDbEntity
  8
0
  6
Continuous
 62
     1
370
     0
100
AcDbLine
 10
4.7441156322
 20
0.2526777738
 30
0.0
 11
4.7441156322
 21
0.5315693321
 31
0.0
  0
LINE
  5
BA
330
A7
100
AcDbEntity
  8
0
  6
Continuous
 62
     1
370
     0
100
AcDbLine
 10
4.572173426
 20
0.5416793316
 30
0.0
 11
4.4293335756
 21
0.5413182602
 31
0.0
  0
LINE
  5
BB
330
A7
100
AcDbEntity
  8
0
  6
Continuous
 62
     1
370
     0
100
AcDbLine
 10
4.1250225899
 20
0.733624894
 30
0.0
 11
4.1250225899
 21
0.6081886857
 31
0.0
  0
LINE
  5
BC
330
A7
100
AcDbEntity
  8
0
  6
Continuous
 62
     1
370
     0
100
AcDbLine
 10
4.1250225899
 20
0.2896514864
 30
0.0
 11
4.1250225899
 21
0.1572104926
 31
0.0
  0
LINE
  5
BD
330
A7
100
AcDbEntity
  8
0
  6
Continuous
 62
     1
370
     0
100
AcDbLine
 10
6.0142926438
 20
0.3989116955
 30
0.0
 11
5.6581318034
 21
0.3989116955
 31
0.0
  0
LINE
  5
BE
330
A7
100
AcDbEntity
  8
0
  6
Continuous
 62
     1
370
     0
100
AcDbLine
 10
5.6581318034
 20
0.5166209757
 30
0.0
 11
5.8512689015
 21
0.5166209757
 31
0.0
  0
LINE
  5
BF
330
A7
100
AcDbEntity
  8
0
  6
Continuous
 62
     1
370
     0
100
AcDbLine
 10
5.8512689015
 20
0.3417179839
 30
0.0
 11
6.0082266441
 21
0.3305969844
 31
0.0
  0
LINE
  5
C0
330
A7
100
AcDbEntity
  8
0
  6
Continuous
 62
   179
370
     0
100
AcDbLine
 10
2.0625826871
 20
0.1717255633
 30
0.0
 11
2.0625826871
 21
0.8821335656
 31
0.0
  0
LINE
  5
C1
330
A7
100
AcDbEntity
  8
0
  6
Continuous
 62
   179
370
     0
100
AcDbLine
 10
2.2169046084
 20
0.1717255633
 30
0.0
 11
2.0625826871
 21
0.1717255633
 31
0.0
  0
LINE
  5
C2
330
A7
100
AcDbEntity
  8
0
  6
Continuous
 62
   179
370
     0
100
AcDbLine
 10
2.2169046084
 20
0.8821335656
 30
0.0
 11
2.2169046084
 21
0.1717255633
 31
0.0
  0
LINE
  5
C3
330
A7
100
AcDbEntity
  8
0
  6
Continuous
 62
   179
370
     0
100
AcDbLine
 10
2.0625826871
 20
0.8821335656
 30
0.0
 11
2.2169046084
 21
0.8821335656
 31
0.0
  0
LINE
  5
C4
330
A7
100
AcDbEntity
  8
0
  6
Continuous
 62
   179
370
     0
100
AcDbLine
 10
1.654445617
 20
0.0
 30
0.0
 11
1.4986974636
 21
0.0
 31
0.0
  0
LINE
  5
C5
330
A7
100
AcDbEntity
  8
0
  6
Continuous
 62
   179
370
     0
100
AcDbLine
 10
1.4986974636
 20
0.7161490377
 30
0.0
 11
1.654445617
 21
0.7161490377
 31
0.0
  0
LINE
  5
C6
330
A7
100
AcDbEntity
  8
0
  6
Continuous
 62
   179
370
     0
100
AcDbLine
 10
1.4986974636
 20
0.0
 30
0.0
 11
1.4986974636
 21
0.7161490377
 31
0.0
  0
LINE
  5
C7
330
A7
100
AcDbEntity
  8
0
  6
Continuous
 62
   179
370
     0
100
AcDbLine
 10
1.654445617
 20
0.7161490377
 30
0.0
 11
1.654445617
 21
0.0
 31
0.0
  0
LINE
  5
C8
330
A7
100
AcDbEntity
  8
0
  6
Continuous
 62
   179
370
     0
100
AcDbLine
 10
1.6804788658
 20
0.1851574199
 30
0.0
 11
1.6804788658
 21
0.3157930566
 31
0.0
  0
LINE
  5
C9
330
A7
100
AcDbEntity
  8
0
  6
Continuous
 62
   179
370
     0
100
AcDbLine
 10
1.6804788658
 20
0.5766310443
 30
0.0
 11
1.6804788658
 21
0.6982398957
 31
0.0
  0
LINE
  5
CA
330
A7
100
AcDbEntity
  8
0
  6
Continuous
 62
   179
370
     0
100
AcDbLine
 10
2.7600101721
 20
0.5140934758
 30
0.0
 11
2.7600101721
 21
0.2790359869
 31
0.0
  0
LINE
  5
CB
330
A7
100
AcDbEntity
  8
0
  6
Continuous
 62
   179
370
     0
100
AcDbLine
 10
2.7801399033
 20
0.1719422062
 30
0.0
 11
2.6151663753
 21
0.1719422062
 31
0.0
  0
LINE
  5
CC
330
A7
100
AcDbEntity
  8
0
  6
Continuous
 62
   179
370
     0
100
AcDbLine
 10
2.6030885366
 20
0.2526777738
 30
0.0
 11
2.6030885366
 21
0.5315693321
 31
0.0
  0
LINE
  5
CD
330
A7
100
AcDbEntity
  8
0
  6
Continuous
 62
   179
370
     0
100
AcDbLine
 10
2.4311282769
 20
0.5416793316
 30
0.0
 11
2.2882703729
 21
0.5413182602
 31
0.0
  0
LINE
  5
CE
330
A7
100
AcDbEntity
  8
0
  6
Continuous
 62
   179
370
     0
100
AcDbLine
 10
3.0383420697
 20
0.733624894
 30
0.0
 11
3.0383420697
 21
0.6201040422
 31
0.0
  0
LINE
  5
CF
330
A7
100
AcDbEntity
  8
0
  6
Continuous
 62
   179
370
     0
100
AcDbLine
 10
3.0383420697
 20
0.5288251894
 30
0.0
 11
3.1190415302
 21
0.5109160474
 31
0.0
  0
LINE
  5
D0
330
A7
100
AcDbEntity
  8
0
  6
Continuous
 62
   179
370
     0
100
AcDbLine
 10
3.0666320148
 20
0.1573549212
 30
0.0
 11
3.0666320148
 21
0.2721034158
 31
0.0
  0
LINE
  5
D1
330
A7
100
AcDbEntity
  8
0
  6
Continuous
 62
   179
370
     0
100
AcDbLine
 10
3.0777710678
 20
0.3764530537
 30
0.0
 11
2.976021144
 21
0.4015114097
 31
0.0
  0
LINE
  5
D2
330
A7
100
AcDbEntity
  8
0
  6
Continuous
 62
   179
370
     0
100
AcDbLine
 10
3.0664514791
 20
0.6190930423
 30
0.0
 11
3.0664514791
 21
0.733624894
 31
0.0
  0
LINE
  5
D3
330
A7
100
AcDbEntity
  8
0
  6
Continuous
 62
   179
370
     0
100
AcDbLine
 10
3.2897199864
 20
0.5488285456
 30
0.0
 11
3.1429083505
 21
0.5408849745
 31
0.0
  0
LINE
  5
D4
330
A7
100
AcDbEntity
  8
0
  6
Continuous
 62
   179
370
     0
100
AcDbLine
 10
3.8166676045
 20
0.1717255633
 30
0.0
 11
3.6609375047
 21
0.1717255633
 31
0.0
  0
LINE
  5
D5
330
A7
100
AcDbEntity
  8
0
  6
Continuous
 62
   179
370
     0
100
AcDbLine
 10
3.8166676045
 20
0.7161490377
 30
0.0
 11
3.8166676045
 21
0.1717255633
 31
0.0
  0
LINE
  5
D6
330
A7
100
AcDbEntity
  8
0
  6
Continuous
 62
   179
370
     0
100
AcDbLine
 10
3.6609375047
 20
0.7161490377
 30
0.0
 11
3.8166676045
 21
0.7161490377
 31
0.0
  0
LINE
  5
D7
330
A7
100
AcDbEntity
  8
0
  6
Continuous
 62
   179
370
     0
100
AcDbLine
 10
3.6609375047
 20
0.1717255633
 30
0.0
 11
3.6609375047
 21
0.7161490377
 31
0.0
  0
LINE
  5
D8
330
A7
100
AcDbEntity
  8
0
  6
Continuous
 62
   179
370
     0
100
AcDbLine
 10
3.8166676045
 20
0.7440237507
 30
0.0
 11
3.6609375047
 21
0.7440237507
 31
0.0
  0
LINE
  5
D9
330
A7
100
AcDbEntity
  8
0
  6
Continuous
 62
   179
370
     0
100
AcDbLine
 10
3.8166676045
 20
0.881989137
 30
0.0
 11
3.8166676045
 21
0.7440237507
 31
0.0
  0
LINE
  5
DA
330
A7
100
AcDbEntity
  8
0
  6
Continuous
 62
   179
370
     0
100
AcDbLine
 10
3.6609375047
 20
0.881989137
 30
0.0
 11
3.8166676045
 21
0.881989137
 31
0.0
  0
LINE
  5
DB
330
A7
100
AcDbEntity
  8
0
  6
Continuous
 62
   179
370
     0
100
AcDbLine
 10
3.6609375047
 20
0.7440237507
 30
0.0
 11
3.6609375047
 21
0.881989137
 31
0.0
  0
LINE
  5
DC
330
A7
100
AcDbEntity
  8
0
  6
Continuous
 62
   179
370
     0
100
AcDbLine
 10
3.3022130573
 20
0.5997396146
 30
0.0
 11
3.3022130573
 21
0.7161490377
 31
0.0
  0
LINE
  5
DD
330
A7
100
AcDbEntity
  8
0
  6
Continuous
 62
   179
370
     0
100
AcDbLine
 10
3.3022130573
 20
0.7161490377
 30
0.0
 11
3.3776769823
 21
0.7161490377
 31
0.0
  0
LINE
  5
DE
330
A7
100
AcDbEntity
  8
0
  6
Continuous
 62
   179
370
     0
100
AcDbLine
 10
3.3776769823
 20
0.7161490377
 30
0.0
 11
3.3776769823
 21
0.8147937474
 31
0.0
  0
LINE
  5
DF
330
A7
100
AcDbEntity
  8
0
  6
Continuous
 62
   179
370
     0
100
AcDbLine
 10
3.3776769823
 20
0.8147937474
 30
0.0
 11
3.5334431892
 21
0.8147937474
 31
0.0
  0
LINE
  5
E0
330
A7
100
AcDbEntity
  8
0
  6
Continuous
 62
   179
370
     0
100
AcDbLine
 10
3.5334431892
 20
0.8147937474
 30
0.0
 11
3.5334431892
 21
0.7161490377
 31
0.0
  0
LINE
  5
E1
330
A7
100
AcDbEntity
  8
0
  6
Continuous
 62
   179
370
     0
100
AcDbLine
 10
3.5334431892
 20
0.7161490377
 30
0.0
 11
3.6360596844
 21
0.7161490377
 31
0.0
  0
LINE
  5
E2
330
A7
100
AcDbEntity
  8
0
  6
Continuous
 62
   179
370
     0
100
AcDbLine
 10
3.6360596844
 20
0.7161490377
 30
0.0
 11
3.6360596844
 21
0.5997396146
 31
0.0
  0
LINE
  5
E3
330
A7
100
AcDbEntity
  8
0
  6
Continuous
 62
   179
370
     0
100
AcDbLine
 10
3.6360596844
 20
0.5997396146
 30
0.0
 11
3.5334431892
 21
0.5997396146
 31
0.0
  0
LINE
  5
E4
330
A7
100
AcDbEntity
  8
0
  6
Continuous
 62
   179
370
     0
100
AcDbLine
 10
3.5334431892
 20
0.5997396146
 30
0.0
 11
3.5334431892
 21
0.3739255538
 31
0.0
  0
LINE
  5
E5
330
A7
100
AcDbEntity
  8
0
  6
Continuous
 62
   179
370
     0
100
AcDbLine
 10
3.6360596844
 20
0.2945620576
 30
0.0
 11
3.6360596844
 21
0.1743974918
 31
0.0
  0
LINE
  5
E6
330
A7
100
AcDbEntity
  8
0
  6
Continuous
 62
   179
370
     0
100
AcDbLine
 10
3.3776769823
 20
0.3186816279
 30
0.0
 11
3.3776769823
 21
0.5997396146
 31
0.0
  0
LINE
  5
E7
330
A7
100
AcDbEntity
  8
0
  6
Continuous
 62
   179
370
     0
100
AcDbLine
 10
3.3776769823
 20
0.5997396146
 30
0.0
 11
3.3022130573
 21
0.5997396146
 31
0.0
  0
LINE
  5
E8
330
A7
100
AcDbEntity
  8
0
  6
Continuous
 62
   179
370
     0
100
AcDbLine
 10
2.8050899378
 20
0.3583272689
 30
0.0
 11
2.9539235737
 21
0.3633100543
 31
0.0
  0
LINE
  5
E9
330
A7
100
AcDbEntity
  8
0
  6
Continuous
 62
   179
370
     0
100
AcDbLine
 10
3.0394433375
 20
0.2740532014
 30
0.0
 11
3.0394433375
 21
0.1573549212
 31
0.0
  0
LINE
  5
EA
330
A7
100
AcDbEntity
  8
0
  6
Continuous
 62
   179
370
     0
100
AcDbLine
 10
2.5799438591
 20
0.5255755467
 30
0.0
 11
2.5799438591
 21
0.4191316946
 31
0.0
  0
SPLINE
  5
EB
330
A7
100
AcDbEntity
  8
0
  6
Continuous
 62
     1
370
     0
100
AcDbSpline
210
0.0
220
0.0
230
1.0
 70
     8
 71
     3
 72
     8
 73
     4
 74
     0
 42
0.000000001
 43
0.00000001
 40
0.0
 40
0.0
 40
0.0
 40
0.0
 40
0.25
 40
0.25
 40
0.25
 40
0.25
 10
5.180578754498822
 20
0.1573549211757951
 30
0.0
 10
5.014485905178835
 20
0.1703534919921427
 30
0.0
 10
4.954186979447416
 20
0.2418456314820648
 30
0.0
 10
4.946171194110682
 20
0.3583272688529591
 30
0.0
  0
SPLINE
  5
EC
330
A7
100
AcDbEntity
  8
0
  6
Continuous
 62
     1
370
     0
100
AcDbSpline
210
0.0
220
0.0
230
1.0
 70
     8
 71
     3
 72
     8
 73
     4
 74
     0
 42
0.000000001
 43
0.00000001
 40
0.5
 40
0.5
 40
0.5
 40
0.5
 40
0.75
 40
0.75
 40
0.75
 40
0.75
 10
5.09504093709902
 20
0.3633100543325764
 30
0.0
 10
5.103056722435767
 20
0.3162263422644931
 30
0.0
 10
5.113130614818432
 20
0.2871239864923159
 30
0.0
 10
5.180578754498822
 20
0.2740532013936781
 30
0.0
  0
SPLINE
  5
ED
330
A7
100
AcDbEntity
  8
0
  6
Continuous
 62
     1
370
     0
100
AcDbSpline
210
0.0
220
0.0
230
1.0
 70
     8
 71
     3
 72
     8
 73
     4
 74
     0
 42
0.000000001
 43
0.00000001
 40
0.0
 40
0.0
 40
0.0
 40
0.0
 40
0.0714285714285714
 40
0.0714285714285714
 40
0.0714285714285714
 40
0.0714285714285714
 10
5.117138507486805
 20
0.401511409676178
 30
0.0
 10
5.054925903274125
 20
0.4184817660197261
 30
0.0
 10
4.963647050430452
 20
0.4436123362646833
 30
0.0
 10
4.963647050430452
 20
0.5599495450709906
 30
0.0
  0
SPLINE
  5
EE
330
A7
100
AcDbEntity
  8
0
  6
Continuous
 62
     1
370
     0
100
AcDbSpline
210
0.0
220
0.0
230
1.0
 70
     8
 71
     3
 72
     8
 73
     4
 74
     0
 42
0.000000001
 43
0.00000001
 40
0.0714285714285714
 40
0.0714285714285714
 40
0.0714285714285714
 40
0.0714285714285714
 40
0.1428571428571428
 40
0.1428571428571428
 40
0.1428571428571428
 40
0.1428571428571428
 10
4.963647050430452
 20
0.5599495450709906
 30
0.0
 10
4.963647050430452
 20
0.5879686866084411
 30
0.0
 10
4.96866594305122
 20
0.6321638273840113
 30
0.0
 10
5.003798191396503
 20
0.6703290755864515
 30
0.0
  0
SPLINE
  5
EF
330
A7
100
AcDbEntity
  8
0
  6
Continuous
 62
     1
370
     0
100
AcDbSpline
210
0.0
220
0.0
230
1.0
 70
     8
 71
     3
 72
     8
 73
     4
 74
     0
 42
0.000000001
 43
0.00000001
 40
0.1428571428571428
 40
0.1428571428571428
 40
0.1428571428571428
 40
0.1428571428571428
 40
0.2142857142857144
 40
0.2142857142857144
 40
0.2142857142857144
 40
0.2142857142857144
 10
5.003798191396503
 20
0.6703290755864515
 30
0.0
 10
5.056947903178896
 20
0.7266201086494501
 30
0.0
 10
5.134253292395013
 20
0.7306280013178579
 30
0.0
 10
5.17945943312296
 20
0.7336248940338619
 30
0.0
  0
SPLINE
  5
F0
330
A7
100
AcDbEntity
  8
0
  6
Continuous
 62
     1
370
     0
100
AcDbSpline
210
0.0
220
0.0
230
1.0
 70
     8
 71
     3
 72
     8
 73
     4
 74
     0
 42
0.000000001
 43
0.00000001
 40
0.2857142857142856
 40
0.2857142857142856
 40
0.2857142857142856
 40
0.2857142857142856
 40
0.3571428571428568
 40
0.3571428571428568
 40
0.3571428571428568
 40
0.3571428571428568
 10
5.17945943312296
 20
0.6201040422377445
 30
0.0
 10
5.146276970400124
 20
0.6180820423329828
 30
0.0
 10
5.112155722007223
 20
0.6090552570438421
 30
0.0
 10
5.112155722007223
 20
0.5749701157921066
 30
0.0
  0
SPLINE
  5
F1
330
A7
100
AcDbEntity
  8
0
  6
Continuous
 62
     1
370
     0
100
AcDbSpline
210
0.0
220
0.0
230
1.0
 70
     8
 71
     3
 72
     8
 73
     4
 74
     0
 42
0.000000001
 43
0.00000001
 40
0.3571428571428568
 40
0.3571428571428568
 40
0.3571428571428568
 40
0.3571428571428568
 40
0.4285714285714288
 40
0.4285714285714288
 40
0.4285714285714288
 40
0.4285714285714288
 10
5.112155722007223
 20
0.5749701157921066
 30
0.0
 10
5.112155722007223
 20
0.5478175456423812
 30
0.0
 10
5.132159078207917
 20
0.541823760210419
 30
0.0
 10
5.17945943312296
 20
0.5288251893940517
 30
0.0
  0
SPLINE
  5
F2
330
A7
100
AcDbEntity
  8
0
  6
Continuous
 62
     1
370
     0
100
AcDbSpline
210
0.0
220
0.0
230
1.0
 70
     8
 71
     3
 72
     8
 73
     4
 74
     0
 42
0.000000001
 43
0.00000001
 40
0.5
 40
0.5
 40
0.5
 40
0.5
 40
0.5714285714285712
 40
0.5714285714285712
 40
0.5714285714285712
 40
0.5714285714285712
 10
5.260158893607784
 20
0.5109160473803965
 30
0.0
 10
5.329773461757551
 20
0.494812262424626
 30
0.0
 10
5.446760599104657
 20
0.4696816921796885
 30
0.0
 10
5.446760599104657
 20
0.3383239126522652
 30
0.0
  0
SPLINE
  5
F3
330
A7
100
AcDbEntity
  8
0
  6
Continuous
 62
     1
370
     0
100
AcDbSpline
210
0.0
220
0.0
230
1.0
 70
     8
 71
     3
 72
     8
 73
     4
 74
     0
 42
0.000000001
 43
0.00000001
 40
0.5714285714285712
 40
0.5714285714285712
 40
0.5714285714285712
 40
0.5714285714285712
 40
0.6428571428571423
 40
0.6428571428571423
 40
0.6428571428571423
 40
0.6428571428571423
 10
5.446760599104657
 20
0.3383239126522652
 30
0.0
 10
5.446760599104657
 20
0.2700814158664645
 30
0.0
 10
5.412458815005992
 20
0.2146930613323655
 30
0.0
 10
5.343855246808602
 20
0.1834964913731101
 30
0.0
  0
SPLINE
  5
F4
330
A7
100
AcDbEntity
  8
0
  6
Continuous
 62
     1
370
     0
100
AcDbSpline
210
0.0
220
0.0
230
1.0
 70
     8
 71
     3
 72
     8
 73
     4
 74
     0
 42
0.000000001
 43
0.00000001
 40
0.6428571428571423
 40
0.6428571428571423
 40
0.6428571428571423
 40
0.6428571428571423
 40
0.7142857142857135
 40
0.7142857142857135
 40
0.7142857142857135
 40
0.7142857142857135
 10
5.343855246808602
 20
0.1834964913731101
 30
0.0
 10
5.289369570803398
 20
0.1583659211281989
 30
0.0
 10
5.230984323553323
 20
0.1573549211757951
 30
0.0
 10
5.207731324648514
 20
0.1573549211757951
 30
0.0
  0
SPLINE
  5
F5
330
A7
100
AcDbEntity
  8
0
  6
Continuous
 62
     1
370
     0
100
AcDbSpline
210
0.0
220
0.0
230
1.0
 70
     8
 71
     3
 72
     8
 73
     4
 74
     0
 42
0.000000001
 43
0.00000001
 40
0.7857142857142847
 40
0.7857142857142847
 40
0.7857142857142847
 40
0.7857142857142847
 40
0.8571428571428577
 40
0.8571428571428577
 40
0.8571428571428577
 40
0.8571428571428577
 10
5.207731324648514
 20
0.2721034157712066
 30
0.0
 10
5.228890109366239
 20
0.2730422014412873
 30
0.0
 10
5.288394677992181
 20
0.2780972012031883
 30
0.0
 10
5.288394677992181
 20
0.3241699133189202
 30
0.0
  0
SPLINE
  5
F6
330
A7
100
AcDbEntity
  8
0
  6
Continuous
 62
     1
370
     0
100
AcDbSpline
210
0.0
220
0.0
230
1.0
 70
     8
 71
     3
 72
     8
 73
     4
 74
     0
 42
0.000000001
 43
0.00000001
 40
0.8571428571428577
 40
0.8571428571428577
 40
0.8571428571428577
 40
0.8571428571428577
 40
0.9285714285714288
 40
0.9285714285714288
 40
0.9285714285714288
 40
0.9285714285714288
 10
5.288394677992181
 20
0.3241699133189202
 30
0.0
 10
5.288394677992181
 20
0.3573162689005946
 30
0.0
 10
5.254092893893466
 20
0.3673540541421129
 30
0.0
 10
5.218852324124724
 20
0.37645305371357
 30
0.0
  0
SPLINE
  5
F7
330
A7
100
AcDbEntity
  8
0
  6
Continuous
 62
     1
370
     0
100
AcDbSpline
210
0.0
220
0.0
230
1.0
 70
     8
 71
     3
 72
     8
 73
     4
 74
     0
 42
0.000000001
 43
0.00000001
 40
0.0
 40
0.0
 40
0.0
 40
0.0
 40
0.2
 40
0.2
 40
0.2
 40
0.2
 10
5.283917392488752
 20
0.5408849745403448
 30
0.0
 10
5.281895392583991
 20
0.6071054714213968
 30
0.0
 10
5.228673466519274
 20
0.6151212567581469
 30
0.0
 10
5.207586896083892
 20
0.6190930422853866
 30
0.0
  0
SPLINE
  5
F8
330
A7
100
AcDbEntity
  8
0
  6
Continuous
 62
     1
370
     0
100
AcDbSpline
210
0.0
220
0.0
230
1.0
 70
     8
 71
     3
 72
     8
 73
     4
 74
     0
 42
0.000000001
 43
0.00000001
 40
0.3999999999999999
 40
0.3999999999999999
 40
0.3999999999999999
 40
0.3999999999999999
 40
0.5999999999999996
 40
0.5999999999999996
 40
0.5999999999999996
 40
0.5999999999999996
 10
5.207586896083892
 20
0.7336248940338619
 30
0.0
 10
5.269907821720027
 20
0.7306280013178579
 30
0.0
 10
5.330206747451427
 20
0.7155352163144124
 30
0.0
 10
5.374510209650465
 20
0.6743008611136913
 30
0.0
  0
SPLINE
  5
F9
330
A7
100
AcDbEntity
  8
0
  6
Continuous
 62
     1
370
     0
100
AcDbSpline
210
0.0
220
0.0
230
1.0
 70
     8
 71
     3
 72
     8
 73
     4
 74
     0
 42
0.000000001
 43
0.00000001
 40
0.5999999999999996
 40
0.5999999999999996
 40
0.5999999999999996
 40
0.5999999999999996
 40
0.7999999999999998
 40
0.7999999999999998
 40
0.7999999999999998
 40
0.7999999999999998
 10
5.374510209650465
 20
0.6743008611136913
 30
0.0
 10
5.416719457662442
 20
0.6341858272887928
 30
0.0
 10
5.426829457186272
 20
0.5899906865132225
 30
0.0
 10
5.430837349854645
 20
0.5488285455947849
 30
0.0
  0
SPLINE
  5
FA
330
A7
100
AcDbEntity
  8
0
  6
Continuous
 62
     1
370
     0
100
AcDbSpline
210
0.0
220
0.0
230
1.0
 70
     8
 71
     3
 72
     8
 73
     4
 74
     0
 42
0.000000001
 43
0.00000001
 40
0.0
 40
0.0
 40
0.0
 40
0.0
 40
0.25
 40
0.25
 40
0.25
 40
0.25
 10
4.151236374408762
 20
0.2896514863733057
 30
0.0
 10
4.208538407424164
 20
0.2987504859447235
 30
0.0
 10
4.228722299330665
 20
0.3290804845162014
 30
0.0
 10
4.239734977383403
 20
0.3825912677101519
 30
0.0
  0
SPLINE
  5
FB
330
A7
100
AcDbEntity
  8
0
  6
Continuous
 62
     1
370
     0
100
AcDbSpline
210
0.0
220
0.0
230
1.0
 70
     8
 71
     3
 72
     8
 73
     4
 74
     0
 42
0.000000001
 43
0.00000001
 40
0.5
 40
0.5
 40
0.5
 40
0.5
 40
0.75
 40
0.75
 40
0.75
 40
0.75
 10
4.392648720181261
 20
0.3753698394788629
 30
0.0
 10
4.379577935082613
 20
0.2753530584753017
 30
0.0
 10
4.314260116730467
 20
0.165298492230209
 30
0.0
 10
4.151236374408762
 20
0.1572104926111753
 30
0.0
  0
SPLINE
  5
FC
330
A7
100
AcDbEntity
  8
0
  6
Continuous
 62
     1
370
     0
100
AcDbSpline
210
0.0
220
0.0
230
1.0
 70
     8
 71
     3
 72
     8
 73
     4
 74
     0
 42
0.000000001
 43
0.00000001
 40
0.0
 40
0.0
 40
0.0
 40
0.0
 40
0.2
 40
0.2
 40
0.2
 40
0.2
 10
4.236738084667419
 20
0.5217481897274021
 30
0.0
 10
4.223631192427588
 20
0.5867771509502823
 30
0.0
 10
4.191459729657151
 20
0.599811828907785
 30
0.0
 10
4.151236374408762
 20
0.6078276142445349
 30
0.0
  0
SPLINE
  5
FD
330
A7
100
AcDbEntity
  8
0
  6
Continuous
 62
     1
370
     0
100
AcDbSpline
210
0.0
220
0.0
230
1.0
 70
     8
 71
     3
 72
     8
 73
     4
 74
     0
 42
0.000000001
 43
0.00000001
 40
0.3999999999999999
 40
0.3999999999999999
 40
0.3999999999999999
 40
0.3999999999999999
 40
0.5999999999999996
 40
0.5999999999999996
 40
0.5999999999999996
 40
0.5999999999999996
 10
4.151236374408762
 20
0.7336248940338619
 30
0.0
 10
4.237749084619803
 20
0.7316390012702355
 30
0.0
 10
4.288046332250823
 20
0.6987092885354775
 30
0.0
 10
4.315235009541685
 20
0.6746980396664021
 30
0.0
  0
SPLINE
  5
FE
330
A7
100
AcDbEntity
  8
0
  6
Continuous
 62
     1
370
     0
100
AcDbSpline
210
0.0
220
0.0
230
1.0
 70
     8
 71
     3
 72
     8
 73
     4
 74
     0
 42
0.000000001
 43
0.00000001
 40
0.5999999999999996
 40
0.5999999999999996
 40
0.5999999999999996
 40
0.5999999999999996
 40
0.7999999999999998
 40
0.7999999999999998
 40
0.7999999999999998
 40
0.7999999999999998
 10
4.315235009541685
 20
0.6746980396664021
 30
0.0
 10
4.37358414965062
 20
0.622703756401018
 30
0.0
 10
4.382647042080912
 20
0.5647879019859358
 30
0.0
 10
4.388676934654031
 20
0.5298361893464489
 30
0.0
  0
SPLINE
  5
FF
330
A7
100
AcDbEntity
  8
0
  6
Continuous
 62
     1
370
     0
100
AcDbSpline
210
0.0
220
0.0
230
1.0
 70
     8
 71
     3
 72
     8
 73
     4
 74
     0
 42
0.000000001
 43
0.00000001
 40
0.0
 40
0.0
 40
0.0
 40
0.0
 40
0.0909090909090909
 40
0.0909090909090909
 40
0.0909090909090909
 40
0.0909090909090909
 10
4.721007061858631
 20
0.4191316945605543
 30
0.0
 10
4.706925276807587
 20
0.4150154804687407
 30
0.0
 10
4.638610565739469
 20
0.4020169096523668
 30
0.0
 10
4.622506780783656
 20
0.3979729098428237
 30
0.0
  0
SPLINE
  5
100
330
A7
100
AcDbEntity
  8
0
  6
Continuous
 62
     1
370
     0
100
AcDbSpline
210
0.0
220
0.0
230
1.0
 70
     8
 71
     3
 72
     8
 73
     4
 74
     0
 42
0.000000001
 43
0.00000001
 40
0.0909090909090909
 40
0.0909090909090909
 40
0.0909090909090909
 40
0.0909090909090909
 40
0.1818181818181819
 40
0.1818181818181819
 40
0.1818181818181819
 40
0.1818181818181819
 10
4.622506780783656
 20
0.3979729098428237
 30
0.0
 10
4.579250425678143
 20
0.3859131246965634
 30
0.0
 10
4.556069641055672
 20
0.368798339788376
 30
0.0
 10
4.556069641055672
 20
0.3347131985366076
 30
0.0
  0
SPLINE
  5
101
330
A7
100
AcDbEntity
  8
0
  6
Continuous
 62
     1
370
     0
100
AcDbSpline
210
0.0
220
0.0
230
1.0
 70
     8
 71
     3
 72
     8
 73
     4
 74
     0
 42
0.000000001
 43
0.00000001
 40
0.1818181818181819
 40
0.1818181818181819
 40
0.1818181818181819
 40
0.1818181818181819
 40
0.2727272727272729
 40
0.2727272727272729
 40
0.2727272727272729
 40
0.2727272727272729
 10
4.556069641055672
 20
0.3347131985366076
 30
0.0
 10
4.556069641055672
 20
0.3005558430025491
 30
0.0
 10
4.583258318346529
 20
0.2764362727100219
 30
0.0
 10
4.628500566215641
 20
0.2764362727100219
 30
0.0
  0
SPLINE
  5
102
330
A7
100
AcDbEntity
  8
0
  6
Continuous
 62
     1
370
     0
100
AcDbSpline
210
0.0
220
0.0
230
1.0
 70
     8
 71
     3
 72
     8
 73
     4
 74
     0
 42
0.000000001
 43
0.00000001
 40
0.2727272727272729
 40
0.2727272727272729
 40
0.2727272727272729
 40
0.2727272727272729
 40
0.3636363636363638
 40
0.3636363636363638
 40
0.3636363636363638
 40
0.3636363636363638
 10
4.628500566215641
 20
0.2764362727100219
 30
0.0
 10
4.648576136698662
 20
0.2764362727100219
 30
0.0
 10
4.685838706372192
 20
0.2804802725195322
 30
0.0
 10
4.721007061858631
 20
0.3065496284345374
 30
0.0
  0
SPLINE
  5
103
330
A7
100
AcDbEntity
  8
0
  6
Continuous
 62
     1
370
     0
100
AcDbSpline
210
0.0
220
0.0
230
1.0
 70
     8
 71
     3
 72
     8
 73
     4
 74
     0
 42
0.000000001
 43
0.00000001
 40
0.3636363636363638
 40
0.3636363636363638
 40
0.3636363636363638
 40
0.3636363636363638
 40
0.454545454545455
 40
0.454545454545455
 40
0.454545454545455
 40
0.454545454545455
 10
4.721007061858631
 20
0.3065496284345374
 30
0.0
 10
4.719021169095031
 20
0.2884238435739723
 30
0.0
 10
4.718046276283802
 20
0.2713812729480816
 30
0.0
 10
4.718046276283802
 20
0.2542664880398941
 30
0.0
  0
SPLINE
  5
104
330
A7
100
AcDbEntity
  8
0
  6
Continuous
 62
     1
370
     0
100
AcDbSpline
210
0.0
220
0.0
230
1.0
 70
     8
 71
     3
 72
     8
 73
     4
 74
     0
 42
0.000000001
 43
0.00000001
 40
0.454545454545455
 40
0.454545454545455
 40
0.454545454545455
 40
0.454545454545455
 40
0.5454545454545459
 40
0.5454545454545459
 40
0.5454545454545459
 40
0.5454545454545459
 10
4.718046276283802
 20
0.2542664880398941
 30
0.0
 10
4.718046276283802
 20
0.2451674884684697
 30
0.0
 10
4.721007061858631
 20
0.2018389190806245
 30
0.0
 10
4.721007061858631
 20
0.1927399195091674
 30
0.0
  0
SPLINE
  5
105
330
A7
100
AcDbEntity
  8
0
  6
Continuous
 62
     1
370
     0
100
AcDbSpline
210
0.0
220
0.0
230
1.0
 70
     8
 71
     3
 72
     8
 73
     4
 74
     0
 42
0.000000001
 43
0.00000001
 40
0.5454545454545459
 40
0.5454545454545459
 40
0.5454545454545459
 40
0.5454545454545459
 40
0.6363636363636367
 40
0.6363636363636367
 40
0.6363636363636367
 40
0.6363636363636367
 10
4.721007061858631
 20
0.1927399195091674
 30
0.0
 10
4.673778921225919
 20
0.1544663498832821
 30
0.0
 10
4.60235899601834
 20
0.1544663498832821
 30
0.0
 10
4.587266211014894
 20
0.1544663498832821
 30
0.0
  0
SPLINE
  5
106
330
A7
100
AcDbEntity
  8
0
  6
Continuous
 62
     1
370
     0
100
AcDbSpline
210
0.0
220
0.0
230
1.0
 70
     8
 71
     3
 72
     8
 73
     4
 74
     0
 42
0.000000001
 43
0.00000001
 40
0.6363636363636367
 40
0.6363636363636367
 40
0.6363636363636367
 40
0.6363636363636367
 40
0.7272727272727275
 40
0.7272727272727275
 40
0.7272727272727275
 40
0.7272727272727275
 10
4.587266211014894
 20
0.1544663498832821
 30
0.0
 10
4.484649715848079
 20
0.1544663498832821
 30
0.0
 10
4.399148005589441
 20
0.2179427040364344
 30
0.0
 10
4.399148005589441
 20
0.3296581987747197
 30
0.0
  0
SPLINE
  5
107
330
A7
100
AcDbEntity
  8
0
  6
Continuous
 62
     1
370
     0
100
AcDbSpline
210
0.0
220
0.0
230
1.0
 70
     8
 71
     3
 72
     8
 73
     4
 74
     0
 42
0.000000001
 43
0.00000001
 40
0.7272727272727275
 40
0.7272727272727275
 40
0.7272727272727275
 40
0.7272727272727275
 40
0.8181818181818183
 40
0.8181818181818183
 40
0.8181818181818183
 40
0.8181818181818183
 10
4.399148005589441
 20
0.3296581987747197
 30
0.0
 10
4.399148005589441
 20
0.4581996212919072
 30
0.0
 10
4.506855607659324
 20
0.4843411914892419
 30
0.0
 10
4.558163855242751
 20
0.4954621909654345
 30
0.0
  0
SPLINE
  5
108
330
A7
100
AcDbEntity
  8
0
  6
Continuous
 62
     1
370
     0
100
AcDbSpline
210
0.0
220
0.0
230
1.0
 70
     8
 71
     3
 72
     8
 73
     4
 74
     0
 42
0.000000001
 43
0.00000001
 40
0.8181818181818183
 40
0.8181818181818183
 40
0.8181818181818183
 40
0.8181818181818183
 40
0.9090909090909101
 40
0.9090909090909101
 40
0.9090909090909101
 40
0.9090909090909101
 10
4.558163855242751
 20
0.4954621909654345
 30
0.0
 10
4.580261425630515
 20
0.5004449764450322
 30
0.0
 10
4.694901598802476
 20
0.5195817612579748
 30
0.0
 10
4.721007061858631
 20
0.5255755466899696
 30
0.0
  0
SPLINE
  5
109
330
A7
100
AcDbEntity
  8
0
  6
Continuous
 62
     1
370
     0
100
AcDbSpline
210
0.0
220
0.0
230
1.0
 70
     8
 71
     3
 72
     8
 73
     4
 74
     0
 42
0.000000001
 43
0.00000001
 40
0.0
 40
0.0
 40
0.0
 40
0.0
 40
0.0909090909090909
 40
0.0909090909090909
 40
0.0909090909090909
 40
0.0909090909090909
 10
4.42933357559628
 20
0.5413182602342499
 30
0.0
 10
4.437421575215351
 20
0.6663211829180765
 30
0.0
 10
4.520865178428067
 20
0.7307363227413293
 30
0.0
 10
4.662730136032026
 20
0.7307363227413293
 30
0.0
  0
SPLINE
  5
10A
330
A7
100
AcDbEntity
  8
0
  6
Continuous
 62
     1
370
     0
100
AcDbSpline
210
0.0
220
0.0
230
1.0
 70
     8
 71
     3
 72
     8
 73
     4
 74
     0
 42
0.000000001
 43
0.00000001
 40
0.0909090909090909
 40
0.0909090909090909
 40
0.0909090909090909
 40
0.0909090909090909
 40
0.1818181818181819
 40
0.1818181818181819
 40
0.1818181818181819
 40
0.1818181818181819
 10
4.662730136032026
 20
0.7307363227413293
 30
0.0
 10
4.721007061858631
 20
0.7307363227413293
 30
0.0
 10
4.782316987542422
 20
0.7226483231222826
 30
0.0
 10
4.829653449598639
 20
0.6884187533058944
 30
0.0
  0
SPLINE
  5
10B
330
A7
100
AcDbEntity
  8
0
  6
Continuous
 62
     1
370
     0
100
AcDbSpline
210
0.0
220
0.0
230
1.0
 70
     8
 71
     3
 72
     8
 73
     4
 74
     0
 42
0.000000001
 43
0.00000001
 40
0.1818181818181819
 40
0.1818181818181819
 40
0.1818181818181819
 40
0.1818181818181819
 40
0.2727272727272729
 40
0.2727272727272729
 40
0.2727272727272729
 40
0.2727272727272729
 10
4.829653449598639
 20
0.6884187533058944
 30
0.0
 10
4.897065482137817
 20
0.641118398390816
 30
0.0
 10
4.899087482042598
 20
0.5746090443805506
 30
0.0
 10
4.901073374806193
 20
0.514093475802208
 30
0.0
  0
SPLINE
  5
10C
330
A7
100
AcDbEntity
  8
0
  6
Continuous
 62
     1
370
     0
100
AcDbSpline
210
0.0
220
0.0
230
1.0
 70
     8
 71
     3
 72
     8
 73
     4
 74
     0
 42
0.000000001
 43
0.00000001
 40
0.3636363636363638
 40
0.3636363636363638
 40
0.3636363636363638
 40
0.3636363636363638
 40
0.454545454545455
 40
0.454545454545455
 40
0.454545454545455
 40
0.454545454545455
 10
4.901073374806193
 20
0.2790359868732822
 30
0.0
 10
4.901073374806193
 20
0.2275472035840803
 30
0.0
 10
4.903167588993268
 20
0.2042219903969683
 30
0.0
 10
4.921257266712703
 20
0.1719422062030321
 30
0.0
  0
SPLINE
  5
10D
330
A7
100
AcDbEntity
  8
0
  6
Continuous
 62
     1
370
     0
100
AcDbSpline
210
0.0
220
0.0
230
1.0
 70
     8
 71
     3
 72
     8
 73
     4
 74
     0
 42
0.000000001
 43
0.00000001
 40
0.5454545454545459
 40
0.5454545454545459
 40
0.5454545454545459
 40
0.5454545454545459
 40
0.6363636363636367
 40
0.6363636363636367
 40
0.6363636363636367
 40
0.6363636363636367
 10
4.756247631627414
 20
0.1719422062030321
 30
0.0
 10
4.748123524867188
 20
0.1911512052983108
 30
0.0
 10
4.745126632151202
 20
0.2042219903969683
 30
0.0
 10
4.744115632198814
 20
0.2526777738290113
 30
0.0
  0
SPLINE
  5
10E
330
A7
100
AcDbEntity
  8
0
  6
Continuous
 62
     1
370
     0
100
AcDbSpline
210
0.0
220
0.0
230
1.0
 70
     8
 71
     3
 72
     8
 73
     4
 74
     0
 42
0.000000001
 43
0.00000001
 40
0.7272727272727275
 40
0.7272727272727275
 40
0.7272727272727275
 40
0.7272727272727275
 40
0.8181818181818183
 40
0.8181818181818183
 40
0.8181818181818183
 40
0.8181818181818183
 10
4.744115632198814
 20
0.5315693321219646
 30
0.0
 10
4.745126632151202
 20
0.5607439021764385
 30
0.0
 10
4.746137632103589
 20
0.6099940427139229
 30
0.0
 10
4.662730136032026
 20
0.6099940427139229
 30
0.0
  0
SPLINE
  5
10F
330
A7
100
AcDbEntity
  8
0
  6
Continuous
 62
     1
370
     0
100
AcDbSpline
210
0.0
220
0.0
230
1.0
 70
     8
 71
     3
 72
     8
 73
     4
 74
     0
 42
0.000000001
 43
0.00000001
 40
0.8181818181818183
 40
0.8181818181818183
 40
0.8181818181818183
 40
0.8181818181818183
 40
0.9090909090909101
 40
0.9090909090909101
 40
0.9090909090909101
 40
0.9090909090909101
 10
4.662730136032026
 20
0.6099940427139229
 30
0.0
 10
4.645579243982674
 20
0.6099940427139229
 30
0.0
 10
4.574195425916222
 20
0.6078998285268448
 30
0.0
 10
4.572173426011472
 20
0.5416793316457796
 30
0.0
  0
SPLINE
  5
110
330
A7
100
AcDbEntity
  8
0
  6
Continuous
 62
     1
370
     0
100
AcDbSpline
210
0.0
220
0.0
230
1.0
 70
     8
 71
     3
 72
     8
 73
     4
 74
     0
 42
0.000000001
 43
0.00000001
 40
0.0
 40
0.0
 40
0.0
 40
0.0
 40
0.1428571428571429
 40
0.1428571428571429
 40
0.1428571428571429
 40
0.1428571428571429
 10
4.125022589929156
 20
0.1572104926111753
 30
0.0
 10
3.929682956272354
 20
0.1632042780431571
 30
0.0
 10
3.865159495025667
 20
0.3097992711386259
 30
0.0
 10
3.865159495025667
 20
0.443034622006178
 30
0.0
  0
SPLINE
  5
111
330
A7
100
AcDbEntity
  8
0
  6
Continuous
 62
     1
370
     0
100
AcDbSpline
210
0.0
220
0.0
230
1.0
 70
     8
 71
     3
 72
     8
 73
     4
 74
     0
 42
0.000000001
 43
0.00000001
 40
0.1428571428571429
 40
0.1428571428571429
 40
0.1428571428571429
 40
0.1428571428571429
 40
0.2857142857142858
 40
0.2857142857142858
 40
0.2857142857142858
 40
0.2857142857142858
 10
3.865159495025667
 20
0.443034622006178
 30
0.0
 10
3.865159495025667
 20
0.6482676123398213
 30
0.0
 10
4.001247310044594
 20
0.7296531085066221
 30
0.0
 10
4.125022589929156
 20
0.7336248940338619
 30
0.0
  0
SPLINE
  5
112
330
A7
100
AcDbEntity
  8
0
  6
Continuous
 62
     1
370
     0
100
AcDbSpline
210
0.0
220
0.0
230
1.0
 70
     8
 71
     3
 72
     8
 73
     4
 74
     0
 42
0.000000001
 43
0.00000001
 40
0.4285714285714288
 40
0.4285714285714288
 40
0.4285714285714288
 40
0.4285714285714288
 40
0.5714285714285716
 40
0.5714285714285716
 40
0.5714285714285716
 40
0.5714285714285716
 10
4.125022589929156
 20
0.6081886856560974
 30
0.0
 10
4.036487879813358
 20
0.5940707934638811
 30
0.0
 10
4.026486201712983
 20
0.5005171907273814
 30
0.0
 10
4.026486201712983
 20
0.4471508360980244
 30
0.0
  0
SPLINE
  5
113
330
A7
100
AcDbEntity
  8
0
  6
Continuous
 62
     1
370
     0
100
AcDbSpline
210
0.0
220
0.0
230
1.0
 70
     8
 71
     3
 72
     8
 73
     4
 74
     0
 42
0.000000001
 43
0.00000001
 40
0.5714285714285716
 40
0.5714285714285716
 40
0.5714285714285716
 40
0.5714285714285716
 40
0.7142857142857144
 40
0.7142857142857144
 40
0.7142857142857144
 40
0.7142857142857144
 10
4.026486201712983
 20
0.4471508360980244
 30
0.0
 10
4.026486201712983
 20
0.4228146229584955
 30
0.0
 10
4.027461094524216
 20
0.3683650540945036
 30
0.0
 10
4.056563450296348
 20
0.3300192701862757
 30
0.0
  0
SPLINE
  5
114
330
A7
100
AcDbEntity
  8
0
  6
Continuous
 62
     1
370
     0
100
AcDbSpline
210
0.0
220
0.0
230
1.0
 70
     8
 71
     3
 72
     8
 73
     4
 74
     0
 42
0.000000001
 43
0.00000001
 40
0.7142857142857144
 40
0.7142857142857144
 40
0.7142857142857144
 40
0.7142857142857144
 40
0.8571428571428577
 40
0.8571428571428577
 40
0.8571428571428577
 40
0.8571428571428577
 10
4.056563450296348
 20
0.3300192701862757
 30
0.0
 10
4.079816449201186
 20
0.2997614858971011
 30
0.0
 10
4.107907805020956
 20
0.2926844862304188
 30
0.0
 10
4.125022589929156
 20
0.2896514863733057
 30
0.0
  0
SPLINE
  5
115
330
A7
100
AcDbEntity
  8
0
  6
Continuous
 62
     1
370
     0
100
AcDbSpline
210
0.0
220
0.0
230
1.0
 70
     8
 71
     3
 72
     8
 73
     4
 74
     0
 42
0.000000001
 43
0.00000001
 40
0.0
 40
0.0
 40
0.0
 40
0.0
 40
0.0625
 40
0.0625
 40
0.0625
 40
0.0625
 10
6.008226644088531
 20
0.3305969844447874
 30
0.0
 10
6.001221858704182
 20
0.3125434138665191
 30
0.0
 10
5.989089859275584
 20
0.2814190581895736
 30
0.0
 10
5.960890182032337
 20
0.2473339169378315
 30
0.0
  0
SPLINE
  5
116
330
A7
100
AcDbEntity
  8
0
  6
Continuous
 62
     1
370
     0
100
AcDbSpline
210
0.0
220
0.0
230
1.0
 70
     8
 71
     3
 72
     8
 73
     4
 74
     0
 42
0.000000001
 43
0.00000001
 40
0.0625
 40
0.0625
 40
0.0625
 40
0.0625
 40
0.125
 40
0.125
 40
0.125
 40
0.125
 10
5.960890182032337
 20
0.2473339169378315
 30
0.0
 10
5.908570934496544
 20
0.185157419866329
 30
0.0
 10
5.828124223999819
 20
0.1572104926111753
 30
0.0
 10
5.746666513550692
 20
0.1572104926111753
 30
0.0
  0
SPLINE
  5
117
330
A7
100
AcDbEntity
  8
0
  6
Continuous
 62
     1
370
     0
100
AcDbSpline
210
0.0
220
0.0
230
1.0
 70
     8
 71
     3
 72
     8
 73
     4
 74
     0
 42
0.000000001
 43
0.00000001
 40
0.125
 40
0.125
 40
0.125
 40
0.125
 40
0.1875
 40
0.1875
 40
0.1875
 40
0.1875
 10
5.746666513550692
 20
0.1572104926111753
 30
0.0
 10
5.561509093700091
 20
0.1572104926111753
 30
0.0
 10
5.467955490963533
 20
0.288351629291669
 30
0.0
 10
5.467955490963533
 20
0.442240264900717
 30
0.0
  0
SPLINE
  5
118
330
A7
100
AcDbEntity
  8
0
  6
Continuous
 62
     1
370
     0
100
AcDbSpline
210
0.0
220
0.0
230
1.0
 70
     8
 71
     3
 72
     8
 73
     4
 74
     0
 42
0.000000001
 43
0.00000001
 40
0.1875
 40
0.1875
 40
0.1875
 40
0.1875
 40
0.25
 40
0.25
 40
0.25
 40
0.25
 10
5.467955490963533
 20
0.442240264900717
 30
0.0
 10
5.467955490963533
 20
0.6115105426424762
 30
0.0
 10
5.581584664183096
 20
0.7335526797515455
 30
0.0
 10
5.748616299173166
 20
0.7335526797515455
 30
0.0
  0
SPLINE
  5
119
330
A7
100
AcDbEntity
  8
0
  6
Continuous
 62
     1
370
     0
100
AcDbSpline
210
0.0
220
0.0
230
1.0
 70
     8
 71
     3
 72
     8
 73
     4
 74
     0
 42
0.000000001
 43
0.00000001
 40
0.25
 40
0.25
 40
0.25
 40
0.25
 40
0.3125
 40
0.3125
 40
0.3125
 40
0.3125
 10
5.748616299173166
 20
0.7335526797515455
 30
0.0
 10
5.844264116096784
 20
0.7335526797515455
 30
0.0
 10
5.911676148636021
 20
0.6911628960337679
 30
0.0
 10
5.950888503931994
 20
0.6377243271221339
 30
0.0
  0
SPLINE
  5
11A
330
A7
100
AcDbEntity
  8
0
  6
Continuous
 62
     1
370
     0
100
AcDbSpline
210
0.0
220
0.0
230
1.0
 70
     8
 71
     3
 72
     8
 73
     4
 74
     0
 42
0.000000001
 43
0.00000001
 40
0.3125
 40
0.3125
 40
0.3125
 40
0.3125
 40
0.375
 40
0.375
 40
0.375
 40
0.375
 10
5.950888503931994
 20
0.6377243271221339
 30
0.0
 10
5.999199858799414
 20
0.5741035444043487
 30
0.0
 10
6.014292643802839
 20
0.4854244057239294
 30
0.0
 10
6.014292643802839
 20
0.3989116955129046
 30
0.0
  0
SPLINE
  5
11B
330
A7
100
AcDbEntity
  8
0
  6
Continuous
 62
     1
370
     0
100
AcDbSpline
210
0.0
220
0.0
230
1.0
 70
     8
 71
     3
 72
     8
 73
     4
 74
     0
 42
0.000000001
 43
0.00000001
 40
0.4375
 40
0.4375
 40
0.4375
 40
0.4375
 40
0.5
 40
0.5
 40
0.5
 40
0.5
 10
5.658131803434944
 20
0.3989116955129046
 30
0.0
 10
5.654015589343065
 20
0.4169652660911794
 30
0.0
 10
5.65300458939068
 20
0.432130265376902
 30
0.0
 10
5.651993589438336
 20
0.4552388357170974
 30
0.0
  0
SPLINE
  5
11C
330
A7
100
AcDbEntity
  8
0
  6
Continuous
 62
     1
370
     0
100
AcDbSpline
210
0.0
220
0.0
230
1.0
 70
     8
 71
     3
 72
     8
 73
     4
 74
     0
 42
0.000000001
 43
0.00000001
 40
0.5
 40
0.5
 40
0.5
 40
0.5
 40
0.5625
 40
0.5625
 40
0.5625
 40
0.5625
 10
5.651993589438336
 20
0.4552388357170974
 30
0.0
 10
5.651993589438336
 20
0.4774808346694892
 30
0.0
 10
5.65300458939068
 20
0.4955344052477444
 30
0.0
 10
5.658131803434944
 20
0.516620975683152
 30
0.0
  0
SPLINE
  5
11D
330
A7
100
AcDbEntity
  8
0
  6
Continuous
 62
     1
370
     0
100
AcDbSpline
210
0.0
220
0.0
230
1.0
 70
     8
 71
     3
 72
     8
 73
     4
 74
     0
 42
0.000000001
 43
0.00000001
 40
0.625
 40
0.625
 40
0.625
 40
0.625
 40
0.6875
 40
0.6875
 40
0.6875
 40
0.6875
 10
5.851268901481157
 20
0.516620975683152
 30
0.0
 10
5.846250008860384
 20
0.5449289743498617
 30
0.0
 10
5.836140009336554
 20
0.5630547592104594
 30
0.0
 10
5.829135223952192
 20
0.5730925444519318
 30
0.0
  0
SPLINE
  5
11E
330
A7
100
AcDbEntity
  8
0
  6
Continuous
 62
     1
370
     0
100
AcDbSpline
210
0.0
220
0.0
230
1.0
 70
     8
 71
     3
 72
     8
 73
     4
 74
     0
 42
0.000000001
 43
0.00000001
 40
0.6875
 40
0.6875
 40
0.6875
 40
0.6875
 40
0.75
 40
0.75
 40
0.75
 40
0.75
 10
5.829135223952192
 20
0.5730925444519318
 30
0.0
 10
5.811045546232786
 20
0.5973565433091509
 30
0.0
 10
5.779848976273548
 20
0.6115105426424762
 30
0.0
 10
5.746666513550692
 20
0.6115105426424762
 30
0.0
  0
SPLINE
  5
11F
330
A7
100
AcDbEntity
  8
0
  6
Continuous
 62
     1
370
     0
100
AcDbSpline
210
0.0
220
0.0
230
1.0
 70
     8
 71
     3
 72
     8
 73
     4
 74
     0
 42
0.000000001
 43
0.00000001
 40
0.75
 40
0.75
 40
0.75
 40
0.75
 40
0.8125
 40
0.8125
 40
0.8125
 40
0.8125
 10
5.746666513550692
 20
0.6115105426424762
 30
0.0
 10
5.689328373394157
 20
0.6115105426424762
 30
0.0
 10
5.624913233570929
 20
0.5751145443567263
 30
0.0
 10
5.624913233570929
 20
0.4511948359075478
 30
0.0
  0
SPLINE
  5
120
330
A7
100
AcDbEntity
  8
0
  6
Continuous
 62
     1
370
     0
100
AcDbSpline
210
0.0
220
0.0
230
1.0
 70
     8
 71
     3
 72
     8
 73
     4
 74
     0
 42
0.000000001
 43
0.00000001
 40
0.8125
 40
0.8125
 40
0.8125
 40
0.8125
 40
0.875
 40
0.875
 40
0.875
 40
0.875
 10
5.624913233570929
 20
0.4511948359075478
 30
0.0
 10
5.624913233570929
 20
0.3737811252679801
 30
0.0
 10
5.65300458939068
 20
0.282430058141984
 30
0.0
 10
5.750638299077935
 20
0.282430058141984
 30
0.0
  0
SPLINE
  5
121
330
A7
100
AcDbEntity
  8
0
  6
Continuous
 62
     1
370
     0
100
AcDbSpline
210
0.0
220
0.0
230
1.0
 70
     8
 71
     3
 72
     8
 73
     4
 74
     0
 42
0.000000001
 43
0.00000001
 40
0.875
 40
0.875
 40
0.875
 40
0.875
 40
0.9375
 40
0.9375
 40
0.9375
 40
0.9375
 10
5.750638299077935
 20
0.282430058141984
 30
0.0
 10
5.821047224333126
 20
0.282430058141984
 30
0.0
 10
5.844264116096784
 20
0.3275639845876285
 30
0.0
 10
5.851268901481157
 20
0.3417179839209932
 30
0.0
  0
SPLINE
  5
122
330
A7
100
AcDbEntity
  8
0
  6
Continuous
 62
   179
370
     0
100
AcDbSpline
210
0.0
220
0.0
230
1.0
 70
     8
 71
     3
 72
     8
 73
     4
 74
     0
 42
0.000000001
 43
0.00000001
 40
0.0
 40
0.0
 40
0.0
 40
0.0
 40
0.1
 40
0.1
 40
0.1
 40
0.1
 10
1.680478865779957
 20
0.6982398957004503
 30
0.0
 10
1.71156711431571
 20
0.723442680227678
 30
0.0
 10
1.75166409457001
 20
0.7335526797515455
 30
0.0
 10
1.791706914112603
 20
0.7335526797515455
 30
0.0
  0
SPLINE
  5
123
330
A7
100
AcDbEntity
  8
0
  6
Continuous
 62
   179
370
     0
100
AcDbSpline
210
0.0
220
0.0
230
1.0
 70
     8
 71
     3
 72
     8
 73
     4
 74
     0
 42
0.000000001
 43
0.00000001
 40
0.1
 40
0.1
 40
0.1
 40
0.1
 40
0.2
 40
0.2
 40
0.2
 40
0.2
 10
1.791706914112603
 20
0.7335526797515455
 30
0.0
 10
1.929473711195286
 20
0.7335526797515455
 30
0.0
 10
2.01822506415801
 20
0.6177209709214203
 30
0.0
 10
2.01822506415801
 20
0.4461398361456272
 30
0.0
  0
SPLINE
  5
124
330
A7
100
AcDbEntity
  8
0
  6
Continuous
 62
   179
370
     0
100
AcDbSpline
210
0.0
220
0.0
230
1.0
 70
     8
 71
     3
 72
     8
 73
     4
 74
     0
 42
0.000000001
 43
0.00000001
 40
0.2
 40
0.2
 40
0.2
 40
0.2
 40
0.2999999999999998
 40
0.2999999999999998
 40
0.2999999999999998
 40
0.2999999999999998
 10
2.01822506415801
 20
0.4461398361456272
 30
0.0
 10
2.01822506415801
 20
0.2615601305535191
 30
0.0
 10
1.908260765765849
 20
0.1600990639036883
 30
0.0
 10
1.784684075157651
 20
0.1600990639036883
 30
0.0
  0
SPLINE
  5
125
330
A7
100
AcDbEntity
  8
0
  6
Continuous
 62
   179
370
     0
100
AcDbSpline
210
0.0
220
0.0
230
1.0
 70
     8
 71
     3
 72
     8
 73
     4
 74
     0
 42
0.000000001
 43
0.00000001
 40
0.2999999999999998
 40
0.2999999999999998
 40
0.2999999999999998
 40
0.2999999999999998
 40
0.3999999999999999
 40
0.3999999999999999
 40
0.3999999999999999
 40
0.3999999999999999
 10
1.784684075157651
 20
0.1600990639036883
 30
0.0
 10
1.731606577657553
 20
0.1600990639036883
 30
0.0
 10
1.696528490024017
 20
0.1772138488118758
 30
0.0
 10
1.680478865779957
 20
0.185157419866329
 30
0.0
  0
SPLINE
  5
126
330
A7
100
AcDbEntity
  8
0
  6
Continuous
 62
   179
370
     0
100
AcDbSpline
210
0.0
220
0.0
230
1.0
 70
     8
 71
     3
 72
     8
 73
     4
 74
     0
 42
0.000000001
 43
0.00000001
 40
0.5
 40
0.5
 40
0.5
 40
0.5
 40
0.5999999999999996
 40
0.5999999999999996
 40
0.5999999999999996
 40
0.5999999999999996
 10
1.680478865779957
 20
0.3157930565706077
 30
0.0
 10
1.692538650926222
 20
0.3047442713767184
 30
0.0
 10
1.708588275170282
 20
0.2896514863733057
 30
0.0
 10
1.747638148331067
 20
0.2896514863733057
 30
0.0
  0
SPLINE
  5
127
330
A7
100
AcDbEntity
  8
0
  6
Continuous
 62
   179
370
     0
100
AcDbSpline
210
0.0
220
0.0
230
1.0
 70
     8
 71
     3
 72
     8
 73
     4
 74
     0
 42
0.000000001
 43
0.00000001
 40
0.5999999999999996
 40
0.5999999999999996
 40
0.5999999999999996
 40
0.5999999999999996
 40
0.7000000000000002
 40
0.7000000000000002
 40
0.7000000000000002
 40
0.7000000000000002
 10
1.747638148331067
 20
0.2896514863733057
 30
0.0
 10
1.816765270075221
 20
0.2896514863733057
 30
0.0
 10
1.859841089474947
 20
0.3529111976794956
 30
0.0
 10
1.859841089474947
 20
0.4501116216728472
 30
0.0
  0
SPLINE
  5
128
330
A7
100
AcDbEntity
  8
0
  6
Continuous
 62
   179
370
     0
100
AcDbSpline
210
0.0
220
0.0
230
1.0
 70
     8
 71
     3
 72
     8
 73
     4
 74
     0
 42
0.000000001
 43
0.00000001
 40
0.7000000000000002
 40
0.7000000000000002
 40
0.7000000000000002
 40
0.7000000000000002
 40
0.7999999999999998
 40
0.7999999999999998
 40
0.7999999999999998
 40
0.7999999999999998
 10
1.859841089474947
 20
0.4501116216728472
 30
0.0
 10
1.859841089474947
 20
0.5444956886560024
 30
0.0
 10
1.822777109077786
 20
0.6057334000574502
 30
0.0
 10
1.754660987286013
 20
0.6057334000574502
 30
0.0
  0
SPLINE
  5
129
330
A7
100
AcDbEntity
  8
0
  6
Continuous
 62
   179
370
     0
100
AcDbSpline
210
0.0
220
0.0
230
1.0
 70
     8
 71
     3
 72
     8
 73
     4
 74
     0
 42
0.000000001
 43
0.00000001
 40
0.7999999999999998
 40
0.7999999999999998
 40
0.7999999999999998
 40
0.7999999999999998
 40
0.9000000000000004
 40
0.9000000000000004
 40
0.9000000000000004
 40
0.9000000000000004
 10
1.754660987286013
 20
0.6057334000574502
 30
0.0
 10
1.71156711431571
 20
0.6057334000574502
 30
0.0
 10
1.688512704687274
 20
0.584646829622023
 30
0.0
 10
1.680478865779957
 20
0.5766310442853058
 30
0.0
  0
SPLINE
  5
12A
330
A7
100
AcDbEntity
  8
0
  6
Continuous
 62
   179
370
     0
100
AcDbSpline
210
0.0
220
0.0
230
1.0
 70
     8
 71
     3
 72
     8
 73
     4
 74
     0
 42
0.000000001
 43
0.00000001
 40
0.0
 40
0.0
 40
0.0
 40
0.0
 40
0.0909090909090909
 40
0.0909090909090909
 40
0.0909090909090909
 40
0.0909090909090909
 10
2.288270372867611
 20
0.5413182602342499
 30
0.0
 10
2.296322265345536
 20
0.6663211829180765
 30
0.0
 10
2.379820029269962
 20
0.7307363227413293
 30
0.0
 10
2.521630826162205
 20
0.7307363227413293
 30
0.0
  0
SPLINE
  5
12B
330
A7
100
AcDbEntity
  8
0
  6
Continuous
 62
   179
370
     0
100
AcDbSpline
210
0.0
220
0.0
230
1.0
 70
     8
 71
     3
 72
     8
 73
     4
 74
     0
 42
0.000000001
 43
0.00000001
 40
0.0909090909090909
 40
0.0909090909090909
 40
0.0909090909090909
 40
0.0909090909090909
 40
0.1818181818181819
 40
0.1818181818181819
 40
0.1818181818181819
 40
0.1818181818181819
 10
2.521630826162205
 20
0.7307363227413293
 30
0.0
 10
2.579943859129977
 20
0.7307363227413293
 30
0.0
 10
2.641289891954871
 20
0.7226483231222826
 30
0.0
 10
2.68859024686992
 20
0.6884187533058944
 30
0.0
  0
SPLINE
  5
12C
330
A7
100
AcDbEntity
  8
0
  6
Continuous
 62
   179
370
     0
100
AcDbSpline
210
0.0
220
0.0
230
1.0
 70
     8
 71
     3
 72
     8
 73
     4
 74
     0
 42
0.000000001
 43
0.00000001
 40
0.1818181818181819
 40
0.1818181818181819
 40
0.1818181818181819
 40
0.1818181818181819
 40
0.2727272727272729
 40
0.2727272727272729
 40
0.2727272727272729
 40
0.2727272727272729
 10
2.68859024686992
 20
0.6884187533058944
 30
0.0
 10
2.756002279409147
 20
0.641118398390816
 30
0.0
 10
2.758006225743342
 20
0.5746090443805506
 30
0.0
 10
2.760010172077536
 20
0.514093475802208
 30
0.0
  0
SPLINE
  5
12D
330
A7
100
AcDbEntity
  8
0
  6
Continuous
 62
   179
370
     0
100
AcDbSpline
210
0.0
220
0.0
230
1.0
 70
     8
 71
     3
 72
     8
 73
     4
 74
     0
 42
0.000000001
 43
0.00000001
 40
0.3636363636363638
 40
0.3636363636363638
 40
0.3636363636363638
 40
0.3636363636363638
 40
0.454545454545455
 40
0.454545454545455
 40
0.454545454545455
 40
0.454545454545455
 10
2.760010172077536
 20
0.2790359868732822
 30
0.0
 10
2.760010172077536
 20
0.2275472035840803
 30
0.0
 10
2.762050225552859
 20
0.2042219903969683
 30
0.0
 10
2.780139903272285
 20
0.1719422062030321
 30
0.0
  0
SPLINE
  5
12E
330
A7
100
AcDbEntity
  8
0
  6
Continuous
 62
   179
370
     0
100
AcDbSpline
210
0.0
220
0.0
230
1.0
 70
     8
 71
     3
 72
     8
 73
     4
 74
     0
 42
0.000000001
 43
0.00000001
 40
0.5454545454545459
 40
0.5454545454545459
 40
0.5454545454545459
 40
0.5454545454545459
 40
0.6363636363636367
 40
0.6363636363636367
 40
0.6363636363636367
 40
0.6363636363636367
 10
2.615166375328144
 20
0.1719422062030321
 30
0.0
 10
2.607114482850275
 20
0.1911512052983108
 30
0.0
 10
2.604081482993109
 20
0.2042219903969683
 30
0.0
 10
2.603088536611319
 20
0.2526777738290113
 30
0.0
  0
SPLINE
  5
12F
330
A7
100
AcDbEntity
  8
0
  6
Continuous
 62
   179
370
     0
100
AcDbSpline
210
0.0
220
0.0
230
1.0
 70
     8
 71
     3
 72
     8
 73
     4
 74
     0
 42
0.000000001
 43
0.00000001
 40
0.7272727272727275
 40
0.7272727272727275
 40
0.7272727272727275
 40
0.7272727272727275
 40
0.8181818181818183
 40
0.8181818181818183
 40
0.8181818181818183
 40
0.8181818181818183
 10
2.603088536611319
 20
0.5315693321219646
 30
0.0
 10
2.604081482993109
 20
0.5607439021764385
 30
0.0
 10
2.605074429374913
 20
0.6099940427139229
 30
0.0
 10
2.521630826162205
 20
0.6099940427139229
 30
0.0
  0
SPLINE
  5
130
330
A7
100
AcDbEntity
  8
0
  6
Continuous
 62
   179
370
     0
100
AcDbSpline
210
0.0
220
0.0
230
1.0
 70
     8
 71
     3
 72
     8
 73
     4
 74
     0
 42
0.000000001
 43
0.00000001
 40
0.8181818181818183
 40
0.8181818181818183
 40
0.8181818181818183
 40
0.8181818181818183
 40
0.9090909090909101
 40
0.9090909090909101
 40
0.9090909090909101
 40
0.9090909090909101
 10
2.521630826162205
 20
0.6099940427139229
 30
0.0
 10
2.504534094824611
 20
0.6099940427139229
 30
0.0
 10
2.433114169617009
 20
0.6078998285268448
 30
0.0
 10
2.431128276853366
 20
0.5416793316457796
 30
0.0
  0
SPLINE
  5
131
330
A7
100
AcDbEntity
  8
0
  6
Continuous
 62
   179
370
     0
100
AcDbSpline
210
0.0
220
0.0
230
1.0
 70
     8
 71
     3
 72
     8
 73
     4
 74
     0
 42
0.000000001
 43
0.00000001
 40
0.0
 40
0.0
 40
0.0
 40
0.0
 40
0.0714285714285714
 40
0.0714285714285714
 40
0.0714285714285714
 40
0.0714285714285714
 10
2.976021144046416
 20
0.401511409676178
 30
0.0
 10
2.913844646974891
 20
0.4184817660197261
 30
0.0
 10
2.82254774056062
 20
0.4436123362646833
 30
0.0
 10
2.82254774056062
 20
0.5599495450709906
 30
0.0
  0
SPLINE
  5
132
330
A7
100
AcDbEntity
  8
0
  6
Continuous
 62
   179
370
     0
100
AcDbSpline
210
0.0
220
0.0
230
1.0
 70
     8
 71
     3
 72
     8
 73
     4
 74
     0
 42
0.000000001
 43
0.00000001
 40
0.0714285714285714
 40
0.0714285714285714
 40
0.0714285714285714
 40
0.0714285714285714
 40
0.1428571428571428
 40
0.1428571428571428
 40
0.1428571428571428
 40
0.1428571428571428
 10
2.82254774056062
 20
0.5599495450709906
 30
0.0
 10
2.82254774056062
 20
0.5879686866084411
 30
0.0
 10
2.827566633181379
 20
0.6321638273840113
 30
0.0
 10
2.862662774385525
 20
0.6703290755864515
 30
0.0
  0
SPLINE
  5
133
330
A7
100
AcDbEntity
  8
0
  6
Continuous
 62
   179
370
     0
100
AcDbSpline
210
0.0
220
0.0
230
1.0
 70
     8
 71
     3
 72
     8
 73
     4
 74
     0
 42
0.000000001
 43
0.00000001
 40
0.1428571428571428
 40
0.1428571428571428
 40
0.1428571428571428
 40
0.1428571428571428
 40
0.2142857142857144
 40
0.2142857142857144
 40
0.2142857142857144
 40
0.2142857142857144
 10
2.862662774385525
 20
0.6703290755864515
 30
0.0
 10
2.915848593309055
 20
0.7266201086494501
 30
0.0
 10
2.993135928954584
 20
0.7306280013178579
 30
0.0
 10
3.038342069682548
 20
0.7336248940338619
 30
0.0
  0
SPLINE
  5
134
330
A7
100
AcDbEntity
  8
0
  6
Continuous
 62
   179
370
     0
100
AcDbSpline
210
0.0
220
0.0
230
1.0
 70
     8
 71
     3
 72
     8
 73
     4
 74
     0
 42
0.000000001
 43
0.00000001
 40
0.2857142857142856
 40
0.2857142857142856
 40
0.2857142857142856
 40
0.2857142857142856
 40
0.3571428571428568
 40
0.3571428571428568
 40
0.3571428571428568
 40
0.3571428571428568
 10
3.038342069682548
 20
0.6201040422377445
 30
0.0
 10
3.00517766053029
 20
0.6180820423329828
 30
0.0
 10
2.971002251425654
 20
0.6090552570438421
 30
0.0
 10
2.971002251425654
 20
0.5749701157921066
 30
0.0
  0
SPLINE
  5
135
330
A7
100
AcDbEntity
  8
0
  6
Continuous
 62
   179
370
     0
100
AcDbSpline
210
0.0
220
0.0
230
1.0
 70
     8
 71
     3
 72
     8
 73
     4
 74
     0
 42
0.000000001
 43
0.00000001
 40
0.3571428571428568
 40
0.3571428571428568
 40
0.3571428571428568
 40
0.3571428571428568
 40
0.4285714285714288
 40
0.4285714285714288
 40
0.4285714285714288
 40
0.4285714285714288
 10
2.971002251425654
 20
0.5749701157921066
 30
0.0
 10
2.971002251425654
 20
0.5478175456423812
 30
0.0
 10
2.991131982620416
 20
0.541823760210419
 30
0.0
 10
3.038342069682548
 20
0.5288251893940517
 30
0.0
  0
SPLINE
  5
136
330
A7
100
AcDbEntity
  8
0
  6
Continuous
 62
   179
370
     0
100
AcDbSpline
210
0.0
220
0.0
230
1.0
 70
     8
 71
     3
 72
     8
 73
     4
 74
     0
 42
0.000000001
 43
0.00000001
 40
0.5
 40
0.5
 40
0.5
 40
0.5
 40
0.5714285714285712
 40
0.5714285714285712
 40
0.5714285714285712
 40
0.5714285714285712
 10
3.119041530167374
 20
0.5109160473803965
 30
0.0
 10
3.188619991175976
 20
0.494812262424626
 30
0.0
 10
3.30575155708775
 20
0.4696816921796885
 30
0.0
 10
3.30575155708775
 20
0.3383239126522652
 30
0.0
  0
SPLINE
  5
137
330
A7
100
AcDbEntity
  8
0
  6
Continuous
 62
   179
370
     0
100
AcDbSpline
210
0.0
220
0.0
230
1.0
 70
     8
 71
     3
 72
     8
 73
     4
 74
     0
 42
0.000000001
 43
0.00000001
 40
0.5714285714285712
 40
0.5714285714285712
 40
0.5714285714285712
 40
0.5714285714285712
 40
0.6428571428571423
 40
0.6428571428571423
 40
0.6428571428571423
 40
0.6428571428571423
 10
3.30575155708775
 20
0.3383239126522652
 30
0.0
 10
3.30575155708775
 20
0.2700814158664645
 30
0.0
 10
3.271377558706735
 20
0.2146930613323655
 30
0.0
 10
3.202737883368184
 20
0.1834964913731101
 30
0.0
  0
SPLINE
  5
138
330
A7
100
AcDbEntity
  8
0
  6
Continuous
 62
   179
370
     0
100
AcDbSpline
210
0.0
220
0.0
230
1.0
 70
     8
 71
     3
 72
     8
 73
     4
 74
     0
 42
0.000000001
 43
0.00000001
 40
0.6428571428571423
 40
0.6428571428571423
 40
0.6428571428571423
 40
0.6428571428571423
 40
0.7142857142857135
 40
0.7142857142857135
 40
0.7142857142857135
 40
0.7142857142857135
 10
3.202737883368184
 20
0.1834964913731101
 30
0.0
 10
3.148324421645324
 20
0.1583659211281989
 30
0.0
 10
3.089830852971753
 20
0.1573549211757951
 30
0.0
 10
3.066632014778672
 20
0.1573549211757951
 30
0.0
  0
SPLINE
  5
139
330
A7
100
AcDbEntity
  8
0
  6
Continuous
 62
   179
370
     0
100
AcDbSpline
210
0.0
220
0.0
230
1.0
 70
     8
 71
     3
 72
     8
 73
     4
 74
     0
 42
0.000000001
 43
0.00000001
 40
0.7857142857142847
 40
0.7857142857142847
 40
0.7857142857142847
 40
0.7857142857142847
 40
0.8571428571428577
 40
0.8571428571428577
 40
0.8571428571428577
 40
0.8571428571428577
 10
3.066632014778672
 20
0.2721034157712066
 30
0.0
 10
3.087844960208153
 20
0.2730422014412873
 30
0.0
 10
3.147313421692938
 20
0.2780972012031883
 30
0.0
 10
3.147313421692938
 20
0.3241699133189202
 30
0.0
  0
SPLINE
  5
13A
330
A7
100
AcDbEntity
  8
0
  6
Continuous
 62
   179
370
     0
100
AcDbSpline
210
0.0
220
0.0
230
1.0
 70
     8
 71
     3
 72
     8
 73
     4
 74
     0
 42
0.000000001
 43
0.00000001
 40
0.8571428571428577
 40
0.8571428571428577
 40
0.8571428571428577
 40
0.8571428571428577
 40
0.9285714285714288
 40
0.9285714285714288
 40
0.9285714285714288
 40
0.9285714285714288
 10
3.147313421692938
 20
0.3241699133189202
 30
0.0
 10
3.147313421692938
 20
0.3573162689005946
 30
0.0
 10
3.113047744735397
 20
0.3673540541421129
 30
0.0
 10
3.077771067825477
 20
0.37645305371357
 30
0.0
  0
SPLINE
  5
13B
330
A7
100
AcDbEntity
  8
0
  6
Continuous
 62
   179
370
     0
100
AcDbSpline
210
0.0
220
0.0
230
1.0
 70
     8
 71
     3
 72
     8
 73
     4
 74
     0
 42
0.000000001
 43
0.00000001
 40
0.0
 40
0.0
 40
0.0
 40
0.0
 40
0.2
 40
0.2
 40
0.2
 40
0.2
 10
3.14290835047185
 20
0.5408849745403448
 30
0.0
 10
3.140814136284785
 20
0.6071054714213968
 30
0.0
 10
3.087592210220042
 20
0.6151212567581469
 30
0.0
 10
3.066451479072915
 20
0.6190930422853866
 30
0.0
  0
SPLINE
  5
13C
330
A7
100
AcDbEntity
  8
0
  6
Continuous
 62
   179
370
     0
100
AcDbSpline
210
0.0
220
0.0
230
1.0
 70
     8
 71
     3
 72
     8
 73
     4
 74
     0
 42
0.000000001
 43
0.00000001
 40
0.3999999999999999
 40
0.3999999999999999
 40
0.3999999999999999
 40
0.3999999999999999
 40
0.5999999999999996
 40
0.5999999999999996
 40
0.5999999999999996
 40
0.5999999999999996
 10
3.066451479072915
 20
0.7336248940338619
 30
0.0
 10
3.128754351138493
 20
0.7306280013178579
 30
0.0
 10
3.189125491152189
 20
0.7155352163144124
 30
0.0
 10
3.233392846210063
 20
0.6743008611136913
 30
0.0
  0
SPLINE
  5
13D
330
A7
100
AcDbEntity
  8
0
  6
Continuous
 62
   179
370
     0
100
AcDbSpline
210
0.0
220
0.0
230
1.0
 70
     8
 71
     3
 72
     8
 73
     4
 74
     0
 42
0.000000001
 43
0.00000001
 40
0.5999999999999996
 40
0.5999999999999996
 40
0.5999999999999996
 40
0.5999999999999996
 40
0.7999999999999998
 40
0.7999999999999998
 40
0.7999999999999998
 40
0.7999999999999998
 10
3.233392846210063
 20
0.6743008611136913
 30
0.0
 10
3.275710415645518
 20
0.6341858272887928
 30
0.0
 10
3.285712093745874
 20
0.5899906865132225
 30
0.0
 10
3.28971998641423
 20
0.5488285455947849
 30
0.0
  0
SPLINE
  5
13E
330
A7
100
AcDbEntity
  8
0
  6
Continuous
 62
   179
370
     0
100
AcDbSpline
210
0.0
220
0.0
230
1.0
 70
     8
 71
     3
 72
     8
 73
     4
 74
     0
 42
0.000000001
 43
0.00000001
 40
0.5625
 40
0.5625
 40
0.5625
 40
0.5625
 40
0.625
 40
0.625
 40
0.625
 40
0.625
 10
3.533443189220749
 20
0.3739255538326064
 30
0.0
 10
3.532468296409516
 20
0.3077050569515413
 30
0.0
 10
3.535465189125502
 20
0.2925400576658187
 30
0.0
 10
3.594789222045661
 20
0.2925400576658187
 30
0.0
  0
SPLINE
  5
13F
330
A7
100
AcDbEntity
  8
0
  6
Continuous
 62
   179
370
     0
100
AcDbSpline
210
0.0
220
0.0
230
1.0
 70
     8
 71
     3
 72
     8
 73
     4
 74
     0
 42
0.000000001
 43
0.00000001
 40
0.625
 40
0.625
 40
0.625
 40
0.625
 40
0.6875
 40
0.6875
 40
0.6875
 40
0.6875
 10
3.594789222045661
 20
0.2925400576658187
 30
0.0
 10
3.605874114380733
 20
0.2925400576658187
 30
0.0
 10
3.611904006953864
 20
0.2925400576658187
 30
0.0
 10
3.636059684387552
 20
0.294562057570587
 30
0.0
  0
SPLINE
  5
140
330
A7
100
AcDbEntity
  8
0
  6
Continuous
 62
   179
370
     0
100
AcDbSpline
210
0.0
220
0.0
230
1.0
 70
     8
 71
     3
 72
     8
 73
     4
 74
     0
 42
0.000000001
 43
0.00000001
 40
0.75
 40
0.75
 40
0.75
 40
0.75
 40
0.8125
 40
0.8125
 40
0.8125
 40
0.8125
 10
3.636059684387552
 20
0.1743974918016727
 30
0.0
 10
3.579660329901102
 20
0.1694147063220947
 30
0.0
 10
3.56258165213405
 20
0.1673927064173199
 30
0.0
 10
3.532468296409516
 20
0.1673927064173199
 30
0.0
  0
SPLINE
  5
141
330
A7
100
AcDbEntity
  8
0
  6
Continuous
 62
   179
370
     0
100
AcDbSpline
210
0.0
220
0.0
230
1.0
 70
     8
 71
     3
 72
     8
 73
     4
 74
     0
 42
0.000000001
 43
0.00000001
 40
0.8125
 40
0.8125
 40
0.8125
 40
0.8125
 40
0.875
 40
0.875
 40
0.875
 40
0.875
 10
3.532468296409516
 20
0.1673927064173199
 30
0.0
 10
3.385692767608264
 20
0.1673927064173199
 30
0.0
 10
3.379698982176281
 20
0.2455285598800257
 30
0.0
 10
3.377676982271521
 20
0.3186816278631469
 30
0.0
  0
SPLINE
  5
142
330
A7
100
AcDbEntity
  8
0
  6
Continuous
 62
   179
370
     0
100
AcDbSpline
210
0.0
220
0.0
230
1.0
 70
     8
 71
     3
 72
     8
 73
     4
 74
     0
 42
0.000000001
 43
0.00000001
 40
0.0
 40
0.0
 40
0.0
 40
0.0
 40
0.25
 40
0.25
 40
0.25
 40
0.25
 10
3.039443337487846
 20
0.1573549211757951
 30
0.0
 10
2.87345880959132
 20
0.1703534919921427
 30
0.0
 10
2.813141830289353
 20
0.2418456314820648
 30
0.0
 10
2.80508993781144
 20
0.3583272688529591
 30
0.0
  0
SPLINE
  5
143
330
A7
100
AcDbEntity
  8
0
  6
Continuous
 62
   179
370
     0
100
AcDbSpline
210
0.0
220
0.0
230
1.0
 70
     8
 71
     3
 72
     8
 73
     4
 74
     0
 42
0.000000001
 43
0.00000001
 40
0.5
 40
0.5
 40
0.5
 40
0.5
 40
0.75
 40
0.75
 40
0.75
 40
0.75
 10
2.953923573658602
 20
0.3633100543325764
 30
0.0
 10
2.962011573277678
 20
0.3162263422644931
 30
0.0
 10
2.972031304948599
 20
0.2871239864923159
 30
0.0
 10
3.039443337487846
 20
0.2740532013936781
 30
0.0
  0
SPLINE
  5
144
330
A7
100
AcDbEntity
  8
0
  6
Continuous
 62
   179
370
     0
100
AcDbSpline
210
0.0
220
0.0
230
1.0
 70
     8
 71
     3
 72
     8
 73
     4
 74
     0
 42
0.000000001
 43
0.00000001
 40
0.0
 40
0.0
 40
0.0
 40
0.0
 40
0.0909090909090909
 40
0.0909090909090909
 40
0.0909090909090909
 40
0.0909090909090909
 10
2.579943859129977
 20
0.4191316945605543
 30
0.0
 10
2.56586207407893
 20
0.4150154804687407
 30
0.0
 10
2.497493202299038
 20
0.4020169096523668
 30
0.0
 10
2.481389417343257
 20
0.3979729098428237
 30
0.0
  0
SPLINE
  5
145
330
A7
100
AcDbEntity
  8
0
  6
Continuous
 62
   179
370
     0
100
AcDbSpline
210
0.0
220
0.0
230
1.0
 70
     8
 71
     3
 72
     8
 73
     4
 74
     0
 42
0.000000001
 43
0.00000001
 40
0.0909090909090909
 40
0.0909090909090909
 40
0.0909090909090909
 40
0.0909090909090909
 40
0.1818181818181819
 40
0.1818181818181819
 40
0.1818181818181819
 40
0.1818181818181819
 10
2.481389417343257
 20
0.3979729098428237
 30
0.0
 10
2.438151115808305
 20
0.3859131246965634
 30
0.0
 10
2.415042545468171
 20
0.368798339788376
 30
0.0
 10
2.415042545468171
 20
0.3347131985366076
 30
0.0
  0
SPLINE
  5
146
330
A7
100
AcDbEntity
  8
0
  6
Continuous
 62
   179
370
     0
100
AcDbSpline
210
0.0
220
0.0
230
1.0
 70
     8
 71
     3
 72
     8
 73
     4
 74
     0
 42
0.000000001
 43
0.00000001
 40
0.1818181818181819
 40
0.1818181818181819
 40
0.1818181818181819
 40
0.1818181818181819
 40
0.2727272727272729
 40
0.2727272727272729
 40
0.2727272727272729
 40
0.2727272727272729
 10
2.415042545468171
 20
0.3347131985366076
 30
0.0
 10
2.415042545468171
 20
0.3005558430025491
 30
0.0
 10
2.442177062047288
 20
0.2764362727100219
 30
0.0
 10
2.487437363486968
 20
0.2764362727100219
 30
0.0
  0
SPLINE
  5
147
330
A7
100
AcDbEntity
  8
0
  6
Continuous
 62
   179
370
     0
100
AcDbSpline
210
0.0
220
0.0
230
1.0
 70
     8
 71
     3
 72
     8
 73
     4
 74
     0
 42
0.000000001
 43
0.00000001
 40
0.2727272727272729
 40
0.2727272727272729
 40
0.2727272727272729
 40
0.2727272727272729
 40
0.3636363636363638
 40
0.3636363636363638
 40
0.3636363636363638
 40
0.3636363636363638
 10
2.487437363486968
 20
0.2764362727100219
 30
0.0
 10
2.507549041111142
 20
0.2764362727100219
 30
0.0
 10
2.544739396502377
 20
0.2804802725195322
 30
0.0
 10
2.579943859129977
 20
0.3065496284345374
 30
0.0
  0
SPLINE
  5
148
330
A7
100
AcDbEntity
  8
0
  6
Continuous
 62
   179
370
     0
100
AcDbSpline
210
0.0
220
0.0
230
1.0
 70
     8
 71
     3
 72
     8
 73
     4
 74
     0
 42
0.000000001
 43
0.00000001
 40
0.3636363636363638
 40
0.3636363636363638
 40
0.3636363636363638
 40
0.3636363636363638
 40
0.454545454545455
 40
0.454545454545455
 40
0.454545454545455
 40
0.454545454545455
 10
2.579943859129977
 20
0.3065496284345374
 30
0.0
 10
2.577921859225214
 20
0.2884238435739723
 30
0.0
 10
2.576928912843402
 20
0.2713812729480816
 30
0.0
 10
2.576928912843402
 20
0.2542664880398941
 30
0.0
  0
SPLINE
  5
149
330
A7
100
AcDbEntity
  8
0
  6
Continuous
 62
   179
370
     0
100
AcDbSpline
210
0.0
220
0.0
230
1.0
 70
     8
 71
     3
 72
     8
 73
     4
 74
     0
 42
0.000000001
 43
0.00000001
 40
0.454545454545455
 40
0.454545454545455
 40
0.454545454545455
 40
0.454545454545455
 40
0.5454545454545459
 40
0.5454545454545459
 40
0.5454545454545459
 40
0.5454545454545459
 10
2.576928912843402
 20
0.2542664880398941
 30
0.0
 10
2.576928912843402
 20
0.2451674884684697
 30
0.0
 10
2.579943859129977
 20
0.2018389190806245
 30
0.0
 10
2.579943859129977
 20
0.1927399195091674
 30
0.0
  0
SPLINE
  5
14A
330
A7
100
AcDbEntity
  8
0
  6
Continuous
 62
   179
370
     0
100
AcDbSpline
210
0.0
220
0.0
230
1.0
 70
     8
 71
     3
 72
     8
 73
     4
 74
     0
 42
0.000000001
 43
0.00000001
 40
0.5454545454545459
 40
0.5454545454545459
 40
0.5454545454545459
 40
0.5454545454545459
 40
0.6363636363636367
 40
0.6363636363636367
 40
0.6363636363636367
 40
0.6363636363636367
 10
2.579943859129977
 20
0.1927399195091674
 30
0.0
 10
2.532697664926667
 20
0.1544663498832821
 30
0.0
 10
2.461277739719073
 20
0.1544663498832821
 30
0.0
 10
2.446203008286224
 20
0.1544663498832821
 30
0.0
  0
SPLINE
  5
14B
330
A7
100
AcDbEntity
  8
0
  6
Continuous
 62
   179
370
     0
100
AcDbSpline
210
0.0
220
0.0
230
1.0
 70
     8
 71
     3
 72
     8
 73
     4
 74
     0
 42
0.000000001
 43
0.00000001
 40
0.6363636363636367
 40
0.6363636363636367
 40
0.6363636363636367
 40
0.6363636363636367
 40
0.7272727272727275
 40
0.7272727272727275
 40
0.7272727272727275
 40
0.7272727272727275
 10
2.446203008286224
 20
0.1544663498832821
 30
0.0
 10
2.343604566689997
 20
0.1544663498832821
 30
0.0
 10
2.258066749290184
 20
0.2179427040364344
 30
0.0
 10
2.258066749290184
 20
0.3296581987747197
 30
0.0
  0
SPLINE
  5
14C
330
A7
100
AcDbEntity
  8
0
  6
Continuous
 62
   179
370
     0
100
AcDbSpline
210
0.0
220
0.0
230
1.0
 70
     8
 71
     3
 72
     8
 73
     4
 74
     0
 42
0.000000001
 43
0.00000001
 40
0.7272727272727275
 40
0.7272727272727275
 40
0.7272727272727275
 40
0.7272727272727275
 40
0.8181818181818183
 40
0.8181818181818183
 40
0.8181818181818183
 40
0.8181818181818183
 10
2.258066749290184
 20
0.3296581987747197
 30
0.0
 10
2.258066749290184
 20
0.4581996212919072
 30
0.0
 10
2.365738244218937
 20
0.4843411914892419
 30
0.0
 10
2.41702843823176
 20
0.4954621909654345
 30
0.0
  0
SPLINE
  5
14D
330
A7
100
AcDbEntity
  8
0
  6
Continuous
 62
   179
370
     0
100
AcDbSpline
210
0.0
220
0.0
230
1.0
 70
     8
 71
     3
 72
     8
 73
     4
 74
     0
 42
0.000000001
 43
0.00000001
 40
0.8181818181818183
 40
0.8181818181818183
 40
0.8181818181818183
 40
0.8181818181818183
 40
0.9090909090909101
 40
0.9090909090909101
 40
0.9090909090909101
 40
0.9090909090909101
 10
2.41702843823176
 20
0.4954621909654345
 30
0.0
 10
2.439180169331268
 20
0.5004449764450322
 30
0.0
 10
2.553784235362095
 20
0.5195817612579748
 30
0.0
 10
2.579943859129977
 20
0.5255755466899696
 30
0.0
  0
HATCH
  5
14E
330
A7
100
AcDbEntity
  8
0
  6
Continuous
 62
     1
100
AcDbHatch
 10
0.0
 20
0.0
 30
0.0
210
0.0
220
0.0
230
1.0
  2
SOLID
 70
     1
 71
     0
 91
        1
 92
        0
 93
       16
 72
     4
 94
        3
 73
     1
 74
     0
 95
        8
 96
        4
 40
0.875
 40
0.875
 40
0.875
 40
0.875
 40
0.9375
 40
0.9375
 40
0.9375
 40
0.9375
 10
5.750638299077935
 20
0.282430058141984
 42
1.0
 10
5.821047224333126
 20
0.282430058141984
 42
1.0
 10
5.844264116096784
 20
0.3275639845876285
 42
1.0
 10
5.851268901481157
 20
0.3417179839209932
 42
1.0
 72
     1
 10
5.851268901481157
 20
0.3417179839209932
 11
6.008226644088531
 21
0.3305969844447874
 72
     4
 94
        3
 73
     1
 74
     0
 95
        8
 96
        4
 40
0.0
 40
0.0
 40
0.0
 40
0.0
 40
0.0625
 40
0.0625
 40
0.0625
 40
0.0625
 10
6.008226644088531
 20
0.3305969844447874
 42
1.0
 10
6.001221858704182
 20
0.3125434138665191
 42
1.0
 10
5.989089859275584
 20
0.2814190581895736
 42
1.0
 10
5.960890182032337
 20
0.2473339169378315
 42
1.0
 72
     4
 94
        3
 73
     1
 74
     0
 95
        8
 96
        4
 40
0.0625
 40
0.0625
 40
0.0625
 40
0.0625
 40
0.125
 40
0.125
 40
0.125
 40
0.125
 10
5.960890182032337
 20
0.2473339169378315
 42
1.0
 10
5.908570934496544
 20
0.185157419866329
 42
1.0
 10
5.828124223999819
 20
0.1572104926111753
 42
1.0
 10
5.746666513550692
 20
0.1572104926111753
 42
1.0
 72
     4
 94
        3
 73
     1
 74
     0
 95
        8
 96
        4
 40
0.125
 40
0.125
 40
0.125
 40
0.125
 40
0.1875
 40
0.1875
 40
0.1875
 40
0.1875
 10
5.746666513550692
 20
0.1572104926111753
 42
1.0
 10
5.561509093700091
 20
0.1572104926111753
 42
1.0
 10
5.467955490963533
 20
0.288351629291669
 42
1.0
 10
5.467955490963533
 20
0.442240264900717
 42
1.0
 72
     4
 94
        3
 73
     1
 74
     0
 95
        8
 96
        4
 40
0.1875
 40
0.1875
 40
0.1875
 40
0.1875
 40
0.25
 40
0.25
 40
0.25
 40
0.25
 10
5.467955490963533
 20
0.442240264900717
 42
1.0
 10
5.467955490963533
 20
0.6115105426424762
 42
1.0
 10
5.581584664183096
 20
0.7335526797515455
 42
1.0
 10
5.748616299173166
 20
0.7335526797515455
 42
1.0
 72
     4
 94
        3
 73
     1
 74
     0
 95
        8
 96
        4
 40
0.25
 40
0.25
 40
0.25
 40
0.25
 40
0.3125
 40
0.3125
 40
0.3125
 40
0.3125
 10
5.748616299173166
 20
0.7335526797515455
 42
1.0
 10
5.844264116096784
 20
0.7335526797515455
 42
1.0
 10
5.911676148636021
 20
0.6911628960337679
 42
1.0
 10
5.950888503931994
 20
0.6377243271221339
 42
1.0
 72
     4
 94
        3
 73
     1
 74
     0
 95
        8
 96
        4
 40
0.3125
 40
0.3125
 40
0.3125
 40
0.3125
 40
0.375
 40
0.375
 40
0.375
 40
0.375
 10
5.950888503931994
 20
0.6377243271221339
 42
1.0
 10
5.999199858799414
 20
0.5741035444043487
 42
1.0
 10
6.014292643802839
 20
0.4854244057239294
 42
1.0
 10
6.014292643802839
 20
0.3989116955129046
 42
1.0
 72
     1
 10
6.014292643802839
 20
0.3989116955129046
 11
5.658131803434944
 21
0.3989116955129046
 72
     4
 94
        3
 73
     1
 74
     0
 95
        8
 96
        4
 40
0.4375
 40
0.4375
 40
0.4375
 40
0.4375
 40
0.5
 40
0.5
 40
0.5
 40
0.5
 10
5.658131803434944
 20
0.3989116955129046
 42
1.0
 10
5.654015589343065
 20
0.4169652660911794
 42
1.0
 10
5.65300458939068
 20
0.432130265376902
 42
1.0
 10
5.651993589438336
 20
0.4552388357170974
 42
1.0
 72
     4
 94
        3
 73
     1
 74
     0
 95
        8
 96
        4
 40
0.5
 40
0.5
 40
0.5
 40
0.5
 40
0.5625
 40
0.5625
 40
0.5625
 40
0.5625
 10
5.651993589438336
 20
0.4552388357170974
 42
1.0
 10
5.651993589438336
 20
0.4774808346694892
 42
1.0
 10
5.65300458939068
 20
0.4955344052477444
 42
1.0
 10
5.658131803434944
 20
0.516620975683152
 42
1.0
 72
     1
 10
5.658131803434944
 20
0.516620975683152
 11
5.851268901481157
 21
0.516620975683152
 72
     4
 94
        3
 73
     1
 74
     0
 95
        8
 96
        4
 40
0.625
 40
0.625
 40
0.625
 40
0.625
 40
0.6875
 40
0.6875
 40
0.6875
 40
0.6875
 10
5.851268901481157
 20
0.516620975683152
 42
1.0
 10
5.846250008860384
 20
0.5449289743498617
 42
1.0
 10
5.836140009336554
 20
0.5630547592104594
 42
1.0
 10
5.829135223952192
 20
0.5730925444519318
 42
1.0
 72
     4
 94
        3
 73
     1
 74
     0
 95
        8
 96
        4
 40
0.6875
 40
0.6875
 40
0.6875
 40
0.6875
 40
0.75
 40
0.75
 40
0.75
 40
0.75
 10
5.829135223952192
 20
0.5730925444519318
 42
1.0
 10
5.811045546232786
 20
0.5973565433091509
 42
1.0
 10
5.779848976273548
 20
0.6115105426424762
 42
1.0
 10
5.746666513550692
 20
0.6115105426424762
 42
1.0
 72
     4
 94
        3
 73
     1
 74
     0
 95
        8
 96
        4
 40
0.75
 40
0.75
 40
0.75
 40
0.75
 40
0.8125
 40
0.8125
 40
0.8125
 40
0.8125
 10
5.746666513550692
 20
0.6115105426424762
 42
1.0
 10
5.689328373394157
 20
0.6115105426424762
 42
1.0
 10
5.624913233570929
 20
0.5751145443567263
 42
1.0
 10
5.624913233570929
 20
0.4511948359075478
 42
1.0
 72
     4
 94
        3
 73
     1
 74
     0
 95
        8
 96
        4
 40
0.8125
 40
0.8125
 40
0.8125
 40
0.8125
 40
0.875
 40
0.875
 40
0.875
 40
0.875
 10
5.624913233570929
 20
0.4511948359075478
 42
1.0
 10
5.624913233570929
 20
0.3737811252679801
 42
1.0
 10
5.65300458939068
 20
0.282430058141984
 42
1.0
 10
5.750638299077935
 20
0.282430058141984
 42
1.0
 97
        0
 75
     0
 76
     1
 98
        1
 10
0.0
 20
0.0
  0
HATCH
  5
14F
330
A7
100
AcDbEntity
  8
0
  6
Continuous
 62
   179
100
AcDbHatch
 10
0.0
 20
0.0
 30
0.0
210
0.0
220
0.0
230
1.0
  2
SOLID
 70
     1
 71
     0
 91
        1
 92
        0
 93
        4
 72
     1
 10
1.654445616964636
 20
0.7161490377281231
 11
1.654445616964636
 21
0.0
 72
     1
 10
1.654445616964636
 20
0.0
 11
1.498697463589638
 21
0.0
 72
     1
 10
1.498697463589638
 20
0.0
 11
1.498697463589638
 21
0.7161490377281231
 72
     1
 10
1.498697463589638
 20
0.7161490377281231
 11
1.654445616964636
 21
0.7161490377281231
 97
        0
 75
     0
 76
     1
 98
        1
 10
0.0
 20
0.0
  0
HATCH
  5
150
330
A7
100
AcDbEntity
  8
0
  6
Continuous
 62
   179
100
AcDbHatch
 10
0.0
 20
0.0
 30
0.0
210
0.0
220
0.0
230
1.0
  2
SOLID
 70
     1
 71
     0
 91
        1
 92
        0
 93
       10
 72
     4
 94
        3
 73
     1
 74
     0
 95
        8
 96
        4
 40
0.7999999999999998
 40
0.7999999999999998
 40
0.7999999999999998
 40
0.7999999999999998
 40
0.9000000000000004
 40
0.9000000000000004
 40
0.9000000000000004
 40
0.9000000000000004
 10
1.754660987286013
 20
0.6057334000574502
 42
1.0
 10
1.71156711431571
 20
0.6057334000574502
 42
1.0
 10
1.688512704687274
 20
0.584646829622023
 42
1.0
 10
1.680478865779957
 20
0.5766310442853058
 42
1.0
 72
     1
 10
1.680478865779957
 20
0.5766310442853058
 11
1.680478865779957
 21
0.6982398957004503
 72
     4
 94
        3
 73
     1
 74
     0
 95
        8
 96
        4
 40
0.0
 40
0.0
 40
0.0
 40
0.0
 40
0.1
 40
0.1
 40
0.1
 40
0.1
 10
1.680478865779957
 20
0.6982398957004503
 42
1.0
 10
1.71156711431571
 20
0.723442680227678
 42
1.0
 10
1.75166409457001
 20
0.7335526797515455
 42
1.0
 10
1.791706914112603
 20
0.7335526797515455
 42
1.0
 72
     4
 94
        3
 73
     1
 74
     0
 95
        8
 96
        4
 40
0.1
 40
0.1
 40
0.1
 40
0.1
 40
0.2
 40
0.2
 40
0.2
 40
0.2
 10
1.791706914112603
 20
0.7335526797515455
 42
1.0
 10
1.929473711195286
 20
0.7335526797515455
 42
1.0
 10
2.01822506415801
 20
0.6177209709214203
 42
1.0
 10
2.01822506415801
 20
0.4461398361456272
 42
1.0
 72
     4
 94
        3
 73
     1
 74
     0
 95
        8
 96
        4
 40
0.2
 40
0.2
 40
0.2
 40
0.2
 40
0.2999999999999998
 40
0.2999999999999998
 40
0.2999999999999998
 40
0.2999999999999998
 10
2.01822506415801
 20
0.4461398361456272
 42
1.0
 10
2.01822506415801
 20
0.2615601305535191
 42
1.0
 10
1.908260765765849
 20
0.1600990639036883
 42
1.0
 10
1.784684075157651
 20
0.1600990639036883
 42
1.0
 72
     4
 94
        3
 73
     1
 74
     0
 95
        8
 96
        4
 40
0.2999999999999998
 40
0.2999999999999998
 40
0.2999999999999998
 40
0.2999999999999998
 40
0.3999999999999999
 40
0.3999999999999999
 40
0.3999999999999999
 40
0.3999999999999999
 10
1.784684075157651
 20
0.1600990639036883
 42
1.0
 10
1.731606577657553
 20
0.1600990639036883
 42
1.0
 10
1.696528490024017
 20
0.1772138488118758
 42
1.0
 10
1.680478865779957
 20
0.185157419866329
 42
1.0
 72
     1
 10
1.680478865779957
 20
0.185157419866329
 11
1.680478865779957
 21
0.3157930565706077
 72
     4
 94
        3
 73
     1
 74
     0
 95
        8
 96
        4
 40
0.5
 40
0.5
 40
0.5
 40
0.5
 40
0.5999999999999996
 40
0.5999999999999996
 40
0.5999999999999996
 40
0.5999999999999996
 10
1.680478865779957
 20
0.3157930565706077
 42
1.0
 10
1.692538650926222
 20
0.3047442713767184
 42
1.0
 10
1.708588275170282
 20
0.2896514863733057
 42
1.0
 10
1.747638148331067
 20
0.2896514863733057
 42
1.0
 72
     4
 94
        3
 73
     1
 74
     0
 95
        8
 96
        4
 40
0.5999999999999996
 40
0.5999999999999996
 40
0.5999999999999996
 40
0.5999999999999996
 40
0.7000000000000002
 40
0.7000000000000002
 40
0.7000000000000002
 40
0.7000000000000002
 10
1.747638148331067
 20
0.2896514863733057
 42
1.0
 10
1.816765270075221
 20
0.2896514863733057
 42
1.0
 10
1.859841089474947
 20
0.3529111976794956
 42
1.0
 10
1.859841089474947
 20
0.4501116216728472
 42
1.0
 72
     4
 94
        3
 73
     1
 74
     0
 95
        8
 96
        4
 40
0.7000000000000002
 40
0.7000000000000002
 40
0.7000000000000002
 40
0.7000000000000002
 40
0.7999999999999998
 40
0.7999999999999998
 40
0.7999999999999998
 40
0.7999999999999998
 10
1.859841089474947
 20
0.4501116216728472
 42
1.0
 10
1.859841089474947
 20
0.5444956886560024
 42
1.0
 10
1.822777109077786
 20
0.6057334000574502
 42
1.0
 10
1.754660987286013
 20
0.6057334000574502
 42
1.0
 97
        0
 75
     0
 76
     1
 98
        1
 10
0.0
 20
0.0
  0
HATCH
  5
151
330
A7
100
AcDbEntity
  8
0
  6
Continuous
 62
   179
100
AcDbHatch
 10
0.0
 20
0.0
 30
0.0
210
0.0
220
0.0
230
1.0
  2
SOLID
 70
     1
 71
     0
 91
        1
 92
        0
 93
        4
 72
     1
 10
2.062582687058386
 20
0.8821335655968657
 11
2.216904608380256
 21
0.8821335655968657
 72
     1
 10
2.216904608380256
 20
0.8821335655968657
 11
2.216904608380256
 21
0.1717255633499919
 72
     1
 10
2.216904608380256
 20
0.1717255633499919
 11
2.062582687058386
 21
0.1717255633499919
 72
     1
 10
2.062582687058386
 20
0.1717255633499919
 11
2.062582687058386
 21
0.8821335655968657
 97
        0
 75
     0
 76
     1
 98
        1
 10
0.0
 20
0.0
  0
HATCH
  5
152
330
A7
100
AcDbEntity
  8
0
  6
Continuous
 62
   179
100
AcDbHatch
 10
0.0
 20
0.0
 30
0.0
210
0.0
220
0.0
230
1.0
  2
SOLID
 70
     1
 71
     0
 91
        1
 92
        0
 93
       16
 72
     4
 94
        3
 73
     1
 74
     0
 95
        8
 96
        4
 40
0.8125
 40
0.8125
 40
0.8125
 40
0.8125
 40
0.875
 40
0.875
 40
0.875
 40
0.875
 10
3.532468296409516
 20
0.1673927064173199
 42
1.0
 10
3.385692767608264
 20
0.1673927064173199
 42
1.0
 10
3.379698982176281
 20
0.2455285598800257
 42
1.0
 10
3.377676982271521
 20
0.3186816278631469
 42
1.0
 72
     1
 10
3.377676982271521
 20
0.3186816278631469
 11
3.377676982271521
 21
0.599739614625475
 72
     1
 10
3.377676982271521
 20
0.599739614625475
 11
3.302213057254389
 21
0.599739614625475
 72
     1
 10
3.302213057254389
 20
0.599739614625475
 11
3.302213057254389
 21
0.7161490377140791
 72
     1
 10
3.302213057254389
 20
0.7161490377140791
 11
3.377676982271521
 21
0.7161490377140791
 72
     1
 10
3.377676982271521
 20
0.7161490377140791
 11
3.377676982271521
 21
0.8147937473536938
 72
     1
 10
3.377676982271521
 20
0.8147937473536938
 11
3.533443189220749
 21
0.8147937473536938
 72
     1
 10
3.533443189220749
 20
0.8147937473536938
 11
3.533443189220749
 21
0.7161490377140791
 72
     1
 10
3.533443189220749
 20
0.7161490377140791
 11
3.636059684387552
 21
0.7161490377140791
 72
     1
 10
3.636059684387552
 20
0.7161490377140791
 11
3.636059684387552
 21
0.599739614625475
 72
     1
 10
3.636059684387552
 20
0.599739614625475
 11
3.533443189220749
 21
0.599739614625475
 72
     1
 10
3.533443189220749
 20
0.599739614625475
 11
3.533443189220749
 21
0.3739255538326064
 72
     4
 94
        3
 73
     1
 74
     0
 95
        8
 96
        4
 40
0.5625
 40
0.5625
 40
0.5625
 40
0.5625
 40
0.625
 40
0.625
 40
0.625
 40
0.625
 10
3.533443189220749
 20
0.3739255538326064
 42
1.0
 10
3.532468296409516
 20
0.3077050569515413
 42
1.0
 10
3.535465189125502
 20
0.2925400576658187
 42
1.0
 10
3.594789222045661
 20
0.2925400576658187
 42
1.0
 72
     4
 94
        3
 73
     1
 74
     0
 95
        8
 96
        4
 40
0.625
 40
0.625
 40
0.625
 40
0.625
 40
0.6875
 40
0.6875
 40
0.6875
 40
0.6875
 10
3.594789222045661
 20
0.2925400576658187
 42
1.0
 10
3.605874114380733
 20
0.2925400576658187
 42
1.0
 10
3.611904006953864
 20
0.2925400576658187
 42
1.0
 10
3.636059684387552
 20
0.294562057570587
 42
1.0
 72
     1
 10
3.636059684387552
 20
0.294562057570587
 11
3.636059684387552
 21
0.1743974918016727
 72
     4
 94
        3
 73
     1
 74
     0
 95
        8
 96
        4
 40
0.75
 40
0.75
 40
0.75
 40
0.75
 40
0.8125
 40
0.8125
 40
0.8125
 40
0.8125
 10
3.636059684387552
 20
0.1743974918016727
 42
1.0
 10
3.579660329901102
 20
0.1694147063220947
 42
1.0
 10
3.56258165213405
 20
0.1673927064173199
 42
1.0
 10
3.532468296409516
 20
0.1673927064173199
 42
1.0
 97
        0
 75
     0
 76
     1
 98
        1
 10
0.0
 20
0.0
  0
HATCH
  5
153
330
A7
100
AcDbEntity
  8
0
  6
Continuous
 62
   179
100
AcDbHatch
 10
0.0
 20
0.0
 30
0.0
210
0.0
220
0.0
230
1.0
  2
SOLID
 70
     1
 71
     0
 91
        1
 92
        0
 93
        4
 72
     1
 10
3.660937504667762
 20
0.744023750653118
 11
3.660937504667762
 21
0.8819891370281154
 72
     1
 10
3.660937504667762
 20
0.8819891370281154
 11
3.816667604492762
 21
0.8819891370281154
 72
     1
 10
3.816667604492762
 20
0.8819891370281154
 11
3.816667604492762
 21
0.744023750653118
 72
     1
 10
3.816667604492762
 20
0.744023750653118
 11
3.660937504667762
 21
0.744023750653118
 97
        0
 75
     0
 76
     1
 98
        1
 10
0.0
 20
0.0
  0
HATCH
  5
154
330
A7
100
AcDbEntity
  8
0
  6
Continuous
 62
   179
100
AcDbHatch
 10
0.0
 20
0.0
 30
0.0
210
0.0
220
0.0
230
1.0
  2
SOLID
 70
     1
 71
     0
 91
        1
 92
        0
 93
        4
 72
     1
 10
3.660937504667762
 20
0.1717255633499919
 11
3.660937504667762
 21
0.7161490377281231
 72
     1
 10
3.660937504667762
 20
0.7161490377281231
 11
3.816667604492762
 21
0.7161490377281231
 72
     1
 10
3.816667604492762
 20
0.7161490377281231
 11
3.816667604492762
 21
0.1717255633499919
 72
     1
 10
3.816667604492762
 20
0.1717255633499919
 11
3.660937504667762
 21
0.1717255633499919
 97
        0
 75
     0
 76
     1
 98
        1
 10
0.0
 20
0.0
  0
HATCH
  5
155
330
A7
100
AcDbEntity
  8
0
  6
Continuous
 62
   179
100
AcDbHatch
 10
0.0
 20
0.0
 30
0.0
210
0.0
220
0.0
230
1.0
  2
SOLID
 70
     1
 71
     0
 91
        1
 92
        0
 93
       11
 72
     4
 94
        3
 73
     1
 74
     0
 95
        8
 96
        4
 40
0.8181818181818183
 40
0.8181818181818183
 40
0.8181818181818183
 40
0.8181818181818183
 40
0.9090909090909101
 40
0.9090909090909101
 40
0.9090909090909101
 40
0.9090909090909101
 10
2.41702843823176
 20
0.4954621909654345
 42
1.0
 10
2.439180169331268
 20
0.5004449764450322
 42
1.0
 10
2.553784235362095
 20
0.5195817612579748
 42
1.0
 10
2.579943859129977
 20
0.5255755466899696
 42
1.0
 72
     1
 10
2.579943859129977
 20
0.5255755466899696
 11
2.579943859129977
 21
0.4191316945605543
 72
     4
 94
        3
 73
     1
 74
     0
 95
        8
 96
        4
 40
0.0
 40
0.0
 40
0.0
 40
0.0
 40
0.0909090909090909
 40
0.0909090909090909
 40
0.0909090909090909
 40
0.0909090909090909
 10
2.579943859129977
 20
0.4191316945605543
 42
1.0
 10
2.56586207407893
 20
0.4150154804687407
 42
1.0
 10
2.497493202299038
 20
0.4020169096523668
 42
1.0
 10
2.481389417343257
 20
0.3979729098428237
 42
1.0
 72
     4
 94
        3
 73
     1
 74
     0
 95
        8
 96
        4
 40
0.0909090909090909
 40
0.0909090909090909
 40
0.0909090909090909
 40
0.0909090909090909
 40
0.1818181818181819
 40
0.1818181818181819
 40
0.1818181818181819
 40
0.1818181818181819
 10
2.481389417343257
 20
0.3979729098428237
 42
1.0
 10
2.438151115808305
 20
0.3859131246965634
 42
1.0
 10
2.415042545468171
 20
0.368798339788376
 42
1.0
 10
2.415042545468171
 20
0.3347131985366076
 42
1.0
 72
     4
 94
        3
 73
     1
 74
     0
 95
        8
 96
        4
 40
0.1818181818181819
 40
0.1818181818181819
 40
0.1818181818181819
 40
0.1818181818181819
 40
0.2727272727272729
 40
0.2727272727272729
 40
0.2727272727272729
 40
0.2727272727272729
 10
2.415042545468171
 20
0.3347131985366076
 42
1.0
 10
2.415042545468171
 20
0.3005558430025491
 42
1.0
 10
2.442177062047288
 20
0.2764362727100219
 42
1.0
 10
2.487437363486968
 20
0.2764362727100219
 42
1.0
 72
     4
 94
        3
 73
     1
 74
     0
 95
        8
 96
        4
 40
0.2727272727272729
 40
0.2727272727272729
 40
0.2727272727272729
 40
0.2727272727272729
 40
0.3636363636363638
 40
0.3636363636363638
 40
0.3636363636363638
 40
0.3636363636363638
 10
2.487437363486968
 20
0.2764362727100219
 42
1.0
 10
2.507549041111142
 20
0.2764362727100219
 42
1.0
 10
2.544739396502377
 20
0.2804802725195322
 42
1.0
 10
2.579943859129977
 20
0.3065496284345374
 42
1.0
 72
     4
 94
        3
 73
     1
 74
     0
 95
        8
 96
        4
 40
0.3636363636363638
 40
0.3636363636363638
 40
0.3636363636363638
 40
0.3636363636363638
 40
0.454545454545455
 40
0.454545454545455
 40
0.454545454545455
 40
0.454545454545455
 10
2.579943859129977
 20
0.3065496284345374
 42
1.0
 10
2.577921859225214
 20
0.2884238435739723
 42
1.0
 10
2.576928912843402
 20
0.2713812729480816
 42
1.0
 10
2.576928912843402
 20
0.2542664880398941
 42
1.0
 72
     4
 94
        3
 73
     1
 74
     0
 95
        8
 96
        4
 40
0.454545454545455
 40
0.454545454545455
 40
0.454545454545455
 40
0.454545454545455
 40
0.5454545454545459
 40
0.5454545454545459
 40
0.5454545454545459
 40
0.5454545454545459
 10
2.576928912843402
 20
0.2542664880398941
 42
1.0
 10
2.576928912843402
 20
0.2451674884684697
 42
1.0
 10
2.579943859129977
 20
0.2018389190806245
 42
1.0
 10
2.579943859129977
 20
0.1927399195091674
 42
1.0
 72
     4
 94
        3
 73
     1
 74
     0
 95
        8
 96
        4
 40
0.5454545454545459
 40
0.5454545454545459
 40
0.5454545454545459
 40
0.5454545454545459
 40
0.6363636363636367
 40
0.6363636363636367
 40
0.6363636363636367
 40
0.6363636363636367
 10
2.579943859129977
 20
0.1927399195091674
 42
1.0
 10
2.532697664926667
 20
0.1544663498832821
 42
1.0
 10
2.461277739719073
 20
0.1544663498832821
 42
1.0
 10
2.446203008286224
 20
0.1544663498832821
 42
1.0
 72
     4
 94
        3
 73
     1
 74
     0
 95
        8
 96
        4
 40
0.6363636363636367
 40
0.6363636363636367
 40
0.6363636363636367
 40
0.6363636363636367
 40
0.7272727272727275
 40
0.7272727272727275
 40
0.7272727272727275
 40
0.7272727272727275
 10
2.446203008286224
 20
0.1544663498832821
 42
1.0
 10
2.343604566689997
 20
0.1544663498832821
 42
1.0
 10
2.258066749290184
 20
0.2179427040364344
 42
1.0
 10
2.258066749290184
 20
0.3296581987747197
 42
1.0
 72
     4
 94
        3
 73
     1
 74
     0
 95
        8
 96
        4
 40
0.7272727272727275
 40
0.7272727272727275
 40
0.7272727272727275
 40
0.7272727272727275
 40
0.8181818181818183
 40
0.8181818181818183
 40
0.8181818181818183
 40
0.8181818181818183
 10
2.258066749290184
 20
0.3296581987747197
 42
1.0
 10
2.258066749290184
 20
0.4581996212919072
 42
1.0
 10
2.365738244218937
 20
0.4843411914892419
 42
1.0
 10
2.41702843823176
 20
0.4954621909654345
 42
1.0
 97
        0
 75
     0
 76
     1
 98
        1
 10
0.0
 20
0.0
  0
HATCH
  5
156
330
A7
100
AcDbEntity
  8
0
  6
Continuous
 62
   179
100
AcDbHatch
 10
0.0
 20
0.0
 30
0.0
210
0.0
220
0.0
230
1.0
  2
SOLID
 70
     1
 71
     0
 91
        1
 92
        0
 93
       11
 72
     4
 94
        3
 73
     1
 74
     0
 95
        8
 96
        4
 40
0.3636363636363638
 40
0.3636363636363638
 40
0.3636363636363638
 40
0.3636363636363638
 40
0.454545454545455
 40
0.454545454545455
 40
0.454545454545455
 40
0.454545454545455
 10
2.760010172077536
 20
0.2790359868732822
 42
1.0
 10
2.760010172077536
 20
0.2275472035840803
 42
1.0
 10
2.762050225552859
 20
0.2042219903969683
 42
1.0
 10
2.780139903272285
 20
0.1719422062030321
 42
1.0
 72
     1
 10
2.780139903272285
 20
0.1719422062030321
 11
2.615166375328144
 21
0.1719422062030321
 72
     4
 94
        3
 73
     1
 74
     0
 95
        8
 96
        4
 40
0.5454545454545459
 40
0.5454545454545459
 40
0.5454545454545459
 40
0.5454545454545459
 40
0.6363636363636367
 40
0.6363636363636367
 40
0.6363636363636367
 40
0.6363636363636367
 10
2.615166375328144
 20
0.1719422062030321
 42
1.0
 10
2.607114482850275
 20
0.1911512052983108
 42
1.0
 10
2.604081482993109
 20
0.2042219903969683
 42
1.0
 10
2.603088536611319
 20
0.2526777738290113
 42
1.0
 72
     1
 10
2.603088536611319
 20
0.2526777738290113
 11
2.603088536611319
 21
0.5315693321219646
 72
     4
 94
        3
 73
     1
 74
     0
 95
        8
 96
        4
 40
0.7272727272727275
 40
0.7272727272727275
 40
0.7272727272727275
 40
0.7272727272727275
 40
0.8181818181818183
 40
0.8181818181818183
 40
0.8181818181818183
 40
0.8181818181818183
 10
2.603088536611319
 20
0.5315693321219646
 42
1.0
 10
2.604081482993109
 20
0.5607439021764385
 42
1.0
 10
2.605074429374913
 20
0.6099940427139229
 42
1.0
 10
2.521630826162205
 20
0.6099940427139229
 42
1.0
 72
     4
 94
        3
 73
     1
 74
     0
 95
        8
 96
        4
 40
0.8181818181818183
 40
0.8181818181818183
 40
0.8181818181818183
 40
0.8181818181818183
 40
0.9090909090909101
 40
0.9090909090909101
 40
0.9090909090909101
 40
0.9090909090909101
 10
2.521630826162205
 20
0.6099940427139229
 42
1.0
 10
2.504534094824611
 20
0.6099940427139229
 42
1.0
 10
2.433114169617009
 20
0.6078998285268448
 42
1.0
 10
2.431128276853366
 20
0.5416793316457796
 42
1.0
 72
     1
 10
2.431128276853366
 20
0.5416793316457796
 11
2.288270372867611
 21
0.5413182602342499
 72
     4
 94
        3
 73
     1
 74
     0
 95
        8
 96
        4
 40
0.0
 40
0.0
 40
0.0
 40
0.0
 40
0.0909090909090909
 40
0.0909090909090909
 40
0.0909090909090909
 40
0.0909090909090909
 10
2.288270372867611
 20
0.5413182602342499
 42
1.0
 10
2.296322265345536
 20
0.6663211829180765
 42
1.0
 10
2.379820029269962
 20
0.7307363227413293
 42
1.0
 10
2.521630826162205
 20
0.7307363227413293
 42
1.0
 72
     4
 94
        3
 73
     1
 74
     0
 95
        8
 96
        4
 40
0.0909090909090909
 40
0.0909090909090909
 40
0.0909090909090909
 40
0.0909090909090909
 40
0.1818181818181819
 40
0.1818181818181819
 40
0.1818181818181819
 40
0.1818181818181819
 10
2.521630826162205
 20
0.7307363227413293
 42
1.0
 10
2.579943859129977
 20
0.7307363227413293
 42
1.0
 10
2.641289891954871
 20
0.7226483231222826
 42
1.0
 10
2.68859024686992
 20
0.6884187533058944
 42
1.0
 72
     4
 94
        3
 73
     1
 74
     0
 95
        8
 96
        4
 40
0.1818181818181819
 40
0.1818181818181819
 40
0.1818181818181819
 40
0.1818181818181819
 40
0.2727272727272729
 40
0.2727272727272729
 40
0.2727272727272729
 40
0.2727272727272729
 10
2.68859024686992
 20
0.6884187533058944
 42
1.0
 10
2.756002279409147
 20
0.641118398390816
 42
1.0
 10
2.758006225743342
 20
0.5746090443805506
 42
1.0
 10
2.760010172077536
 20
0.514093475802208
 42
1.0
 72
     1
 10
2.760010172077536
 20
0.514093475802208
 11
2.760010172077536
 21
0.2790359868732822
 97
        0
 75
     0
 76
     1
 98
        1
 10
0.0
 20
0.0
  0
HATCH
  5
157
330
A7
100
AcDbEntity
  8
0
  6
Continuous
 62
   179
100
AcDbHatch
 10
0.0
 20
0.0
 30
0.0
210
0.0
220
0.0
230
1.0
  2
SOLID
 70
     1
 71
     0
 91
        1
 92
        0
 93
        5
 72
     4
 94
        3
 73
     1
 74
     0
 95
        8
 96
        4
 40
0.5999999999999996
 40
0.5999999999999996
 40
0.5999999999999996
 40
0.5999999999999996
 40
0.7999999999999998
 40
0.7999999999999998
 40
0.7999999999999998
 40
0.7999999999999998
 10
3.233392846210063
 20
0.6743008611136913
 42
1.0
 10
3.275710415645518
 20
0.6341858272887928
 42
1.0
 10
3.285712093745874
 20
0.5899906865132225
 42
1.0
 10
3.28971998641423
 20
0.5488285455947849
 42
1.0
 72
     1
 10
3.28971998641423
 20
0.5488285455947849
 11
3.14290835047185
 21
0.5408849745403448
 72
     4
 94
        3
 73
     1
 74
     0
 95
        8
 96
        4
 40
0.0
 40
0.0
 40
0.0
 40
0.0
 40
0.2
 40
0.2
 40
0.2
 40
0.2
 10
3.14290835047185
 20
0.5408849745403448
 42
1.0
 10
3.140814136284785
 20
0.6071054714213968
 42
1.0
 10
3.087592210220042
 20
0.6151212567581469
 42
1.0
 10
3.066451479072915
 20
0.6190930422853866
 42
1.0
 72
     1
 10
3.066451479072915
 20
0.6190930422853866
 11
3.066451479072915
 21
0.7336248940338619
 72
     4
 94
        3
 73
     1
 74
     0
 95
        8
 96
        4
 40
0.3999999999999999
 40
0.3999999999999999
 40
0.3999999999999999
 40
0.3999999999999999
 40
0.5999999999999996
 40
0.5999999999999996
 40
0.5999999999999996
 40
0.5999999999999996
 10
3.066451479072915
 20
0.7336248940338619
 42
1.0
 10
3.128754351138493
 20
0.7306280013178579
 42
1.0
 10
3.189125491152189
 20
0.7155352163144124
 42
1.0
 10
3.233392846210063
 20
0.6743008611136913
 42
1.0
 97
        0
 75
     0
 76
     1
 98
        1
 10
0.0
 20
0.0
  0
HATCH
  5
158
330
A7
100
AcDbEntity
  8
0
  6
Continuous
 62
   179
100
AcDbHatch
 10
0.0
 20
0.0
 30
0.0
210
0.0
220
0.0
230
1.0
  2
SOLID
 70
     1
 71
     0
 91
        1
 92
        0
 93
        4
 72
     4
 94
        3
 73
     1
 74
     0
 95
        8
 96
        4
 40
0.5
 40
0.5
 40
0.5
 40
0.5
 40
0.75
 40
0.75
 40
0.75
 40
0.75
 10
2.953923573658602
 20
0.3633100543325764
 42
1.0
 10
2.962011573277678
 20
0.3162263422644931
 42
1.0
 10
2.972031304948599
 20
0.2871239864923159
 42
1.0
 10
3.039443337487846
 20
0.2740532013936781
 42
1.0
 72
     1
 10
3.039443337487846
 20
0.2740532013936781
 11
3.039443337487846
 21
0.1573549211757951
 72
     4
 94
        3
 73
     1
 74
     0
 95
        8
 96
        4
 40
0.0
 40
0.0
 40
0.0
 40
0.0
 40
0.25
 40
0.25
 40
0.25
 40
0.25
 10
3.039443337487846
 20
0.1573549211757951
 42
1.0
 10
2.87345880959132
 20
0.1703534919921427
 42
1.0
 10
2.813141830289353
 20
0.2418456314820648
 42
1.0
 10
2.80508993781144
 20
0.3583272688529591
 42
1.0
 72
     1
 10
2.80508993781144
 20
0.3583272688529591
 11
2.953923573658602
 21
0.3633100543325764
 97
        0
 75
     0
 76
     1
 98
        1
 10
0.0
 20
0.0
  0
HATCH
  5
159
330
A7
100
AcDbEntity
  8
0
  6
Continuous
 62
   179
100
AcDbHatch
 10
0.0
 20
0.0
 30
0.0
210
0.0
220
0.0
230
1.0
  2
SOLID
 70
     1
 71
     0
 91
        1
 92
        0
 93
       14
 72
     4
 94
        3
 73
     1
 74
     0
 95
        8
 96
        4
 40
0.2857142857142856
 40
0.2857142857142856
 40
0.2857142857142856
 40
0.2857142857142856
 40
0.3571428571428568
 40
0.3571428571428568
 40
0.3571428571428568
 40
0.3571428571428568
 10
3.038342069682548
 20
0.6201040422377445
 42
1.0
 10
3.00517766053029
 20
0.6180820423329828
 42
1.0
 10
2.971002251425654
 20
0.6090552570438421
 42
1.0
 10
2.971002251425654
 20
0.5749701157921066
 42
1.0
 72
     4
 94
        3
 73
     1
 74
     0
 95
        8
 96
        4
 40
0.3571428571428568
 40
0.3571428571428568
 40
0.3571428571428568
 40
0.3571428571428568
 40
0.4285714285714288
 40
0.4285714285714288
 40
0.4285714285714288
 40
0.4285714285714288
 10
2.971002251425654
 20
0.5749701157921066
 42
1.0
 10
2.971002251425654
 20
0.5478175456423812
 42
1.0
 10
2.991131982620416
 20
0.541823760210419
 42
1.0
 10
3.038342069682548
 20
0.5288251893940517
 42
1.0
 72
     1
 10
3.038342069682548
 20
0.5288251893940517
 11
3.119041530167374
 21
0.5109160473803965
 72
     4
 94
        3
 73
     1
 74
     0
 95
        8
 96
        4
 40
0.5
 40
0.5
 40
0.5
 40
0.5
 40
0.5714285714285712
 40
0.5714285714285712
 40
0.5714285714285712
 40
0.5714285714285712
 10
3.119041530167374
 20
0.5109160473803965
 42
1.0
 10
3.188619991175976
 20
0.494812262424626
 42
1.0
 10
3.30575155708775
 20
0.4696816921796885
 42
1.0
 10
3.30575155708775
 20
0.3383239126522652
 42
1.0
 72
     4
 94
        3
 73
     1
 74
     0
 95
        8
 96
        4
 40
0.5714285714285712
 40
0.5714285714285712
 40
0.5714285714285712
 40
0.5714285714285712
 40
0.6428571428571423
 40
0.6428571428571423
 40
0.6428571428571423
 40
0.6428571428571423
 10
3.30575155708775
 20
0.3383239126522652
 42
1.0
 10
3.30575155708775
 20
0.2700814158664645
 42
1.0
 10
3.271377558706735
 20
0.2146930613323655
 42
1.0
 10
3.202737883368184
 20
0.1834964913731101
 42
1.0
 72
     4
 94
        3
 73
     1
 74
     0
 95
        8
 96
        4
 40
0.6428571428571423
 40
0.6428571428571423
 40
0.6428571428571423
 40
0.6428571428571423
 40
0.7142857142857135
 40
0.7142857142857135
 40
0.7142857142857135
 40
0.7142857142857135
 10
3.202737883368184
 20
0.1834964913731101
 42
1.0
 10
3.148324421645324
 20
0.1583659211281989
 42
1.0
 10
3.089830852971753
 20
0.1573549211757951
 42
1.0
 10
3.066632014778672
 20
0.1573549211757951
 42
1.0
 72
     1
 10
3.066632014778672
 20
0.1573549211757951
 11
3.066632014778672
 21
0.2721034157712066
 72
     4
 94
        3
 73
     1
 74
     0
 95
        8
 96
        4
 40
0.7857142857142847
 40
0.7857142857142847
 40
0.7857142857142847
 40
0.7857142857142847
 40
0.8571428571428577
 40
0.8571428571428577
 40
0.8571428571428577
 40
0.8571428571428577
 10
3.066632014778672
 20
0.2721034157712066
 42
1.0
 10
3.087844960208153
 20
0.2730422014412873
 42
1.0
 10
3.147313421692938
 20
0.2780972012031883
 42
1.0
 10
3.147313421692938
 20
0.3241699133189202
 42
1.0
 72
     4
 94
        3
 73
     1
 74
     0
 95
        8
 96
        4
 40
0.8571428571428577
 40
0.8571428571428577
 40
0.8571428571428577
 40
0.8571428571428577
 40
0.9285714285714288
 40
0.9285714285714288
 40
0.9285714285714288
 40
0.9285714285714288
 10
3.147313421692938
 20
0.3241699133189202
 42
1.0
 10
3.147313421692938
 20
0.3573162689005946
 42
1.0
 10
3.113047744735397
 20
0.3673540541421129
 42
1.0
 10
3.077771067825477
 20
0.37645305371357
 42
1.0
 72
     1
 10
3.077771067825477
 20
0.37645305371357
 11
2.976021144046416
 21
0.401511409676178
 72
     4
 94
        3
 73
     1
 74
     0
 95
        8
 96
        4
 40
0.0
 40
0.0
 40
0.0
 40
0.0
 40
0.0714285714285714
 40
0.0714285714285714
 40
0.0714285714285714
 40
0.0714285714285714
 10
2.976021144046416
 20
0.401511409676178
 42
1.0
 10
2.913844646974891
 20
0.4184817660197261
 42
1.0
 10
2.82254774056062
 20
0.4436123362646833
 42
1.0
 10
2.82254774056062
 20
0.5599495450709906
 42
1.0
 72
     4
 94
        3
 73
     1
 74
     0
 95
        8
 96
        4
 40
0.0714285714285714
 40
0.0714285714285714
 40
0.0714285714285714
 40
0.0714285714285714
 40
0.1428571428571428
 40
0.1428571428571428
 40
0.1428571428571428
 40
0.1428571428571428
 10
2.82254774056062
 20
0.5599495450709906
 42
1.0
 10
2.82254774056062
 20
0.5879686866084411
 42
1.0
 10
2.827566633181379
 20
0.6321638273840113
 42
1.0
 10
2.862662774385525
 20
0.6703290755864515
 42
1.0
 72
     4
 94
        3
 73
     1
 74
     0
 95
        8
 96
        4
 40
0.1428571428571428
 40
0.1428571428571428
 40
0.1428571428571428
 40
0.1428571428571428
 40
0.2142857142857144
 40
0.2142857142857144
 40
0.2142857142857144
 40
0.2142857142857144
 10
2.862662774385525
 20
0.6703290755864515
 42
1.0
 10
2.915848593309055
 20
0.7266201086494501
 42
1.0
 10
2.993135928954584
 20
0.7306280013178579
 42
1.0
 10
3.038342069682548
 20
0.7336248940338619
 42
1.0
 72
     1
 10
3.038342069682548
 20
0.7336248940338619
 11
3.038342069682548
 21
0.6201040422377445
 97
        0
 75
     0
 76
     1
 98
        1
 10
0.0
 20
0.0
  0
HATCH
  5
15A
330
A7
100
AcDbEntity
  8
0
  6
Continuous
 62
     1
100
AcDbHatch
 10
0.0
 20
0.0
 30
0.0
210
0.0
220
0.0
230
1.0
  2
SOLID
 70
     1
 71
     0
 91
        1
 92
        0
 93
        7
 72
     4
 94
        3
 73
     1
 74
     0
 95
        8
 96
        4
 40
0.1428571428571429
 40
0.1428571428571429
 40
0.1428571428571429
 40
0.1428571428571429
 40
0.2857142857142858
 40
0.2857142857142858
 40
0.2857142857142858
 40
0.2857142857142858
 10
3.865159495025667
 20
0.443034622006178
 42
1.0
 10
3.865159495025667
 20
0.6482676123398213
 42
1.0
 10
4.001247310044594
 20
0.7296531085066221
 42
1.0
 10
4.125022589929156
 20
0.7336248940338619
 42
1.0
 72
     1
 10
4.125022589929156
 20
0.7336248940338619
 11
4.125022589929156
 21
0.6081886856560974
 72
     4
 94
        3
 73
     1
 74
     0
 95
        8
 96
        4
 40
0.4285714285714288
 40
0.4285714285714288
 40
0.4285714285714288
 40
0.4285714285714288
 40
0.5714285714285716
 40
0.5714285714285716
 40
0.5714285714285716
 40
0.5714285714285716
 10
4.125022589929156
 20
0.6081886856560974
 42
1.0
 10
4.036487879813358
 20
0.5940707934638811
 42
1.0
 10
4.026486201712983
 20
0.5005171907273814
 42
1.0
 10
4.026486201712983
 20
0.4471508360980244
 42
1.0
 72
     4
 94
        3
 73
     1
 74
     0
 95
        8
 96
        4
 40
0.5714285714285716
 40
0.5714285714285716
 40
0.5714285714285716
 40
0.5714285714285716
 40
0.7142857142857144
 40
0.7142857142857144
 40
0.7142857142857144
 40
0.7142857142857144
 10
4.026486201712983
 20
0.4471508360980244
 42
1.0
 10
4.026486201712983
 20
0.4228146229584955
 42
1.0
 10
4.027461094524216
 20
0.3683650540945036
 42
1.0
 10
4.056563450296348
 20
0.3300192701862757
 42
1.0
 72
     4
 94
        3
 73
     1
 74
     0
 95
        8
 96
        4
 40
0.7142857142857144
 40
0.7142857142857144
 40
0.7142857142857144
 40
0.7142857142857144
 40
0.8571428571428577
 40
0.8571428571428577
 40
0.8571428571428577
 40
0.8571428571428577
 10
4.056563450296348
 20
0.3300192701862757
 42
1.0
 10
4.079816449201186
 20
0.2997614858971011
 42
1.0
 10
4.107907805020956
 20
0.2926844862304188
 42
1.0
 10
4.125022589929156
 20
0.2896514863733057
 42
1.0
 72
     1
 10
4.125022589929156
 20
0.2896514863733057
 11
4.125022589929156
 21
0.1572104926111753
 72
     4
 94
        3
 73
     1
 74
     0
 95
        8
 96
        4
 40
0.0
 40
0.0
 40
0.0
 40
0.0
 40
0.1428571428571429
 40
0.1428571428571429
 40
0.1428571428571429
 40
0.1428571428571429
 10
4.125022589929156
 20
0.1572104926111753
 42
1.0
 10
3.929682956272354
 20
0.1632042780431571
 42
1.0
 10
3.865159495025667
 20
0.3097992711386259
 42
1.0
 10
3.865159495025667
 20
0.443034622006178
 42
1.0
 97
        0
 75
     0
 76
     1
 98
        1
 10
0.0
 20
0.0
  0
HATCH
  5
15B
330
A7
100
AcDbEntity
  8
0
  6
Continuous
 62
     1
100
AcDbHatch
 10
0.0
 20
0.0
 30
0.0
210
0.0
220
0.0
230
1.0
  2
SOLID
 70
     1
 71
     0
 91
        1
 92
        0
 93
        5
 72
     4
 94
        3
 73
     1
 74
     0
 95
        8
 96
        4
 40
0.5999999999999996
 40
0.5999999999999996
 40
0.5999999999999996
 40
0.5999999999999996
 40
0.7999999999999998
 40
0.7999999999999998
 40
0.7999999999999998
 40
0.7999999999999998
 10
4.315235009541685
 20
0.6746980396664021
 42
1.0
 10
4.37358414965062
 20
0.622703756401018
 42
1.0
 10
4.382647042080912
 20
0.5647879019859358
 42
1.0
 10
4.388676934654031
 20
0.5298361893464489
 42
1.0
 72
     1
 10
4.388676934654031
 20
0.5298361893464489
 11
4.236738084667419
 21
0.5217481897274021
 72
     4
 94
        3
 73
     1
 74
     0
 95
        8
 96
        4
 40
0.0
 40
0.0
 40
0.0
 40
0.0
 40
0.2
 40
0.2
 40
0.2
 40
0.2
 10
4.236738084667419
 20
0.5217481897274021
 42
1.0
 10
4.223631192427588
 20
0.5867771509502823
 42
1.0
 10
4.191459729657151
 20
0.599811828907785
 42
1.0
 10
4.151236374408762
 20
0.6078276142445349
 42
1.0
 72
     1
 10
4.151236374408762
 20
0.6078276142445349
 11
4.151236374408762
 21
0.7336248940338619
 72
     4
 94
        3
 73
     1
 74
     0
 95
        8
 96
        4
 40
0.3999999999999999
 40
0.3999999999999999
 40
0.3999999999999999
 40
0.3999999999999999
 40
0.5999999999999996
 40
0.5999999999999996
 40
0.5999999999999996
 40
0.5999999999999996
 10
4.151236374408762
 20
0.7336248940338619
 42
1.0
 10
4.237749084619803
 20
0.7316390012702355
 42
1.0
 10
4.288046332250823
 20
0.6987092885354775
 42
1.0
 10
4.315235009541685
 20
0.6746980396664021
 42
1.0
 97
        0
 75
     0
 76
     1
 98
        1
 10
0.0
 20
0.0
  0
HATCH
  5
15C
330
A7
100
AcDbEntity
  8
0
  6
Continuous
 62
     1
100
AcDbHatch
 10
0.0
 20
0.0
 30
0.0
210
0.0
220
0.0
230
1.0
  2
SOLID
 70
     1
 71
     0
 91
        1
 92
        0
 93
        4
 72
     4
 94
        3
 73
     1
 74
     0
 95
        8
 96
        4
 40
0.5
 40
0.5
 40
0.5
 40
0.5
 40
0.75
 40
0.75
 40
0.75
 40
0.75
 10
4.392648720181261
 20
0.3753698394788629
 42
1.0
 10
4.379577935082613
 20
0.2753530584753017
 42
1.0
 10
4.314260116730467
 20
0.165298492230209
 42
1.0
 10
4.151236374408762
 20
0.1572104926111753
 42
1.0
 72
     1
 10
4.151236374408762
 20
0.1572104926111753
 11
4.151236374408762
 21
0.2896514863733057
 72
     4
 94
        3
 73
     1
 74
     0
 95
        8
 96
        4
 40
0.0
 40
0.0
 40
0.0
 40
0.0
 40
0.25
 40
0.25
 40
0.25
 40
0.25
 10
4.151236374408762
 20
0.2896514863733057
 42
1.0
 10
4.208538407424164
 20
0.2987504859447235
 42
1.0
 10
4.228722299330665
 20
0.3290804845162014
 42
1.0
 10
4.239734977383403
 20
0.3825912677101519
 42
1.0
 72
     1
 10
4.239734977383403
 20
0.3825912677101519
 11
4.392648720181261
 21
0.3753698394788629
 97
        0
 75
     0
 76
     1
 98
        1
 10
0.0
 20
0.0
  0
HATCH
  5
15D
330
A7
100
AcDbEntity
  8
0
  6
Continuous
 62
     1
100
AcDbHatch
 10
0.0
 20
0.0
 30
0.0
210
0.0
220
0.0
230
1.0
  2
SOLID
 70
     1
 71
     0
 91
        1
 92
        0
 93
        5
 72
     4
 94
        3
 73
     1
 74
     0
 95
        8
 96
        4
 40
0.5999999999999996
 40
0.5999999999999996
 40
0.5999999999999996
 40
0.5999999999999996
 40
0.7999999999999998
 40
0.7999999999999998
 40
0.7999999999999998
 40
0.7999999999999998
 10
5.374510209650465
 20
0.6743008611136913
 42
1.0
 10
5.416719457662442
 20
0.6341858272887928
 42
1.0
 10
5.426829457186272
 20
0.5899906865132225
 42
1.0
 10
5.430837349854645
 20
0.5488285455947849
 42
1.0
 72
     1
 10
5.430837349854645
 20
0.5488285455947849
 11
5.283917392488752
 21
0.5408849745403448
 72
     4
 94
        3
 73
     1
 74
     0
 95
        8
 96
        4
 40
0.0
 40
0.0
 40
0.0
 40
0.0
 40
0.2
 40
0.2
 40
0.2
 40
0.2
 10
5.283917392488752
 20
0.5408849745403448
 42
1.0
 10
5.281895392583991
 20
0.6071054714213968
 42
1.0
 10
5.228673466519274
 20
0.6151212567581469
 42
1.0
 10
5.207586896083892
 20
0.6190930422853866
 42
1.0
 72
     1
 10
5.207586896083892
 20
0.6190930422853866
 11
5.207586896083892
 21
0.7336248940338619
 72
     4
 94
        3
 73
     1
 74
     0
 95
        8
 96
        4
 40
0.3999999999999999
 40
0.3999999999999999
 40
0.3999999999999999
 40
0.3999999999999999
 40
0.5999999999999996
 40
0.5999999999999996
 40
0.5999999999999996
 40
0.5999999999999996
 10
5.207586896083892
 20
0.7336248940338619
 42
1.0
 10
5.269907821720027
 20
0.7306280013178579
 42
1.0
 10
5.330206747451427
 20
0.7155352163144124
 42
1.0
 10
5.374510209650465
 20
0.6743008611136913
 42
1.0
 97
        0
 75
     0
 76
     1
 98
        1
 10
0.0
 20
0.0
  0
HATCH
  5
15E
330
A7
100
AcDbEntity
  8
0
  6
Continuous
 62
     1
100
AcDbHatch
 10
0.0
 20
0.0
 30
0.0
210
0.0
220
0.0
230
1.0
  2
SOLID
 70
     1
 71
     0
 91
        1
 92
        0
 93
        4
 72
     4
 94
        3
 73
     1
 74
     0
 95
        8
 96
        4
 40
0.5
 40
0.5
 40
0.5
 40
0.5
 40
0.75
 40
0.75
 40
0.75
 40
0.75
 10
5.09504093709902
 20
0.3633100543325764
 42
1.0
 10
5.103056722435767
 20
0.3162263422644931
 42
1.0
 10
5.113130614818432
 20
0.2871239864923159
 42
1.0
 10
5.180578754498822
 20
0.2740532013936781
 42
1.0
 72
     1
 10
5.180578754498822
 20
0.2740532013936781
 11
5.180578754498822
 21
0.1573549211757951
 72
     4
 94
        3
 73
     1
 74
     0
 95
        8
 96
        4
 40
0.0
 40
0.0
 40
0.0
 40
0.0
 40
0.25
 40
0.25
 40
0.25
 40
0.25
 10
5.180578754498822
 20
0.1573549211757951
 42
1.0
 10
5.014485905178835
 20
0.1703534919921427
 42
1.0
 10
4.954186979447416
 20
0.2418456314820648
 42
1.0
 10
4.946171194110682
 20
0.3583272688529591
 42
1.0
 72
     1
 10
4.946171194110682
 20
0.3583272688529591
 11
5.09504093709902
 21
0.3633100543325764
 97
        0
 75
     0
 76
     1
 98
        1
 10
0.0
 20
0.0
  0
HATCH
  5
15F
330
A7
100
AcDbEntity
  8
0
  6
Continuous
 62
     1
100
AcDbHatch
 10
0.0
 20
0.0
 30
0.0
210
0.0
220
0.0
230
1.0
  2
SOLID
 70
     1
 71
     0
 91
        1
 92
        0
 93
       11
 72
     4
 94
        3
 73
     1
 74
     0
 95
        8
 96
        4
 40
0.6363636363636367
 40
0.6363636363636367
 40
0.6363636363636367
 40
0.6363636363636367
 40
0.7272727272727275
 40
0.7272727272727275
 40
0.7272727272727275
 40
0.7272727272727275
 10
4.587266211014894
 20
0.1544663498832821
 42
1.0
 10
4.484649715848079
 20
0.1544663498832821
 42
1.0
 10
4.399148005589441
 20
0.2179427040364344
 42
1.0
 10
4.399148005589441
 20
0.3296581987747197
 42
1.0
 72
     4
 94
        3
 73
     1
 74
     0
 95
        8
 96
        4
 40
0.7272727272727275
 40
0.7272727272727275
 40
0.7272727272727275
 40
0.7272727272727275
 40
0.8181818181818183
 40
0.8181818181818183
 40
0.8181818181818183
 40
0.8181818181818183
 10
4.399148005589441
 20
0.3296581987747197
 42
1.0
 10
4.399148005589441
 20
0.4581996212919072
 42
1.0
 10
4.506855607659324
 20
0.4843411914892419
 42
1.0
 10
4.558163855242751
 20
0.4954621909654345
 42
1.0
 72
     4
 94
        3
 73
     1
 74
     0
 95
        8
 96
        4
 40
0.8181818181818183
 40
0.8181818181818183
 40
0.8181818181818183
 40
0.8181818181818183
 40
0.9090909090909101
 40
0.9090909090909101
 40
0.9090909090909101
 40
0.9090909090909101
 10
4.558163855242751
 20
0.4954621909654345
 42
1.0
 10
4.580261425630515
 20
0.5004449764450322
 42
1.0
 10
4.694901598802476
 20
0.5195817612579748
 42
1.0
 10
4.721007061858631
 20
0.5255755466899696
 42
1.0
 72
     1
 10
4.721007061858631
 20
0.5255755466899696
 11
4.721007061858631
 21
0.4191316945605543
 72
     4
 94
        3
 73
     1
 74
     0
 95
        8
 96
        4
 40
0.0
 40
0.0
 40
0.0
 40
0.0
 40
0.0909090909090909
 40
0.0909090909090909
 40
0.0909090909090909
 40
0.0909090909090909
 10
4.721007061858631
 20
0.4191316945605543
 42
1.0
 10
4.706925276807587
 20
0.4150154804687407
 42
1.0
 10
4.638610565739469
 20
0.4020169096523668
 42
1.0
 10
4.622506780783656
 20
0.3979729098428237
 42
1.0
 72
     4
 94
        3
 73
     1
 74
     0
 95
        8
 96
        4
 40
0.0909090909090909
 40
0.0909090909090909
 40
0.0909090909090909
 40
0.0909090909090909
 40
0.1818181818181819
 40
0.1818181818181819
 40
0.1818181818181819
 40
0.1818181818181819
 10
4.622506780783656
 20
0.3979729098428237
 42
1.0
 10
4.579250425678143
 20
0.3859131246965634
 42
1.0
 10
4.556069641055672
 20
0.368798339788376
 42
1.0
 10
4.556069641055672
 20
0.3347131985366076
 42
1.0
 72
     4
 94
        3
 73
     1
 74
     0
 95
        8
 96
        4
 40
0.1818181818181819
 40
0.1818181818181819
 40
0.1818181818181819
 40
0.1818181818181819
 40
0.2727272727272729
 40
0.2727272727272729
 40
0.2727272727272729
 40
0.2727272727272729
 10
4.556069641055672
 20
0.3347131985366076
 42
1.0
 10
4.556069641055672
 20
0.3005558430025491
 42
1.0
 10
4.583258318346529
 20
0.2764362727100219
 42
1.0
 10
4.628500566215641
 20
0.2764362727100219
 42
1.0
 72
     4
 94
        3
 73
     1
 74
     0
 95
        8
 96
        4
 40
0.2727272727272729
 40
0.2727272727272729
 40
0.2727272727272729
 40
0.2727272727272729
 40
0.3636363636363638
 40
0.3636363636363638
 40
0.3636363636363638
 40
0.3636363636363638
 10
4.628500566215641
 20
0.2764362727100219
 42
1.0
 10
4.648576136698662
 20
0.2764362727100219
 42
1.0
 10
4.685838706372192
 20
0.2804802725195322
 42
1.0
 10
4.721007061858631
 20
0.3065496284345374
 42
1.0
 72
     4
 94
        3
 73
     1
 74
     0
 95
        8
 96
        4
 40
0.3636363636363638
 40
0.3636363636363638
 40
0.3636363636363638
 40
0.3636363636363638
 40
0.454545454545455
 40
0.454545454545455
 40
0.454545454545455
 40
0.454545454545455
 10
4.721007061858631
 20
0.3065496284345374
 42
1.0
 10
4.719021169095031
 20
0.2884238435739723
 42
1.0
 10
4.718046276283802
 20
0.2713812729480816
 42
1.0
 10
4.718046276283802
 20
0.2542664880398941
 42
1.0
 72
     4
 94
        3
 73
     1
 74
     0
 95
        8
 96
        4
 40
0.454545454545455
 40
0.454545454545455
 40
0.454545454545455
 40
0.454545454545455
 40
0.5454545454545459
 40
0.5454545454545459
 40
0.5454545454545459
 40
0.5454545454545459
 10
4.718046276283802
 20
0.2542664880398941
 42
1.0
 10
4.718046276283802
 20
0.2451674884684697
 42
1.0
 10
4.721007061858631
 20
0.2018389190806245
 42
1.0
 10
4.721007061858631
 20
0.1927399195091674
 42
1.0
 72
     4
 94
        3
 73
     1
 74
     0
 95
        8
 96
        4
 40
0.5454545454545459
 40
0.5454545454545459
 40
0.5454545454545459
 40
0.5454545454545459
 40
0.6363636363636367
 40
0.6363636363636367
 40
0.6363636363636367
 40
0.6363636363636367
 10
4.721007061858631
 20
0.1927399195091674
 42
1.0
 10
4.673778921225919
 20
0.1544663498832821
 42
1.0
 10
4.60235899601834
 20
0.1544663498832821
 42
1.0
 10
4.587266211014894
 20
0.1544663498832821
 42
1.0
 97
        0
 75
     0
 76
     1
 98
        1
 10
0.0
 20
0.0
  0
HATCH
  5
160
330
A7
100
AcDbEntity
  8
0
  6
Continuous
 62
     1
100
AcDbHatch
 10
0.0
 20
0.0
 30
0.0
210
0.0
220
0.0
230
1.0
  2
SOLID
 70
     1
 71
     0
 91
        1
 92
        0
 93
       11
 72
     4
 94
        3
 73
     1
 74
     0
 95
        8
 96
        4
 40
0.1818181818181819
 40
0.1818181818181819
 40
0.1818181818181819
 40
0.1818181818181819
 40
0.2727272727272729
 40
0.2727272727272729
 40
0.2727272727272729
 40
0.2727272727272729
 10
4.829653449598639
 20
0.6884187533058944
 42
1.0
 10
4.897065482137817
 20
0.641118398390816
 42
1.0
 10
4.899087482042598
 20
0.5746090443805506
 42
1.0
 10
4.901073374806193
 20
0.514093475802208
 42
1.0
 72
     1
 10
4.901073374806193
 20
0.514093475802208
 11
4.901073374806193
 21
0.2790359868732822
 72
     4
 94
        3
 73
     1
 74
     0
 95
        8
 96
        4
 40
0.3636363636363638
 40
0.3636363636363638
 40
0.3636363636363638
 40
0.3636363636363638
 40
0.454545454545455
 40
0.454545454545455
 40
0.454545454545455
 40
0.454545454545455
 10
4.901073374806193
 20
0.2790359868732822
 42
1.0
 10
4.901073374806193
 20
0.2275472035840803
 42
1.0
 10
4.903167588993268
 20
0.2042219903969683
 42
1.0
 10
4.921257266712703
 20
0.1719422062030321
 42
1.0
 72
     1
 10
4.921257266712703
 20
0.1719422062030321
 11
4.756247631627414
 21
0.1719422062030321
 72
     4
 94
        3
 73
     1
 74
     0
 95
        8
 96
        4
 40
0.5454545454545459
 40
0.5454545454545459
 40
0.5454545454545459
 40
0.5454545454545459
 40
0.6363636363636367
 40
0.6363636363636367
 40
0.6363636363636367
 40
0.6363636363636367
 10
4.756247631627414
 20
0.1719422062030321
 42
1.0
 10
4.748123524867188
 20
0.1911512052983108
 42
1.0
 10
4.745126632151202
 20
0.2042219903969683
 42
1.0
 10
4.744115632198814
 20
0.2526777738290113
 42
1.0
 72
     1
 10
4.744115632198814
 20
0.2526777738290113
 11
4.744115632198814
 21
0.5315693321219646
 72
     4
 94
        3
 73
     1
 74
     0
 95
        8
 96
        4
 40
0.7272727272727275
 40
0.7272727272727275
 40
0.7272727272727275
 40
0.7272727272727275
 40
0.8181818181818183
 40
0.8181818181818183
 40
0.8181818181818183
 40
0.8181818181818183
 10
4.744115632198814
 20
0.5315693321219646
 42
1.0
 10
4.745126632151202
 20
0.5607439021764385
 42
1.0
 10
4.746137632103589
 20
0.6099940427139229
 42
1.0
 10
4.662730136032026
 20
0.6099940427139229
 42
1.0
 72
     4
 94
        3
 73
     1
 74
     0
 95
        8
 96
        4
 40
0.8181818181818183
 40
0.8181818181818183
 40
0.8181818181818183
 40
0.8181818181818183
 40
0.9090909090909101
 40
0.9090909090909101
 40
0.9090909090909101
 40
0.9090909090909101
 10
4.662730136032026
 20
0.6099940427139229
 42
1.0
 10
4.645579243982674
 20
0.6099940427139229
 42
1.0
 10
4.574195425916222
 20
0.6078998285268448
 42
1.0
 10
4.572173426011472
 20
0.5416793316457796
 42
1.0
 72
     1
 10
4.572173426011472
 20
0.5416793316457796
 11
4.42933357559628
 21
0.5413182602342499
 72
     4
 94
        3
 73
     1
 74
     0
 95
        8
 96
        4
 40
0.0
 40
0.0
 40
0.0
 40
0.0
 40
0.0909090909090909
 40
0.0909090909090909
 40
0.0909090909090909
 40
0.0909090909090909
 10
4.42933357559628
 20
0.5413182602342499
 42
1.0
 10
4.437421575215351
 20
0.6663211829180765
 42
1.0
 10
4.520865178428067
 20
0.7307363227413293
 42
1.0
 10
4.662730136032026
 20
0.7307363227413293
 42
1.0
 72
     4
 94
        3
 73
     1
 74
     0
 95
        8
 96
        4
 40
0.0909090909090909
 40
0.0909090909090909
 40
0.0909090909090909
 40
0.0909090909090909
 40
0.1818181818181819
 40
0.1818181818181819
 40
0.1818181818181819
 40
0.1818181818181819
 10
4.662730136032026
 20
0.7307363227413293
 42
1.0
 10
4.721007061858631
 20
0.7307363227413293
 42
1.0
 10
4.782316987542422
 20
0.7226483231222826
 42
1.0
 10
4.829653449598639
 20
0.6884187533058944
 42
1.0
 97
        0
 75
     0
 76
     1
 98
        1
 10
0.0
 20
0.0
  0
HATCH
  5
161
330
A7
100
AcDbEntity
  8
0
  6
Continuous
 62
     1
100
AcDbHatch
 10
0.0
 20
0.0
 30
0.0
210
0.0
220
0.0
230
1.0
  2
SOLID
 70
     1
 71
     0
 91
        1
 92
        0
 93
       14
 72
     4
 94
        3
 73
     1
 74
     0
 95
        8
 96
        4
 40
0.3571428571428568
 40
0.3571428571428568
 40
0.3571428571428568
 40
0.3571428571428568
 40
0.4285714285714288
 40
0.4285714285714288
 40
0.4285714285714288
 40
0.4285714285714288
 10
5.112155722007223
 20
0.5749701157921066
 42
1.0
 10
5.112155722007223
 20
0.5478175456423812
 42
1.0
 10
5.132159078207917
 20
0.541823760210419
 42
1.0
 10
5.17945943312296
 20
0.5288251893940517
 42
1.0
 72
     1
 10
5.17945943312296
 20
0.5288251893940517
 11
5.260158893607784
 21
0.5109160473803965
 72
     4
 94
        3
 73
     1
 74
     0
 95
        8
 96
        4
 40
0.5
 40
0.5
 40
0.5
 40
0.5
 40
0.5714285714285712
 40
0.5714285714285712
 40
0.5714285714285712
 40
0.5714285714285712
 10
5.260158893607784
 20
0.5109160473803965
 42
1.0
 10
5.329773461757551
 20
0.494812262424626
 42
1.0
 10
5.446760599104657
 20
0.4696816921796885
 42
1.0
 10
5.446760599104657
 20
0.3383239126522652
 42
1.0
 72
     4
 94
        3
 73
     1
 74
     0
 95
        8
 96
        4
 40
0.5714285714285712
 40
0.5714285714285712
 40
0.5714285714285712
 40
0.5714285714285712
 40
0.6428571428571423
 40
0.6428571428571423
 40
0.6428571428571423
 40
0.6428571428571423
 10
5.446760599104657
 20
0.3383239126522652
 42
1.0
 10
5.446760599104657
 20
0.2700814158664645
 42
1.0
 10
5.412458815005992
 20
0.2146930613323655
 42
1.0
 10
5.343855246808602
 20
0.1834964913731101
 42
1.0
 72
     4
 94
        3
 73
     1
 74
     0
 95
        8
 96
        4
 40
0.6428571428571423
 40
0.6428571428571423
 40
0.6428571428571423
 40
0.6428571428571423
 40
0.7142857142857135
 40
0.7142857142857135
 40
0.7142857142857135
 40
0.7142857142857135
 10
5.343855246808602
 20
0.1834964913731101
 42
1.0
 10
5.289369570803398
 20
0.1583659211281989
 42
1.0
 10
5.230984323553323
 20
0.1573549211757951
 42
1.0
 10
5.207731324648514
 20
0.1573549211757951
 42
1.0
 72
     1
 10
5.207731324648514
 20
0.1573549211757951
 11
5.207731324648514
 21
0.2721034157712066
 72
     4
 94
        3
 73
     1
 74
     0
 95
        8
 96
        4
 40
0.7857142857142847
 40
0.7857142857142847
 40
0.7857142857142847
 40
0.7857142857142847
 40
0.8571428571428577
 40
0.8571428571428577
 40
0.8571428571428577
 40
0.8571428571428577
 10
5.207731324648514
 20
0.2721034157712066
 42
1.0
 10
5.228890109366239
 20
0.2730422014412873
 42
1.0
 10
5.288394677992181
 20
0.2780972012031883
 42
1.0
 10
5.288394677992181
 20
0.3241699133189202
 42
1.0
 72
     4
 94
        3
 73
     1
 74
     0
 95
        8
 96
        4
 40
0.8571428571428577
 40
0.8571428571428577
 40
0.8571428571428577
 40
0.8571428571428577
 40
0.9285714285714288
 40
0.9285714285714288
 40
0.9285714285714288
 40
0.9285714285714288
 10
5.288394677992181
 20
0.3241699133189202
 42
1.0
 10
5.288394677992181
 20
0.3573162689005946
 42
1.0
 10
5.254092893893466
 20
0.3673540541421129
 42
1.0
 10
5.218852324124724
 20
0.37645305371357
 42
1.0
 72
     1
 10
5.218852324124724
 20
0.37645305371357
 11
5.117138507486805
 21
0.401511409676178
 72
     4
 94
        3
 73
     1
 74
     0
 95
        8
 96
        4
 40
0.0
 40
0.0
 40
0.0
 40
0.0
 40
0.0714285714285714
 40
0.0714285714285714
 40
0.0714285714285714
 40
0.0714285714285714
 10
5.117138507486805
 20
0.401511409676178
 42
1.0
 10
5.054925903274125
 20
0.4184817660197261
 42
1.0
 10
4.963647050430452
 20
0.4436123362646833
 42
1.0
 10
4.963647050430452
 20
0.5599495450709906
 42
1.0
 72
     4
 94
        3
 73
     1
 74
     0
 95
        8
 96
        4
 40
0.0714285714285714
 40
0.0714285714285714
 40
0.0714285714285714
 40
0.0714285714285714
 40
0.1428571428571428
 40
0.1428571428571428
 40
0.1428571428571428
 40
0.1428571428571428
 10
4.963647050430452
 20
0.5599495450709906
 42
1.0
 10
4.963647050430452
 20
0.5879686866084411
 42
1.0
 10
4.96866594305122
 20
0.6321638273840113
 42
1.0
 10
5.003798191396503
 20
0.6703290755864515
 42
1.0
 72
     4
 94
        3
 73
     1
 74
     0
 95
        8
 96
        4
 40
0.1428571428571428
 40
0.1428571428571428
 40
0.1428571428571428
 40
0.1428571428571428
 40
0.2142857142857144
 40
0.2142857142857144
 40
0.2142857142857144
 40
0.2142857142857144
 10
5.003798191396503
 20
0.6703290755864515
 42
1.0
 10
5.056947903178896
 20
0.7266201086494501
 42
1.0
 10
5.134253292395013
 20
0.7306280013178579
 42
1.0
 10
5.17945943312296
 20
0.7336248940338619
 42
1.0
 72
     1
 10
5.17945943312296
 20
0.7336248940338619
 11
5.17945943312296
 21
0.6201040422377445
 72
     4
 94
        3
 73
     1
 74
     0
 95
        8
 96
        4
 40
0.2857142857142856
 40
0.2857142857142856
 40
0.2857142857142856
 40
0.2857142857142856
 40
0.3571428571428568
 40
0.3571428571428568
 40
0.3571428571428568
 40
0.3571428571428568
 10
5.17945943312296
 20
0.6201040422377445
 42
1.0
 10
5.146276970400124
 20
0.6180820423329828
 42
1.0
 10
5.112155722007223
 20
0.6090552570438421
 42
1.0
 10
5.112155722007223
 20
0.5749701157921066
 42
1.0
 97
        0
 75
     0
 76
     1
 98
        1
 10
0.0
 20
0.0
  0
INSERT
  5
21D
330
A7
100
AcDbEntity
  8
0
  6
Continuous
 62
     7
100
AcDbBlockReference
  2
Block16_1
 10
0.0
 20
0.0233057873
 30
0.0
  0
ENDBLK
  5
A9
330
A7
100
AcDbEntity
  8
0
100
AcDbBlockEnd
  0
BLOCK
  5
163
330
162
100
AcDbEntity
  8
0
100
AcDbBlockBegin
  2
Block17_1_1_1_1
 70
     0
 10
0.0
 20
0.0
 30
0.0
  3
Block17_1_1_1_1
  1

  0
LINE
  5
165
330
162
100
AcDbEntity
  8
0
  6
Continuous
 62
     1
370
     0
100
AcDbLine
 10
4.9461711941
 20
0.3583272689
 30
0.0
 11
5.0950409371
 21
0.3633100543
 31
0.0
  0
LINE
  5
166
330
162
100
AcDbEntity
  8
0
  6
Continuous
 62
     1
370
     0
100
AcDbLine
 10
5.1805787545
 20
0.2740532014
 30
0.0
 11
5.1805787545
 21
0.1573549212
 31
0.0
  0
LINE
  5
167
330
162
100
AcDbEntity
  8
0
  6
Continuous
 62
     1
370
     0
100
AcDbLine
 10
5.1794594331
 20
0.733624894
 30
0.0
 11
5.1794594331
 21
0.6201040422
 31
0.0
  0
LINE
  5
168
330
162
100
AcDbEntity
  8
0
  6
Continuous
 62
     1
370
     0
100
AcDbLine
 10
5.1794594331
 20
0.5288251894
 30
0.0
 11
5.2601588936
 21
0.5109160474
 31
0.0
  0
LINE
  5
169
330
162
100
AcDbEntity
  8
0
  6
Continuous
 62
     1
370
     0
100
AcDbLine
 10
5.2077313246
 20
0.1573549212
 30
0.0
 11
5.2077313246
 21
0.2721034158
 31
0.0
  0
LINE
  5
16A
330
162
100
AcDbEntity
  8
0
  6
Continuous
 62
     1
370
     0
100
AcDbLine
 10
5.2188523241
 20
0.3764530537
 30
0.0
 11
5.1171385075
 21
0.4015114097
 31
0.0
  0
LINE
  5
16B
330
162
100
AcDbEntity
  8
0
  6
Continuous
 62
     1
370
     0
100
AcDbLine
 10
5.2075868961
 20
0.6190930423
 30
0.0
 11
5.2075868961
 21
0.733624894
 31
0.0
  0
LINE
  5
16C
330
162
100
AcDbEntity
  8
0
  6
Continuous
 62
     1
370
     0
100
AcDbLine
 10
5.4308373499
 20
0.5488285456
 30
0.0
 11
5.2839173925
 21
0.5408849745
 31
0.0
  0
LINE
  5
16D
330
162
100
AcDbEntity
  8
0
  6
Continuous
 62
     1
370
     0
100
AcDbLine
 10
4.2397349774
 20
0.3825912677
 30
0.0
 11
4.3926487202
 21
0.3753698395
 31
0.0
  0
LINE
  5
16E
330
162
100
AcDbEntity
  8
0
  6
Continuous
 62
     1
370
     0
100
AcDbLine
 10
4.1512363744
 20
0.1572104926
 30
0.0
 11
4.1512363744
 21
0.2896514864
 31
0.0
  0
LINE
  5
16F
330
162
100
AcDbEntity
  8
0
  6
Continuous
 62
     1
370
     0
100
AcDbLine
 10
4.1512363744
 20
0.6078276142
 30
0.0
 11
4.1512363744
 21
0.733624894
 31
0.0
  0
LINE
  5
170
330
162
100
AcDbEntity
  8
0
  6
Continuous
 62
     1
370
     0
100
AcDbLine
 10
4.3886769347
 20
0.5298361893
 30
0.0
 11
4.2367380847
 21
0.5217481897
 31
0.0
  0
LINE
  5
171
330
162
100
AcDbEntity
  8
0
  6
Continuous
 62
     1
370
     0
100
AcDbLine
 10
4.7210070619
 20
0.5255755467
 30
0.0
 11
4.7210070619
 21
0.4191316946
 31
0.0
  0
LINE
  5
172
330
162
100
AcDbEntity
  8
0
  6
Continuous
 62
     1
370
     0
100
AcDbLine
 10
4.9010733748
 20
0.5140934758
 30
0.0
 11
4.9010733748
 21
0.2790359869
 31
0.0
  0
LINE
  5
173
330
162
100
AcDbEntity
  8
0
  6
Continuous
 62
     1
370
     0
100
AcDbLine
 10
4.9212572667
 20
0.1719422062
 30
0.0
 11
4.7562476316
 21
0.1719422062
 31
0.0
  0
LINE
  5
174
330
162
100
AcDbEntity
  8
0
  6
Continuous
 62
     1
370
     0
100
AcDbLine
 10
4.7441156322
 20
0.2526777738
 30
0.0
 11
4.7441156322
 21
0.5315693321
 31
0.0
  0
LINE
  5
175
330
162
100
AcDbEntity
  8
0
  6
Continuous
 62
     1
370
     0
100
AcDbLine
 10
4.572173426
 20
0.5416793316
 30
0.0
 11
4.4293335756
 21
0.5413182602
 31
0.0
  0
LINE
  5
176
330
162
100
AcDbEntity
  8
0
  6
Continuous
 62
     1
370
     0
100
AcDbLine
 10
4.1250225899
 20
0.733624894
 30
0.0
 11
4.1250225899
 21
0.6081886857
 31
0.0
  0
LINE
  5
177
330
162
100
AcDbEntity
  8
0
  6
Continuous
 62
     1
370
     0
100
AcDbLine
 10
4.1250225899
 20
0.2896514864
 30
0.0
 11
4.1250225899
 21
0.1572104926
 31
0.0
  0
LINE
  5
178
330
162
100
AcDbEntity
  8
0
  6
Continuous
 62
     1
370
     0
100
AcDbLine
 10
6.0142926438
 20
0.3989116955
 30
0.0
 11
5.6581318034
 21
0.3989116955
 31
0.0
  0
LINE
  5
179
330
162
100
AcDbEntity
  8
0
  6
Continuous
 62
     1
370
     0
100
AcDbLine
 10
5.6581318034
 20
0.5166209757
 30
0.0
 11
5.8512689015
 21
0.5166209757
 31
0.0
  0
LINE
  5
17A
330
162
100
AcDbEntity
  8
0
  6
Continuous
 62
     1
370
     0
100
AcDbLine
 10
5.8512689015
 20
0.3417179839
 30
0.0
 11
6.0082266441
 21
0.3305969844
 31
0.0
  0
LINE
  5
17B
330
162
100
AcDbEntity
  8
0
  6
Continuous
 62
   179
370
     0
100
AcDbLine
 10
2.0625826871
 20
0.1717255633
 30
0.0
 11
2.0625826871
 21
0.8821335656
 31
0.0
  0
LINE
  5
17C
330
162
100
AcDbEntity
  8
0
  6
Continuous
 62
   179
370
     0
100
AcDbLine
 10
2.2169046084
 20
0.1717255633
 30
0.0
 11
2.0625826871
 21
0.1717255633
 31
0.0
  0
LINE
  5
17D
330
162
100
AcDbEntity
  8
0
  6
Continuous
 62
   179
370
     0
100
AcDbLine
 10
2.2169046084
 20
0.8821335656
 30
0.0
 11
2.2169046084
 21
0.1717255633
 31
0.0
  0
LINE
  5
17E
330
162
100
AcDbEntity
  8
0
  6
Continuous
 62
   179
370
     0
100
AcDbLine
 10
2.0625826871
 20
0.8821335656
 30
0.0
 11
2.2169046084
 21
0.8821335656
 31
0.0
  0
LINE
  5
17F
330
162
100
AcDbEntity
  8
0
  6
Continuous
 62
   179
370
     0
100
AcDbLine
 10
1.654445617
 20
0.0
 30
0.0
 11
1.4986974636
 21
0.0
 31
0.0
  0
LINE
  5
180
330
162
100
AcDbEntity
  8
0
  6
Continuous
 62
   179
370
     0
100
AcDbLine
 10
1.4986974636
 20
0.7161490377
 30
0.0
 11
1.654445617
 21
0.7161490377
 31
0.0
  0
LINE
  5
181
330
162
100
AcDbEntity
  8
0
  6
Continuous
 62
   179
370
     0
100
AcDbLine
 10
1.4986974636
 20
0.0
 30
0.0
 11
1.4986974636
 21
0.7161490377
 31
0.0
  0
LINE
  5
182
330
162
100
AcDbEntity
  8
0
  6
Continuous
 62
   179
370
     0
100
AcDbLine
 10
1.654445617
 20
0.7161490377
 30
0.0
 11
1.654445617
 21
0.0
 31
0.0
  0
LINE
  5
183
330
162
100
AcDbEntity
  8
0
  6
Continuous
 62
   179
370
     0
100
AcDbLine
 10
1.6804788658
 20
0.1851574199
 30
0.0
 11
1.6804788658
 21
0.3157930566
 31
0.0
  0
LINE
  5
184
330
162
100
AcDbEntity
  8
0
  6
Continuous
 62
   179
370
     0
100
AcDbLine
 10
1.6804788658
 20
0.5766310443
 30
0.0
 11
1.6804788658
 21
0.6982398957
 31
0.0
  0
LINE
  5
185
330
162
100
AcDbEntity
  8
0
  6
Continuous
 62
   179
370
     0
100
AcDbLine
 10
2.7600101721
 20
0.5140934758
 30
0.0
 11
2.7600101721
 21
0.2790359869
 31
0.0
  0
LINE
  5
186
330
162
100
AcDbEntity
  8
0
  6
Continuous
 62
   179
370
     0
100
AcDbLine
 10
2.7801399033
 20
0.1719422062
 30
0.0
 11
2.6151663753
 21
0.1719422062
 31
0.0
  0
LINE
  5
187
330
162
100
AcDbEntity
  8
0
  6
Continuous
 62
   179
370
     0
100
AcDbLine
 10
2.6030885366
 20
0.2526777738
 30
0.0
 11
2.6030885366
 21
0.5315693321
 31
0.0
  0
LINE
  5
188
330
162
100
AcDbEntity
  8
0
  6
Continuous
 62
   179
370
     0
100
AcDbLine
 10
2.4311282769
 20
0.5416793316
 30
0.0
 11
2.2882703729
 21
0.5413182602
 31
0.0
  0
LINE
  5
189
330
162
100
AcDbEntity
  8
0
  6
Continuous
 62
   179
370
     0
100
AcDbLine
 10
3.0383420697
 20
0.733624894
 30
0.0
 11
3.0383420697
 21
0.6201040422
 31
0.0
  0
LINE
  5
18A
330
162
100
AcDbEntity
  8
0
  6
Continuous
 62
   179
370
     0
100
AcDbLine
 10
3.0383420697
 20
0.5288251894
 30
0.0
 11
3.1190415302
 21
0.5109160474
 31
0.0
  0
LINE
  5
18B
330
162
100
AcDbEntity
  8
0
  6
Continuous
 62
   179
370
     0
100
AcDbLine
 10
3.0666320148
 20
0.1573549212
 30
0.0
 11
3.0666320148
 21
0.2721034158
 31
0.0
  0
LINE
  5
18C
330
162
100
AcDbEntity
  8
0
  6
Continuous
 62
   179
370
     0
100
AcDbLine
 10
3.0777710678
 20
0.3764530537
 30
0.0
 11
2.976021144
 21
0.4015114097
 31
0.0
  0
LINE
  5
18D
330
162
100
AcDbEntity
  8
0
  6
Continuous
 62
   179
370
     0
100
AcDbLine
 10
3.0664514791
 20
0.6190930423
 30
0.0
 11
3.0664514791
 21
0.733624894
 31
0.0
  0
LINE
  5
18E
330
162
100
AcDbEntity
  8
0
  6
Continuous
 62
   179
370
     0
100
AcDbLine
 10
3.2897199864
 20
0.5488285456
 30
0.0
 11
3.1429083505
 21
0.5408849745
 31
0.0
  0
LINE
  5
18F
330
162
100
AcDbEntity
  8
0
  6
Continuous
 62
   179
370
     0
100
AcDbLine
 10
3.8166676045
 20
0.1717255633
 30
0.0
 11
3.6609375047
 21
0.1717255633
 31
0.0
  0
LINE
  5
190
330
162
100
AcDbEntity
  8
0
  6
Continuous
 62
   179
370
     0
100
AcDbLine
 10
3.8166676045
 20
0.7161490377
 30
0.0
 11
3.8166676045
 21
0.1717255633
 31
0.0
  0
LINE
  5
191
330
162
100
AcDbEntity
  8
0
  6
Continuous
 62
   179
370
     0
100
AcDbLine
 10
3.6609375047
 20
0.7161490377
 30
0.0
 11
3.8166676045
 21
0.7161490377
 31
0.0
  0
LINE
  5
192
330
162
100
AcDbEntity
  8
0
  6
Continuous
 62
   179
370
     0
100
AcDbLine
 10
3.6609375047
 20
0.1717255633
 30
0.0
 11
3.6609375047
 21
0.7161490377
 31
0.0
  0
LINE
  5
193
330
162
100
AcDbEntity
  8
0
  6
Continuous
 62
   179
370
     0
100
AcDbLine
 10
3.8166676045
 20
0.7440237507
 30
0.0
 11
3.6609375047
 21
0.7440237507
 31
0.0
  0
LINE
  5
194
330
162
100
AcDbEntity
  8
0
  6
Continuous
 62
   179
370
     0
100
AcDbLine
 10
3.8166676045
 20
0.881989137
 30
0.0
 11
3.8166676045
 21
0.7440237507
 31
0.0
  0
LINE
  5
195
330
162
100
AcDbEntity
  8
0
  6
Continuous
 62
   179
370
     0
100
AcDbLine
 10
3.6609375047
 20
0.881989137
 30
0.0
 11
3.8166676045
 21
0.881989137
 31
0.0
  0
LINE
  5
196
330
162
100
AcDbEntity
  8
0
  6
Continuous
 62
   179
370
     0
100
AcDbLine
 10
3.6609375047
 20
0.7440237507
 30
0.0
 11
3.6609375047
 21
0.881989137
 31
0.0
  0
LINE
  5
197
330
162
100
AcDbEntity
  8
0
  6
Continuous
 62
   179
370
     0
100
AcDbLine
 10
3.3022130573
 20
0.5997396146
 30
0.0
 11
3.3022130573
 21
0.7161490377
 31
0.0
  0
LINE
  5
198
330
162
100
AcDbEntity
  8
0
  6
Continuous
 62
   179
370
     0
100
AcDbLine
 10
3.3022130573
 20
0.7161490377
 30
0.0
 11
3.3776769823
 21
0.7161490377
 31
0.0
  0
LINE
  5
199
330
162
100
AcDbEntity
  8
0
  6
Continuous
 62
   179
370
     0
100
AcDbLine
 10
3.3776769823
 20
0.7161490377
 30
0.0
 11
3.3776769823
 21
0.8147937474
 31
0.0
  0
LINE
  5
19A
330
162
100
AcDbEntity
  8
0
  6
Continuous
 62
   179
370
     0
100
AcDbLine
 10
3.3776769823
 20
0.8147937474
 30
0.0
 11
3.5334431892
 21
0.8147937474
 31
0.0
  0
LINE
  5
19B
330
162
100
AcDbEntity
  8
0
  6
Continuous
 62
   179
370
     0
100
AcDbLine
 10
3.5334431892
 20
0.8147937474
 30
0.0
 11
3.5334431892
 21
0.7161490377
 31
0.0
  0
LINE
  5
19C
330
162
100
AcDbEntity
  8
0
  6
Continuous
 62
   179
370
     0
100
AcDbLine
 10
3.5334431892
 20
0.7161490377
 30
0.0
 11
3.6360596844
 21
0.7161490377
 31
0.0
  0
LINE
  5
19D
330
162
100
AcDbEntity
  8
0
  6
Continuous
 62
   179
370
     0
100
AcDbLine
 10
3.6360596844
 20
0.7161490377
 30
0.0
 11
3.6360596844
 21
0.5997396146
 31
0.0
  0
LINE
  5
19E
330
162
100
AcDbEntity
  8
0
  6
Continuous
 62
   179
370
     0
100
AcDbLine
 10
3.6360596844
 20
0.5997396146
 30
0.0
 11
3.5334431892
 21
0.5997396146
 31
0.0
  0
LINE
  5
19F
330
162
100
AcDbEntity
  8
0
  6
Continuous
 62
   179
370
     0
100
AcDbLine
 10
3.5334431892
 20
0.5997396146
 30
0.0
 11
3.5334431892
 21
0.3739255538
 31
0.0
  0
LINE
  5
1A0
330
162
100
AcDbEntity
  8
0
  6
Continuous
 62
   179
370
     0
100
AcDbLine
 10
3.6360596844
 20
0.2945620576
 30
0.0
 11
3.6360596844
 21
0.1743974918
 31
0.0
  0
LINE
  5
1A1
330
162
100
AcDbEntity
  8
0
  6
Continuous
 62
   179
370
     0
100
AcDbLine
 10
3.3776769823
 20
0.3186816279
 30
0.0
 11
3.3776769823
 21
0.5997396146
 31
0.0
  0
LINE
  5
1A2
330
162
100
AcDbEntity
  8
0
  6
Continuous
 62
   179
370
     0
100
AcDbLine
 10
3.3776769823
 20
0.5997396146
 30
0.0
 11
3.3022130573
 21
0.5997396146
 31
0.0
  0
LINE
  5
1A3
330
162
100
AcDbEntity
  8
0
  6
Continuous
 62
   179
370
     0
100
AcDbLine
 10
2.8050899378
 20
0.3583272689
 30
0.0
 11
2.9539235737
 21
0.3633100543
 31
0.0
  0
LINE
  5
1A4
330
162
100
AcDbEntity
  8
0
  6
Continuous
 62
   179
370
     0
100
AcDbLine
 10
3.0394433375
 20
0.2740532014
 30
0.0
 11
3.0394433375
 21
0.1573549212
 31
0.0
  0
LINE
  5
1A5
330
162
100
AcDbEntity
  8
0
  6
Continuous
 62
   179
370
     0
100
AcDbLine
 10
2.5799438591
 20
0.5255755467
 30
0.0
 11
2.5799438591
 21
0.4191316946
 31
0.0
  0
SPLINE
  5
1A6
330
162
100
AcDbEntity
  8
0
  6
Continuous
 62
     1
370
     0
100
AcDbSpline
210
0.0
220
0.0
230
1.0
 70
     8
 71
     3
 72
     8
 73
     4
 74
     0
 42
0.000000001
 43
0.00000001
 40
0.0
 40
0.0
 40
0.0
 40
0.0
 40
0.25
 40
0.25
 40
0.25
 40
0.25
 10
5.180578754498822
 20
0.1573549211757951
 30
0.0
 10
5.014485905178835
 20
0.1703534919921427
 30
0.0
 10
4.954186979447416
 20
0.2418456314820648
 30
0.0
 10
4.946171194110682
 20
0.3583272688529591
 30
0.0
  0
SPLINE
  5
1A7
330
162
100
AcDbEntity
  8
0
  6
Continuous
 62
     1
370
     0
100
AcDbSpline
210
0.0
220
0.0
230
1.0
 70
     8
 71
     3
 72
     8
 73
     4
 74
     0
 42
0.000000001
 43
0.00000001
 40
0.5
 40
0.5
 40
0.5
 40
0.5
 40
0.75
 40
0.75
 40
0.75
 40
0.75
 10
5.09504093709902
 20
0.3633100543325764
 30
0.0
 10
5.103056722435767
 20
0.3162263422644931
 30
0.0
 10
5.113130614818432
 20
0.2871239864923159
 30
0.0
 10
5.180578754498822
 20
0.2740532013936781
 30
0.0
  0
SPLINE
  5
1A8
330
162
100
AcDbEntity
  8
0
  6
Continuous
 62
     1
370
     0
100
AcDbSpline
210
0.0
220
0.0
230
1.0
 70
     8
 71
     3
 72
     8
 73
     4
 74
     0
 42
0.000000001
 43
0.00000001
 40
0.0
 40
0.0
 40
0.0
 40
0.0
 40
0.0714285714285714
 40
0.0714285714285714
 40
0.0714285714285714
 40
0.0714285714285714
 10
5.117138507486805
 20
0.401511409676178
 30
0.0
 10
5.054925903274125
 20
0.4184817660197261
 30
0.0
 10
4.963647050430452
 20
0.4436123362646833
 30
0.0
 10
4.963647050430452
 20
0.5599495450709906
 30
0.0
  0
SPLINE
  5
1A9
330
162
100
AcDbEntity
  8
0
  6
Continuous
 62
     1
370
     0
100
AcDbSpline
210
0.0
220
0.0
230
1.0
 70
     8
 71
     3
 72
     8
 73
     4
 74
     0
 42
0.000000001
 43
0.00000001
 40
0.0714285714285714
 40
0.0714285714285714
 40
0.0714285714285714
 40
0.0714285714285714
 40
0.1428571428571428
 40
0.1428571428571428
 40
0.1428571428571428
 40
0.1428571428571428
 10
4.963647050430452
 20
0.5599495450709906
 30
0.0
 10
4.963647050430452
 20
0.5879686866084411
 30
0.0
 10
4.96866594305122
 20
0.6321638273840113
 30
0.0
 10
5.003798191396503
 20
0.6703290755864515
 30
0.0
  0
SPLINE
  5
1AA
330
162
100
AcDbEntity
  8
0
  6
Continuous
 62
     1
370
     0
100
AcDbSpline
210
0.0
220
0.0
230
1.0
 70
     8
 71
     3
 72
     8
 73
     4
 74
     0
 42
0.000000001
 43
0.00000001
 40
0.1428571428571428
 40
0.1428571428571428
 40
0.1428571428571428
 40
0.1428571428571428
 40
0.2142857142857144
 40
0.2142857142857144
 40
0.2142857142857144
 40
0.2142857142857144
 10
5.003798191396503
 20
0.6703290755864515
 30
0.0
 10
5.056947903178896
 20
0.7266201086494501
 30
0.0
 10
5.134253292395013
 20
0.7306280013178579
 30
0.0
 10
5.17945943312296
 20
0.7336248940338619
 30
0.0
  0
SPLINE
  5
1AB
330
162
100
AcDbEntity
  8
0
  6
Continuous
 62
     1
370
     0
100
AcDbSpline
210
0.0
220
0.0
230
1.0
 70
     8
 71
     3
 72
     8
 73
     4
 74
     0
 42
0.000000001
 43
0.00000001
 40
0.2857142857142856
 40
0.2857142857142856
 40
0.2857142857142856
 40
0.2857142857142856
 40
0.3571428571428568
 40
0.3571428571428568
 40
0.3571428571428568
 40
0.3571428571428568
 10
5.17945943312296
 20
0.6201040422377445
 30
0.0
 10
5.146276970400124
 20
0.6180820423329828
 30
0.0
 10
5.112155722007223
 20
0.6090552570438421
 30
0.0
 10
5.112155722007223
 20
0.5749701157921066
 30
0.0
  0
SPLINE
  5
1AC
330
162
100
AcDbEntity
  8
0
  6
Continuous
 62
     1
370
     0
100
AcDbSpline
210
0.0
220
0.0
230
1.0
 70
     8
 71
     3
 72
     8
 73
     4
 74
     0
 42
0.000000001
 43
0.00000001
 40
0.3571428571428568
 40
0.3571428571428568
 40
0.3571428571428568
 40
0.3571428571428568
 40
0.4285714285714288
 40
0.4285714285714288
 40
0.4285714285714288
 40
0.4285714285714288
 10
5.112155722007223
 20
0.5749701157921066
 30
0.0
 10
5.112155722007223
 20
0.5478175456423812
 30
0.0
 10
5.132159078207917
 20
0.541823760210419
 30
0.0
 10
5.17945943312296
 20
0.5288251893940517
 30
0.0
  0
SPLINE
  5
1AD
330
162
100
AcDbEntity
  8
0
  6
Continuous
 62
     1
370
     0
100
AcDbSpline
210
0.0
220
0.0
230
1.0
 70
     8
 71
     3
 72
     8
 73
     4
 74
     0
 42
0.000000001
 43
0.00000001
 40
0.5
 40
0.5
 40
0.5
 40
0.5
 40
0.5714285714285712
 40
0.5714285714285712
 40
0.5714285714285712
 40
0.5714285714285712
 10
5.260158893607784
 20
0.5109160473803965
 30
0.0
 10
5.329773461757551
 20
0.494812262424626
 30
0.0
 10
5.446760599104657
 20
0.4696816921796885
 30
0.0
 10
5.446760599104657
 20
0.3383239126522652
 30
0.0
  0
SPLINE
  5
1AE
330
162
100
AcDbEntity
  8
0
  6
Continuous
 62
     1
370
     0
100
AcDbSpline
210
0.0
220
0.0
230
1.0
 70
     8
 71
     3
 72
     8
 73
     4
 74
     0
 42
0.000000001
 43
0.00000001
 40
0.5714285714285712
 40
0.5714285714285712
 40
0.5714285714285712
 40
0.5714285714285712
 40
0.6428571428571423
 40
0.6428571428571423
 40
0.6428571428571423
 40
0.6428571428571423
 10
5.446760599104657
 20
0.3383239126522652
 30
0.0
 10
5.446760599104657
 20
0.2700814158664645
 30
0.0
 10
5.412458815005992
 20
0.2146930613323655
 30
0.0
 10
5.343855246808602
 20
0.1834964913731101
 30
0.0
  0
SPLINE
  5
1AF
330
162
100
AcDbEntity
  8
0
  6
Continuous
 62
     1
370
     0
100
AcDbSpline
210
0.0
220
0.0
230
1.0
 70
     8
 71
     3
 72
     8
 73
     4
 74
     0
 42
0.000000001
 43
0.00000001
 40
0.6428571428571423
 40
0.6428571428571423
 40
0.6428571428571423
 40
0.6428571428571423
 40
0.7142857142857135
 40
0.7142857142857135
 40
0.7142857142857135
 40
0.7142857142857135
 10
5.343855246808602
 20
0.1834964913731101
 30
0.0
 10
5.289369570803398
 20
0.1583659211281989
 30
0.0
 10
5.230984323553323
 20
0.1573549211757951
 30
0.0
 10
5.207731324648514
 20
0.1573549211757951
 30
0.0
  0
SPLINE
  5
1B0
330
162
100
AcDbEntity
  8
0
  6
Continuous
 62
     1
370
     0
100
AcDbSpline
210
0.0
220
0.0
230
1.0
 70
     8
 71
     3
 72
     8
 73
     4
 74
     0
 42
0.000000001
 43
0.00000001
 40
0.7857142857142847
 40
0.7857142857142847
 40
0.7857142857142847
 40
0.7857142857142847
 40
0.8571428571428577
 40
0.8571428571428577
 40
0.8571428571428577
 40
0.8571428571428577
 10
5.207731324648514
 20
0.2721034157712066
 30
0.0
 10
5.228890109366239
 20
0.2730422014412873
 30
0.0
 10
5.288394677992181
 20
0.2780972012031883
 30
0.0
 10
5.288394677992181
 20
0.3241699133189202
 30
0.0
  0
SPLINE
  5
1B1
330
162
100
AcDbEntity
  8
0
  6
Continuous
 62
     1
370
     0
100
AcDbSpline
210
0.0
220
0.0
230
1.0
 70
     8
 71
     3
 72
     8
 73
     4
 74
     0
 42
0.000000001
 43
0.00000001
 40
0.8571428571428577
 40
0.8571428571428577
 40
0.8571428571428577
 40
0.8571428571428577
 40
0.9285714285714288
 40
0.9285714285714288
 40
0.9285714285714288
 40
0.9285714285714288
 10
5.288394677992181
 20
0.3241699133189202
 30
0.0
 10
5.288394677992181
 20
0.3573162689005946
 30
0.0
 10
5.254092893893466
 20
0.3673540541421129
 30
0.0
 10
5.218852324124724
 20
0.37645305371357
 30
0.0
  0
SPLINE
  5
1B2
330
162
100
AcDbEntity
  8
0
  6
Continuous
 62
     1
370
     0
100
AcDbSpline
210
0.0
220
0.0
230
1.0
 70
     8
 71
     3
 72
     8
 73
     4
 74
     0
 42
0.000000001
 43
0.00000001
 40
0.0
 40
0.0
 40
0.0
 40
0.0
 40
0.2
 40
0.2
 40
0.2
 40
0.2
 10
5.283917392488752
 20
0.5408849745403448
 30
0.0
 10
5.281895392583991
 20
0.6071054714213968
 30
0.0
 10
5.228673466519274
 20
0.6151212567581469
 30
0.0
 10
5.207586896083892
 20
0.6190930422853866
 30
0.0
  0
SPLINE
  5
1B3
330
162
100
AcDbEntity
  8
0
  6
Continuous
 62
     1
370
     0
100
AcDbSpline
210
0.0
220
0.0
230
1.0
 70
     8
 71
     3
 72
     8
 73
     4
 74
     0
 42
0.000000001
 43
0.00000001
 40
0.3999999999999999
 40
0.3999999999999999
 40
0.3999999999999999
 40
0.3999999999999999
 40
0.5999999999999996
 40
0.5999999999999996
 40
0.5999999999999996
 40
0.5999999999999996
 10
5.207586896083892
 20
0.7336248940338619
 30
0.0
 10
5.269907821720027
 20
0.7306280013178579
 30
0.0
 10
5.330206747451427
 20
0.7155352163144124
 30
0.0
 10
5.374510209650465
 20
0.6743008611136913
 30
0.0
  0
SPLINE
  5
1B4
330
162
100
AcDbEntity
  8
0
  6
Continuous
 62
     1
370
     0
100
AcDbSpline
210
0.0
220
0.0
230
1.0
 70
     8
 71
     3
 72
     8
 73
     4
 74
     0
 42
0.000000001
 43
0.00000001
 40
0.5999999999999996
 40
0.5999999999999996
 40
0.5999999999999996
 40
0.5999999999999996
 40
0.7999999999999998
 40
0.7999999999999998
 40
0.7999999999999998
 40
0.7999999999999998
 10
5.374510209650465
 20
0.6743008611136913
 30
0.0
 10
5.416719457662442
 20
0.6341858272887928
 30
0.0
 10
5.426829457186272
 20
0.5899906865132225
 30
0.0
 10
5.430837349854645
 20
0.5488285455947849
 30
0.0
  0
SPLINE
  5
1B5
330
162
100
AcDbEntity
  8
0
  6
Continuous
 62
     1
370
     0
100
AcDbSpline
210
0.0
220
0.0
230
1.0
 70
     8
 71
     3
 72
     8
 73
     4
 74
     0
 42
0.000000001
 43
0.00000001
 40
0.0
 40
0.0
 40
0.0
 40
0.0
 40
0.25
 40
0.25
 40
0.25
 40
0.25
 10
4.151236374408762
 20
0.2896514863733057
 30
0.0
 10
4.208538407424164
 20
0.2987504859447235
 30
0.0
 10
4.228722299330665
 20
0.3290804845162014
 30
0.0
 10
4.239734977383403
 20
0.3825912677101519
 30
0.0
  0
SPLINE
  5
1B6
330
162
100
AcDbEntity
  8
0
  6
Continuous
 62
     1
370
     0
100
AcDbSpline
210
0.0
220
0.0
230
1.0
 70
     8
 71
     3
 72
     8
 73
     4
 74
     0
 42
0.000000001
 43
0.00000001
 40
0.5
 40
0.5
 40
0.5
 40
0.5
 40
0.75
 40
0.75
 40
0.75
 40
0.75
 10
4.392648720181261
 20
0.3753698394788629
 30
0.0
 10
4.379577935082613
 20
0.2753530584753017
 30
0.0
 10
4.314260116730467
 20
0.165298492230209
 30
0.0
 10
4.151236374408762
 20
0.1572104926111753
 30
0.0
  0
SPLINE
  5
1B7
330
162
100
AcDbEntity
  8
0
  6
Continuous
 62
     1
370
     0
100
AcDbSpline
210
0.0
220
0.0
230
1.0
 70
     8
 71
     3
 72
     8
 73
     4
 74
     0
 42
0.000000001
 43
0.00000001
 40
0.0
 40
0.0
 40
0.0
 40
0.0
 40
0.2
 40
0.2
 40
0.2
 40
0.2
 10
4.236738084667419
 20
0.5217481897274021
 30
0.0
 10
4.223631192427588
 20
0.5867771509502823
 30
0.0
 10
4.191459729657151
 20
0.599811828907785
 30
0.0
 10
4.151236374408762
 20
0.6078276142445349
 30
0.0
  0
SPLINE
  5
1B8
330
162
100
AcDbEntity
  8
0
  6
Continuous
 62
     1
370
     0
100
AcDbSpline
210
0.0
220
0.0
230
1.0
 70
     8
 71
     3
 72
     8
 73
     4
 74
     0
 42
0.000000001
 43
0.00000001
 40
0.3999999999999999
 40
0.3999999999999999
 40
0.3999999999999999
 40
0.3999999999999999
 40
0.5999999999999996
 40
0.5999999999999996
 40
0.5999999999999996
 40
0.5999999999999996
 10
4.151236374408762
 20
0.7336248940338619
 30
0.0
 10
4.237749084619803
 20
0.7316390012702355
 30
0.0
 10
4.288046332250823
 20
0.6987092885354775
 30
0.0
 10
4.315235009541685
 20
0.6746980396664021
 30
0.0
  0
SPLINE
  5
1B9
330
162
100
AcDbEntity
  8
0
  6
Continuous
 62
     1
370
     0
100
AcDbSpline
210
0.0
220
0.0
230
1.0
 70
     8
 71
     3
 72
     8
 73
     4
 74
     0
 42
0.000000001
 43
0.00000001
 40
0.5999999999999996
 40
0.5999999999999996
 40
0.5999999999999996
 40
0.5999999999999996
 40
0.7999999999999998
 40
0.7999999999999998
 40
0.7999999999999998
 40
0.7999999999999998
 10
4.315235009541685
 20
0.6746980396664021
 30
0.0
 10
4.37358414965062
 20
0.622703756401018
 30
0.0
 10
4.382647042080912
 20
0.5647879019859358
 30
0.0
 10
4.388676934654031
 20
0.5298361893464489
 30
0.0
  0
SPLINE
  5
1BA
330
162
100
AcDbEntity
  8
0
  6
Continuous
 62
     1
370
     0
100
AcDbSpline
210
0.0
220
0.0
230
1.0
 70
     8
 71
     3
 72
     8
 73
     4
 74
     0
 42
0.000000001
 43
0.00000001
 40
0.0
 40
0.0
 40
0.0
 40
0.0
 40
0.0909090909090909
 40
0.0909090909090909
 40
0.0909090909090909
 40
0.0909090909090909
 10
4.721007061858631
 20
0.4191316945605543
 30
0.0
 10
4.706925276807587
 20
0.4150154804687407
 30
0.0
 10
4.638610565739469
 20
0.4020169096523668
 30
0.0
 10
4.622506780783656
 20
0.3979729098428237
 30
0.0
  0
SPLINE
  5
1BB
330
162
100
AcDbEntity
  8
0
  6
Continuous
 62
     1
370
     0
100
AcDbSpline
210
0.0
220
0.0
230
1.0
 70
     8
 71
     3
 72
     8
 73
     4
 74
     0
 42
0.000000001
 43
0.00000001
 40
0.0909090909090909
 40
0.0909090909090909
 40
0.0909090909090909
 40
0.0909090909090909
 40
0.1818181818181819
 40
0.1818181818181819
 40
0.1818181818181819
 40
0.1818181818181819
 10
4.622506780783656
 20
0.3979729098428237
 30
0.0
 10
4.579250425678143
 20
0.3859131246965634
 30
0.0
 10
4.556069641055672
 20
0.368798339788376
 30
0.0
 10
4.556069641055672
 20
0.3347131985366076
 30
0.0
  0
SPLINE
  5
1BC
330
162
100
AcDbEntity
  8
0
  6
Continuous
 62
     1
370
     0
100
AcDbSpline
210
0.0
220
0.0
230
1.0
 70
     8
 71
     3
 72
     8
 73
     4
 74
     0
 42
0.000000001
 43
0.00000001
 40
0.1818181818181819
 40
0.1818181818181819
 40
0.1818181818181819
 40
0.1818181818181819
 40
0.2727272727272729
 40
0.2727272727272729
 40
0.2727272727272729
 40
0.2727272727272729
 10
4.556069641055672
 20
0.3347131985366076
 30
0.0
 10
4.556069641055672
 20
0.3005558430025491
 30
0.0
 10
4.583258318346529
 20
0.2764362727100219
 30
0.0
 10
4.628500566215641
 20
0.2764362727100219
 30
0.0
  0
SPLINE
  5
1BD
330
162
100
AcDbEntity
  8
0
  6
Continuous
 62
     1
370
     0
100
AcDbSpline
210
0.0
220
0.0
230
1.0
 70
     8
 71
     3
 72
     8
 73
     4
 74
     0
 42
0.000000001
 43
0.00000001
 40
0.2727272727272729
 40
0.2727272727272729
 40
0.2727272727272729
 40
0.2727272727272729
 40
0.3636363636363638
 40
0.3636363636363638
 40
0.3636363636363638
 40
0.3636363636363638
 10
4.628500566215641
 20
0.2764362727100219
 30
0.0
 10
4.648576136698662
 20
0.2764362727100219
 30
0.0
 10
4.685838706372192
 20
0.2804802725195322
 30
0.0
 10
4.721007061858631
 20
0.3065496284345374
 30
0.0
  0
SPLINE
  5
1BE
330
162
100
AcDbEntity
  8
0
  6
Continuous
 62
     1
370
     0
100
AcDbSpline
210
0.0
220
0.0
230
1.0
 70
     8
 71
     3
 72
     8
 73
     4
 74
     0
 42
0.000000001
 43
0.00000001
 40
0.3636363636363638
 40
0.3636363636363638
 40
0.3636363636363638
 40
0.3636363636363638
 40
0.454545454545455
 40
0.454545454545455
 40
0.454545454545455
 40
0.454545454545455
 10
4.721007061858631
 20
0.3065496284345374
 30
0.0
 10
4.719021169095031
 20
0.2884238435739723
 30
0.0
 10
4.718046276283802
 20
0.2713812729480816
 30
0.0
 10
4.718046276283802
 20
0.2542664880398941
 30
0.0
  0
SPLINE
  5
1BF
330
162
100
AcDbEntity
  8
0
  6
Continuous
 62
     1
370
     0
100
AcDbSpline
210
0.0
220
0.0
230
1.0
 70
     8
 71
     3
 72
     8
 73
     4
 74
     0
 42
0.000000001
 43
0.00000001
 40
0.454545454545455
 40
0.454545454545455
 40
0.454545454545455
 40
0.454545454545455
 40
0.5454545454545459
 40
0.5454545454545459
 40
0.5454545454545459
 40
0.5454545454545459
 10
4.718046276283802
 20
0.2542664880398941
 30
0.0
 10
4.718046276283802
 20
0.2451674884684697
 30
0.0
 10
4.721007061858631
 20
0.2018389190806245
 30
0.0
 10
4.721007061858631
 20
0.1927399195091674
 30
0.0
  0
SPLINE
  5
1C0
330
162
100
AcDbEntity
  8
0
  6
Continuous
 62
     1
370
     0
100
AcDbSpline
210
0.0
220
0.0
230
1.0
 70
     8
 71
     3
 72
     8
 73
     4
 74
     0
 42
0.000000001
 43
0.00000001
 40
0.5454545454545459
 40
0.5454545454545459
 40
0.5454545454545459
 40
0.5454545454545459
 40
0.6363636363636367
 40
0.6363636363636367
 40
0.6363636363636367
 40
0.6363636363636367
 10
4.721007061858631
 20
0.1927399195091674
 30
0.0
 10
4.673778921225919
 20
0.1544663498832821
 30
0.0
 10
4.60235899601834
 20
0.1544663498832821
 30
0.0
 10
4.587266211014894
 20
0.1544663498832821
 30
0.0
  0
SPLINE
  5
1C1
330
162
100
AcDbEntity
  8
0
  6
Continuous
 62
     1
370
     0
100
AcDbSpline
210
0.0
220
0.0
230
1.0
 70
     8
 71
     3
 72
     8
 73
     4
 74
     0
 42
0.000000001
 43
0.00000001
 40
0.6363636363636367
 40
0.6363636363636367
 40
0.6363636363636367
 40
0.6363636363636367
 40
0.7272727272727275
 40
0.7272727272727275
 40
0.7272727272727275
 40
0.7272727272727275
 10
4.587266211014894
 20
0.1544663498832821
 30
0.0
 10
4.484649715848079
 20
0.1544663498832821
 30
0.0
 10
4.399148005589441
 20
0.2179427040364344
 30
0.0
 10
4.399148005589441
 20
0.3296581987747197
 30
0.0
  0
SPLINE
  5
1C2
330
162
100
AcDbEntity
  8
0
  6
Continuous
 62
     1
370
     0
100
AcDbSpline
210
0.0
220
0.0
230
1.0
 70
     8
 71
     3
 72
     8
 73
     4
 74
     0
 42
0.000000001
 43
0.00000001
 40
0.7272727272727275
 40
0.7272727272727275
 40
0.7272727272727275
 40
0.7272727272727275
 40
0.8181818181818183
 40
0.8181818181818183
 40
0.8181818181818183
 40
0.8181818181818183
 10
4.399148005589441
 20
0.3296581987747197
 30
0.0
 10
4.399148005589441
 20
0.4581996212919072
 30
0.0
 10
4.506855607659324
 20
0.4843411914892419
 30
0.0
 10
4.558163855242751
 20
0.4954621909654345
 30
0.0
  0
SPLINE
  5
1C3
330
162
100
AcDbEntity
  8
0
  6
Continuous
 62
     1
370
     0
100
AcDbSpline
210
0.0
220
0.0
230
1.0
 70
     8
 71
     3
 72
     8
 73
     4
 74
     0
 42
0.000000001
 43
0.00000001
 40
0.8181818181818183
 40
0.8181818181818183
 40
0.8181818181818183
 40
0.8181818181818183
 40
0.9090909090909101
 40
0.9090909090909101
 40
0.9090909090909101
 40
0.9090909090909101
 10
4.558163855242751
 20
0.4954621909654345
 30
0.0
 10
4.580261425630515
 20
0.5004449764450322
 30
0.0
 10
4.694901598802476
 20
0.5195817612579748
 30
0.0
 10
4.721007061858631
 20
0.5255755466899696
 30
0.0
  0
SPLINE
  5
1C4
330
162
100
AcDbEntity
  8
0
  6
Continuous
 62
     1
370
     0
100
AcDbSpline
210
0.0
220
0.0
230
1.0
 70
     8
 71
     3
 72
     8
 73
     4
 74
     0
 42
0.000000001
 43
0.00000001
 40
0.0
 40
0.0
 40
0.0
 40
0.0
 40
0.0909090909090909
 40
0.0909090909090909
 40
0.0909090909090909
 40
0.0909090909090909
 10
4.42933357559628
 20
0.5413182602342499
 30
0.0
 10
4.437421575215351
 20
0.6663211829180765
 30
0.0
 10
4.520865178428067
 20
0.7307363227413293
 30
0.0
 10
4.662730136032026
 20
0.7307363227413293
 30
0.0
  0
SPLINE
  5
1C5
330
162
100
AcDbEntity
  8
0
  6
Continuous
 62
     1
370
     0
100
AcDbSpline
210
0.0
220
0.0
230
1.0
 70
     8
 71
     3
 72
     8
 73
     4
 74
     0
 42
0.000000001
 43
0.00000001
 40
0.0909090909090909
 40
0.0909090909090909
 40
0.0909090909090909
 40
0.0909090909090909
 40
0.1818181818181819
 40
0.1818181818181819
 40
0.1818181818181819
 40
0.1818181818181819
 10
4.662730136032026
 20
0.7307363227413293
 30
0.0
 10
4.721007061858631
 20
0.7307363227413293
 30
0.0
 10
4.782316987542422
 20
0.7226483231222826
 30
0.0
 10
4.829653449598639
 20
0.6884187533058944
 30
0.0
  0
SPLINE
  5
1C6
330
162
100
AcDbEntity
  8
0
  6
Continuous
 62
     1
370
     0
100
AcDbSpline
210
0.0
220
0.0
230
1.0
 70
     8
 71
     3
 72
     8
 73
     4
 74
     0
 42
0.000000001
 43
0.00000001
 40
0.1818181818181819
 40
0.1818181818181819
 40
0.1818181818181819
 40
0.1818181818181819
 40
0.2727272727272729
 40
0.2727272727272729
 40
0.2727272727272729
 40
0.2727272727272729
 10
4.829653449598639
 20
0.6884187533058944
 30
0.0
 10
4.897065482137817
 20
0.641118398390816
 30
0.0
 10
4.899087482042598
 20
0.5746090443805506
 30
0.0
 10
4.901073374806193
 20
0.514093475802208
 30
0.0
  0
SPLINE
  5
1C7
330
162
100
AcDbEntity
  8
0
  6
Continuous
 62
     1
370
     0
100
AcDbSpline
210
0.0
220
0.0
230
1.0
 70
     8
 71
     3
 72
     8
 73
     4
 74
     0
 42
0.000000001
 43
0.00000001
 40
0.3636363636363638
 40
0.3636363636363638
 40
0.3636363636363638
 40
0.3636363636363638
 40
0.454545454545455
 40
0.454545454545455
 40
0.454545454545455
 40
0.454545454545455
 10
4.901073374806193
 20
0.2790359868732822
 30
0.0
 10
4.901073374806193
 20
0.2275472035840803
 30
0.0
 10
4.903167588993268
 20
0.2042219903969683
 30
0.0
 10
4.921257266712703
 20
0.1719422062030321
 30
0.0
  0
SPLINE
  5
1C8
330
162
100
AcDbEntity
  8
0
  6
Continuous
 62
     1
370
     0
100
AcDbSpline
210
0.0
220
0.0
230
1.0
 70
     8
 71
     3
 72
     8
 73
     4
 74
     0
 42
0.000000001
 43
0.00000001
 40
0.5454545454545459
 40
0.5454545454545459
 40
0.5454545454545459
 40
0.5454545454545459
 40
0.6363636363636367
 40
0.6363636363636367
 40
0.6363636363636367
 40
0.6363636363636367
 10
4.756247631627414
 20
0.1719422062030321
 30
0.0
 10
4.748123524867188
 20
0.1911512052983108
 30
0.0
 10
4.745126632151202
 20
0.2042219903969683
 30
0.0
 10
4.744115632198814
 20
0.2526777738290113
 30
0.0
  0
SPLINE
  5
1C9
330
162
100
AcDbEntity
  8
0
  6
Continuous
 62
     1
370
     0
100
AcDbSpline
210
0.0
220
0.0
230
1.0
 70
     8
 71
     3
 72
     8
 73
     4
 74
     0
 42
0.000000001
 43
0.00000001
 40
0.7272727272727275
 40
0.7272727272727275
 40
0.7272727272727275
 40
0.7272727272727275
 40
0.8181818181818183
 40
0.8181818181818183
 40
0.8181818181818183
 40
0.8181818181818183
 10
4.744115632198814
 20
0.5315693321219646
 30
0.0
 10
4.745126632151202
 20
0.5607439021764385
 30
0.0
 10
4.746137632103589
 20
0.6099940427139229
 30
0.0
 10
4.662730136032026
 20
0.6099940427139229
 30
0.0
  0
SPLINE
  5
1CA
330
162
100
AcDbEntity
  8
0
  6
Continuous
 62
     1
370
     0
100
AcDbSpline
210
0.0
220
0.0
230
1.0
 70
     8
 71
     3
 72
     8
 73
     4
 74
     0
 42
0.000000001
 43
0.00000001
 40
0.8181818181818183
 40
0.8181818181818183
 40
0.8181818181818183
 40
0.8181818181818183
 40
0.9090909090909101
 40
0.9090909090909101
 40
0.9090909090909101
 40
0.9090909090909101
 10
4.662730136032026
 20
0.6099940427139229
 30
0.0
 10
4.645579243982674
 20
0.6099940427139229
 30
0.0
 10
4.574195425916222
 20
0.6078998285268448
 30
0.0
 10
4.572173426011472
 20
0.5416793316457796
 30
0.0
  0
SPLINE
  5
1CB
330
162
100
AcDbEntity
  8
0
  6
Continuous
 62
     1
370
     0
100
AcDbSpline
210
0.0
220
0.0
230
1.0
 70
     8
 71
     3
 72
     8
 73
     4
 74
     0
 42
0.000000001
 43
0.00000001
 40
0.0
 40
0.0
 40
0.0
 40
0.0
 40
0.1428571428571429
 40
0.1428571428571429
 40
0.1428571428571429
 40
0.1428571428571429
 10
4.125022589929156
 20
0.1572104926111753
 30
0.0
 10
3.929682956272354
 20
0.1632042780431571
 30
0.0
 10
3.865159495025667
 20
0.3097992711386259
 30
0.0
 10
3.865159495025667
 20
0.443034622006178
 30
0.0
  0
SPLINE
  5
1CC
330
162
100
AcDbEntity
  8
0
  6
Continuous
 62
     1
370
     0
100
AcDbSpline
210
0.0
220
0.0
230
1.0
 70
     8
 71
     3
 72
     8
 73
     4
 74
     0
 42
0.000000001
 43
0.00000001
 40
0.1428571428571429
 40
0.1428571428571429
 40
0.1428571428571429
 40
0.1428571428571429
 40
0.2857142857142858
 40
0.2857142857142858
 40
0.2857142857142858
 40
0.2857142857142858
 10
3.865159495025667
 20
0.443034622006178
 30
0.0
 10
3.865159495025667
 20
0.6482676123398213
 30
0.0
 10
4.001247310044594
 20
0.7296531085066221
 30
0.0
 10
4.125022589929156
 20
0.7336248940338619
 30
0.0
  0
SPLINE
  5
1CD
330
162
100
AcDbEntity
  8
0
  6
Continuous
 62
     1
370
     0
100
AcDbSpline
210
0.0
220
0.0
230
1.0
 70
     8
 71
     3
 72
     8
 73
     4
 74
     0
 42
0.000000001
 43
0.00000001
 40
0.4285714285714288
 40
0.4285714285714288
 40
0.4285714285714288
 40
0.4285714285714288
 40
0.5714285714285716
 40
0.5714285714285716
 40
0.5714285714285716
 40
0.5714285714285716
 10
4.125022589929156
 20
0.6081886856560974
 30
0.0
 10
4.036487879813358
 20
0.5940707934638811
 30
0.0
 10
4.026486201712983
 20
0.5005171907273814
 30
0.0
 10
4.026486201712983
 20
0.4471508360980244
 30
0.0
  0
SPLINE
  5
1CE
330
162
100
AcDbEntity
  8
0
  6
Continuous
 62
     1
370
     0
100
AcDbSpline
210
0.0
220
0.0
230
1.0
 70
     8
 71
     3
 72
     8
 73
     4
 74
     0
 42
0.000000001
 43
0.00000001
 40
0.5714285714285716
 40
0.5714285714285716
 40
0.5714285714285716
 40
0.5714285714285716
 40
0.7142857142857144
 40
0.7142857142857144
 40
0.7142857142857144
 40
0.7142857142857144
 10
4.026486201712983
 20
0.4471508360980244
 30
0.0
 10
4.026486201712983
 20
0.4228146229584955
 30
0.0
 10
4.027461094524216
 20
0.3683650540945036
 30
0.0
 10
4.056563450296348
 20
0.3300192701862757
 30
0.0
  0
SPLINE
  5
1CF
330
162
100
AcDbEntity
  8
0
  6
Continuous
 62
     1
370
     0
100
AcDbSpline
210
0.0
220
0.0
230
1.0
 70
     8
 71
     3
 72
     8
 73
     4
 74
     0
 42
0.000000001
 43
0.00000001
 40
0.7142857142857144
 40
0.7142857142857144
 40
0.7142857142857144
 40
0.7142857142857144
 40
0.8571428571428577
 40
0.8571428571428577
 40
0.8571428571428577
 40
0.8571428571428577
 10
4.056563450296348
 20
0.3300192701862757
 30
0.0
 10
4.079816449201186
 20
0.2997614858971011
 30
0.0
 10
4.107907805020956
 20
0.2926844862304188
 30
0.0
 10
4.125022589929156
 20
0.2896514863733057
 30
0.0
  0
SPLINE
  5
1D0
330
162
100
AcDbEntity
  8
0
  6
Continuous
 62
     1
370
     0
100
AcDbSpline
210
0.0
220
0.0
230
1.0
 70
     8
 71
     3
 72
     8
 73
     4
 74
     0
 42
0.000000001
 43
0.00000001
 40
0.0
 40
0.0
 40
0.0
 40
0.0
 40
0.0625
 40
0.0625
 40
0.0625
 40
0.0625
 10
6.008226644088531
 20
0.3305969844447874
 30
0.0
 10
6.001221858704182
 20
0.3125434138665191
 30
0.0
 10
5.989089859275584
 20
0.2814190581895736
 30
0.0
 10
5.960890182032337
 20
0.2473339169378315
 30
0.0
  0
SPLINE
  5
1D1
330
162
100
AcDbEntity
  8
0
  6
Continuous
 62
     1
370
     0
100
AcDbSpline
210
0.0
220
0.0
230
1.0
 70
     8
 71
     3
 72
     8
 73
     4
 74
     0
 42
0.000000001
 43
0.00000001
 40
0.0625
 40
0.0625
 40
0.0625
 40
0.0625
 40
0.125
 40
0.125
 40
0.125
 40
0.125
 10
5.960890182032337
 20
0.2473339169378315
 30
0.0
 10
5.908570934496544
 20
0.185157419866329
 30
0.0
 10
5.828124223999819
 20
0.1572104926111753
 30
0.0
 10
5.746666513550692
 20
0.1572104926111753
 30
0.0
  0
SPLINE
  5
1D2
330
162
100
AcDbEntity
  8
0
  6
Continuous
 62
     1
370
     0
100
AcDbSpline
210
0.0
220
0.0
230
1.0
 70
     8
 71
     3
 72
     8
 73
     4
 74
     0
 42
0.000000001
 43
0.00000001
 40
0.125
 40
0.125
 40
0.125
 40
0.125
 40
0.1875
 40
0.1875
 40
0.1875
 40
0.1875
 10
5.746666513550692
 20
0.1572104926111753
 30
0.0
 10
5.561509093700091
 20
0.1572104926111753
 30
0.0
 10
5.467955490963533
 20
0.288351629291669
 30
0.0
 10
5.467955490963533
 20
0.442240264900717
 30
0.0
  0
SPLINE
  5
1D3
330
162
100
AcDbEntity
  8
0
  6
Continuous
 62
     1
370
     0
100
AcDbSpline
210
0.0
220
0.0
230
1.0
 70
     8
 71
     3
 72
     8
 73
     4
 74
     0
 42
0.000000001
 43
0.00000001
 40
0.1875
 40
0.1875
 40
0.1875
 40
0.1875
 40
0.25
 40
0.25
 40
0.25
 40
0.25
 10
5.467955490963533
 20
0.442240264900717
 30
0.0
 10
5.467955490963533
 20
0.6115105426424762
 30
0.0
 10
5.581584664183096
 20
0.7335526797515455
 30
0.0
 10
5.748616299173166
 20
0.7335526797515455
 30
0.0
  0
SPLINE
  5
1D4
330
162
100
AcDbEntity
  8
0
  6
Continuous
 62
     1
370
     0
100
AcDbSpline
210
0.0
220
0.0
230
1.0
 70
     8
 71
     3
 72
     8
 73
     4
 74
     0
 42
0.000000001
 43
0.00000001
 40
0.25
 40
0.25
 40
0.25
 40
0.25
 40
0.3125
 40
0.3125
 40
0.3125
 40
0.3125
 10
5.748616299173166
 20
0.7335526797515455
 30
0.0
 10
5.844264116096784
 20
0.7335526797515455
 30
0.0
 10
5.911676148636021
 20
0.6911628960337679
 30
0.0
 10
5.950888503931994
 20
0.6377243271221339
 30
0.0
  0
SPLINE
  5
1D5
330
162
100
AcDbEntity
  8
0
  6
Continuous
 62
     1
370
     0
100
AcDbSpline
210
0.0
220
0.0
230
1.0
 70
     8
 71
     3
 72
     8
 73
     4
 74
     0
 42
0.000000001
 43
0.00000001
 40
0.3125
 40
0.3125
 40
0.3125
 40
0.3125
 40
0.375
 40
0.375
 40
0.375
 40
0.375
 10
5.950888503931994
 20
0.6377243271221339
 30
0.0
 10
5.999199858799414
 20
0.5741035444043487
 30
0.0
 10
6.014292643802839
 20
0.4854244057239294
 30
0.0
 10
6.014292643802839
 20
0.3989116955129046
 30
0.0
  0
SPLINE
  5
1D6
330
162
100
AcDbEntity
  8
0
  6
Continuous
 62
     1
370
     0
100
AcDbSpline
210
0.0
220
0.0
230
1.0
 70
     8
 71
     3
 72
     8
 73
     4
 74
     0
 42
0.000000001
 43
0.00000001
 40
0.4375
 40
0.4375
 40
0.4375
 40
0.4375
 40
0.5
 40
0.5
 40
0.5
 40
0.5
 10
5.658131803434944
 20
0.3989116955129046
 30
0.0
 10
5.654015589343065
 20
0.4169652660911794
 30
0.0
 10
5.65300458939068
 20
0.432130265376902
 30
0.0
 10
5.651993589438336
 20
0.4552388357170974
 30
0.0
  0
SPLINE
  5
1D7
330
162
100
AcDbEntity
  8
0
  6
Continuous
 62
     1
370
     0
100
AcDbSpline
210
0.0
220
0.0
230
1.0
 70
     8
 71
     3
 72
     8
 73
     4
 74
     0
 42
0.000000001
 43
0.00000001
 40
0.5
 40
0.5
 40
0.5
 40
0.5
 40
0.5625
 40
0.5625
 40
0.5625
 40
0.5625
 10
5.651993589438336
 20
0.4552388357170974
 30
0.0
 10
5.651993589438336
 20
0.4774808346694892
 30
0.0
 10
5.65300458939068
 20
0.4955344052477444
 30
0.0
 10
5.658131803434944
 20
0.516620975683152
 30
0.0
  0
SPLINE
  5
1D8
330
162
100
AcDbEntity
  8
0
  6
Continuous
 62
     1
370
     0
100
AcDbSpline
210
0.0
220
0.0
230
1.0
 70
     8
 71
     3
 72
     8
 73
     4
 74
     0
 42
0.000000001
 43
0.00000001
 40
0.625
 40
0.625
 40
0.625
 40
0.625
 40
0.6875
 40
0.6875
 40
0.6875
 40
0.6875
 10
5.851268901481157
 20
0.516620975683152
 30
0.0
 10
5.846250008860384
 20
0.5449289743498617
 30
0.0
 10
5.836140009336554
 20
0.5630547592104594
 30
0.0
 10
5.829135223952192
 20
0.5730925444519318
 30
0.0
  0
SPLINE
  5
1D9
330
162
100
AcDbEntity
  8
0
  6
Continuous
 62
     1
370
     0
100
AcDbSpline
210
0.0
220
0.0
230
1.0
 70
     8
 71
     3
 72
     8
 73
     4
 74
     0
 42
0.000000001
 43
0.00000001
 40
0.6875
 40
0.6875
 40
0.6875
 40
0.6875
 40
0.75
 40
0.75
 40
0.75
 40
0.75
 10
5.829135223952192
 20
0.5730925444519318
 30
0.0
 10
5.811045546232786
 20
0.5973565433091509
 30
0.0
 10
5.779848976273548
 20
0.6115105426424762
 30
0.0
 10
5.746666513550692
 20
0.6115105426424762
 30
0.0
  0
SPLINE
  5
1DA
330
162
100
AcDbEntity
  8
0
  6
Continuous
 62
     1
370
     0
100
AcDbSpline
210
0.0
220
0.0
230
1.0
 70
     8
 71
     3
 72
     8
 73
     4
 74
     0
 42
0.000000001
 43
0.00000001
 40
0.75
 40
0.75
 40
0.75
 40
0.75
 40
0.8125
 40
0.8125
 40
0.8125
 40
0.8125
 10
5.746666513550692
 20
0.6115105426424762
 30
0.0
 10
5.689328373394157
 20
0.6115105426424762
 30
0.0
 10
5.624913233570929
 20
0.5751145443567263
 30
0.0
 10
5.624913233570929
 20
0.4511948359075478
 30
0.0
  0
SPLINE
  5
1DB
330
162
100
AcDbEntity
  8
0
  6
Continuous
 62
     1
370
     0
100
AcDbSpline
210
0.0
220
0.0
230
1.0
 70
     8
 71
     3
 72
     8
 73
     4
 74
     0
 42
0.000000001
 43
0.00000001
 40
0.8125
 40
0.8125
 40
0.8125
 40
0.8125
 40
0.875
 40
0.875
 40
0.875
 40
0.875
 10
5.624913233570929
 20
0.4511948359075478
 30
0.0
 10
5.624913233570929
 20
0.3737811252679801
 30
0.0
 10
5.65300458939068
 20
0.282430058141984
 30
0.0
 10
5.750638299077935
 20
0.282430058141984
 30
0.0
  0
SPLINE
  5
1DC
330
162
100
AcDbEntity
  8
0
  6
Continuous
 62
     1
370
     0
100
AcDbSpline
210
0.0
220
0.0
230
1.0
 70
     8
 71
     3
 72
     8
 73
     4
 74
     0
 42
0.000000001
 43
0.00000001
 40
0.875
 40
0.875
 40
0.875
 40
0.875
 40
0.9375
 40
0.9375
 40
0.9375
 40
0.9375
 10
5.750638299077935
 20
0.282430058141984
 30
0.0
 10
5.821047224333126
 20
0.282430058141984
 30
0.0
 10
5.844264116096784
 20
0.3275639845876285
 30
0.0
 10
5.851268901481157
 20
0.3417179839209932
 30
0.0
  0
SPLINE
  5
1DD
330
162
100
AcDbEntity
  8
0
  6
Continuous
 62
   179
370
     0
100
AcDbSpline
210
0.0
220
0.0
230
1.0
 70
     8
 71
     3
 72
     8
 73
     4
 74
     0
 42
0.000000001
 43
0.00000001
 40
0.0
 40
0.0
 40
0.0
 40
0.0
 40
0.1
 40
0.1
 40
0.1
 40
0.1
 10
1.680478865779957
 20
0.6982398957004503
 30
0.0
 10
1.71156711431571
 20
0.723442680227678
 30
0.0
 10
1.75166409457001
 20
0.7335526797515455
 30
0.0
 10
1.791706914112603
 20
0.7335526797515455
 30
0.0
  0
SPLINE
  5
1DE
330
162
100
AcDbEntity
  8
0
  6
Continuous
 62
   179
370
     0
100
AcDbSpline
210
0.0
220
0.0
230
1.0
 70
     8
 71
     3
 72
     8
 73
     4
 74
     0
 42
0.000000001
 43
0.00000001
 40
0.1
 40
0.1
 40
0.1
 40
0.1
 40
0.2
 40
0.2
 40
0.2
 40
0.2
 10
1.791706914112603
 20
0.7335526797515455
 30
0.0
 10
1.929473711195286
 20
0.7335526797515455
 30
0.0
 10
2.01822506415801
 20
0.6177209709214203
 30
0.0
 10
2.01822506415801
 20
0.4461398361456272
 30
0.0
  0
SPLINE
  5
1DF
330
162
100
AcDbEntity
  8
0
  6
Continuous
 62
   179
370
     0
100
AcDbSpline
210
0.0
220
0.0
230
1.0
 70
     8
 71
     3
 72
     8
 73
     4
 74
     0
 42
0.000000001
 43
0.00000001
 40
0.2
 40
0.2
 40
0.2
 40
0.2
 40
0.2999999999999998
 40
0.2999999999999998
 40
0.2999999999999998
 40
0.2999999999999998
 10
2.01822506415801
 20
0.4461398361456272
 30
0.0
 10
2.01822506415801
 20
0.2615601305535191
 30
0.0
 10
1.908260765765849
 20
0.1600990639036883
 30
0.0
 10
1.784684075157651
 20
0.1600990639036883
 30
0.0
  0
SPLINE
  5
1E0
330
162
100
AcDbEntity
  8
0
  6
Continuous
 62
   179
370
     0
100
AcDbSpline
210
0.0
220
0.0
230
1.0
 70
     8
 71
     3
 72
     8
 73
     4
 74
     0
 42
0.000000001
 43
0.00000001
 40
0.2999999999999998
 40
0.2999999999999998
 40
0.2999999999999998
 40
0.2999999999999998
 40
0.3999999999999999
 40
0.3999999999999999
 40
0.3999999999999999
 40
0.3999999999999999
 10
1.784684075157651
 20
0.1600990639036883
 30
0.0
 10
1.731606577657553
 20
0.1600990639036883
 30
0.0
 10
1.696528490024017
 20
0.1772138488118758
 30
0.0
 10
1.680478865779957
 20
0.185157419866329
 30
0.0
  0
SPLINE
  5
1E1
330
162
100
AcDbEntity
  8
0
  6
Continuous
 62
   179
370
     0
100
AcDbSpline
210
0.0
220
0.0
230
1.0
 70
     8
 71
     3
 72
     8
 73
     4
 74
     0
 42
0.000000001
 43
0.00000001
 40
0.5
 40
0.5
 40
0.5
 40
0.5
 40
0.5999999999999996
 40
0.5999999999999996
 40
0.5999999999999996
 40
0.5999999999999996
 10
1.680478865779957
 20
0.3157930565706077
 30
0.0
 10
1.692538650926222
 20
0.3047442713767184
 30
0.0
 10
1.708588275170282
 20
0.2896514863733057
 30
0.0
 10
1.747638148331067
 20
0.2896514863733057
 30
0.0
  0
SPLINE
  5
1E2
330
162
100
AcDbEntity
  8
0
  6
Continuous
 62
   179
370
     0
100
AcDbSpline
210
0.0
220
0.0
230
1.0
 70
     8
 71
     3
 72
     8
 73
     4
 74
     0
 42
0.000000001
 43
0.00000001
 40
0.5999999999999996
 40
0.5999999999999996
 40
0.5999999999999996
 40
0.5999999999999996
 40
0.7000000000000002
 40
0.7000000000000002
 40
0.7000000000000002
 40
0.7000000000000002
 10
1.747638148331067
 20
0.2896514863733057
 30
0.0
 10
1.816765270075221
 20
0.2896514863733057
 30
0.0
 10
1.859841089474947
 20
0.3529111976794956
 30
0.0
 10
1.859841089474947
 20
0.4501116216728472
 30
0.0
  0
SPLINE
  5
1E3
330
162
100
AcDbEntity
  8
0
  6
Continuous
 62
   179
370
     0
100
AcDbSpline
210
0.0
220
0.0
230
1.0
 70
     8
 71
     3
 72
     8
 73
     4
 74
     0
 42
0.000000001
 43
0.00000001
 40
0.7000000000000002
 40
0.7000000000000002
 40
0.7000000000000002
 40
0.7000000000000002
 40
0.7999999999999998
 40
0.7999999999999998
 40
0.7999999999999998
 40
0.7999999999999998
 10
1.859841089474947
 20
0.4501116216728472
 30
0.0
 10
1.859841089474947
 20
0.5444956886560024
 30
0.0
 10
1.822777109077786
 20
0.6057334000574502
 30
0.0
 10
1.754660987286013
 20
0.6057334000574502
 30
0.0
  0
SPLINE
  5
1E4
330
162
100
AcDbEntity
  8
0
  6
Continuous
 62
   179
370
     0
100
AcDbSpline
210
0.0
220
0.0
230
1.0
 70
     8
 71
     3
 72
     8
 73
     4
 74
     0
 42
0.000000001
 43
0.00000001
 40
0.7999999999999998
 40
0.7999999999999998
 40
0.7999999999999998
 40
0.7999999999999998
 40
0.9000000000000004
 40
0.9000000000000004
 40
0.9000000000000004
 40
0.9000000000000004
 10
1.754660987286013
 20
0.6057334000574502
 30
0.0
 10
1.71156711431571
 20
0.6057334000574502
 30
0.0
 10
1.688512704687274
 20
0.584646829622023
 30
0.0
 10
1.680478865779957
 20
0.5766310442853058
 30
0.0
  0
SPLINE
  5
1E5
330
162
100
AcDbEntity
  8
0
  6
Continuous
 62
   179
370
     0
100
AcDbSpline
210
0.0
220
0.0
230
1.0
 70
     8
 71
     3
 72
     8
 73
     4
 74
     0
 42
0.000000001
 43
0.00000001
 40
0.0
 40
0.0
 40
0.0
 40
0.0
 40
0.0909090909090909
 40
0.0909090909090909
 40
0.0909090909090909
 40
0.0909090909090909
 10
2.288270372867611
 20
0.5413182602342499
 30
0.0
 10
2.296322265345536
 20
0.6663211829180765
 30
0.0
 10
2.379820029269962
 20
0.7307363227413293
 30
0.0
 10
2.521630826162205
 20
0.7307363227413293
 30
0.0
  0
SPLINE
  5
1E6
330
162
100
AcDbEntity
  8
0
  6
Continuous
 62
   179
370
     0
100
AcDbSpline
210
0.0
220
0.0
230
1.0
 70
     8
 71
     3
 72
     8
 73
     4
 74
     0
 42
0.000000001
 43
0.00000001
 40
0.0909090909090909
 40
0.0909090909090909
 40
0.0909090909090909
 40
0.0909090909090909
 40
0.1818181818181819
 40
0.1818181818181819
 40
0.1818181818181819
 40
0.1818181818181819
 10
2.521630826162205
 20
0.7307363227413293
 30
0.0
 10
2.579943859129977
 20
0.7307363227413293
 30
0.0
 10
2.641289891954871
 20
0.7226483231222826
 30
0.0
 10
2.68859024686992
 20
0.6884187533058944
 30
0.0
  0
SPLINE
  5
1E7
330
162
100
AcDbEntity
  8
0
  6
Continuous
 62
   179
370
     0
100
AcDbSpline
210
0.0
220
0.0
230
1.0
 70
     8
 71
     3
 72
     8
 73
     4
 74
     0
 42
0.000000001
 43
0.00000001
 40
0.1818181818181819
 40
0.1818181818181819
 40
0.1818181818181819
 40
0.1818181818181819
 40
0.2727272727272729
 40
0.2727272727272729
 40
0.2727272727272729
 40
0.2727272727272729
 10
2.68859024686992
 20
0.6884187533058944
 30
0.0
 10
2.756002279409147
 20
0.641118398390816
 30
0.0
 10
2.758006225743342
 20
0.5746090443805506
 30
0.0
 10
2.760010172077536
 20
0.514093475802208
 30
0.0
  0
SPLINE
  5
1E8
330
162
100
AcDbEntity
  8
0
  6
Continuous
 62
   179
370
     0
100
AcDbSpline
210
0.0
220
0.0
230
1.0
 70
     8
 71
     3
 72
     8
 73
     4
 74
     0
 42
0.000000001
 43
0.00000001
 40
0.3636363636363638
 40
0.3636363636363638
 40
0.3636363636363638
 40
0.3636363636363638
 40
0.454545454545455
 40
0.454545454545455
 40
0.454545454545455
 40
0.454545454545455
 10
2.760010172077536
 20
0.2790359868732822
 30
0.0
 10
2.760010172077536
 20
0.2275472035840803
 30
0.0
 10
2.762050225552859
 20
0.2042219903969683
 30
0.0
 10
2.780139903272285
 20
0.1719422062030321
 30
0.0
  0
SPLINE
  5
1E9
330
162
100
AcDbEntity
  8
0
  6
Continuous
 62
   179
370
     0
100
AcDbSpline
210
0.0
220
0.0
230
1.0
 70
     8
 71
     3
 72
     8
 73
     4
 74
     0
 42
0.000000001
 43
0.00000001
 40
0.5454545454545459
 40
0.5454545454545459
 40
0.5454545454545459
 40
0.5454545454545459
 40
0.6363636363636367
 40
0.6363636363636367
 40
0.6363636363636367
 40
0.6363636363636367
 10
2.615166375328144
 20
0.1719422062030321
 30
0.0
 10
2.607114482850275
 20
0.1911512052983108
 30
0.0
 10
2.604081482993109
 20
0.2042219903969683
 30
0.0
 10
2.603088536611319
 20
0.2526777738290113
 30
0.0
  0
SPLINE
  5
1EA
330
162
100
AcDbEntity
  8
0
  6
Continuous
 62
   179
370
     0
100
AcDbSpline
210
0.0
220
0.0
230
1.0
 70
     8
 71
     3
 72
     8
 73
     4
 74
     0
 42
0.000000001
 43
0.00000001
 40
0.7272727272727275
 40
0.7272727272727275
 40
0.7272727272727275
 40
0.7272727272727275
 40
0.8181818181818183
 40
0.8181818181818183
 40
0.8181818181818183
 40
0.8181818181818183
 10
2.603088536611319
 20
0.5315693321219646
 30
0.0
 10
2.604081482993109
 20
0.5607439021764385
 30
0.0
 10
2.605074429374913
 20
0.6099940427139229
 30
0.0
 10
2.521630826162205
 20
0.6099940427139229
 30
0.0
  0
SPLINE
  5
1EB
330
162
100
AcDbEntity
  8
0
  6
Continuous
 62
   179
370
     0
100
AcDbSpline
210
0.0
220
0.0
230
1.0
 70
     8
 71
     3
 72
     8
 73
     4
 74
     0
 42
0.000000001
 43
0.00000001
 40
0.8181818181818183
 40
0.8181818181818183
 40
0.8181818181818183
 40
0.8181818181818183
 40
0.9090909090909101
 40
0.9090909090909101
 40
0.9090909090909101
 40
0.9090909090909101
 10
2.521630826162205
 20
0.6099940427139229
 30
0.0
 10
2.504534094824611
 20
0.6099940427139229
 30
0.0
 10
2.433114169617009
 20
0.6078998285268448
 30
0.0
 10
2.431128276853366
 20
0.5416793316457796
 30
0.0
  0
SPLINE
  5
1EC
330
162
100
AcDbEntity
  8
0
  6
Continuous
 62
   179
370
     0
100
AcDbSpline
210
0.0
220
0.0
230
1.0
 70
     8
 71
     3
 72
     8
 73
     4
 74
     0
 42
0.000000001
 43
0.00000001
 40
0.0
 40
0.0
 40
0.0
 40
0.0
 40
0.0714285714285714
 40
0.0714285714285714
 40
0.0714285714285714
 40
0.0714285714285714
 10
2.976021144046416
 20
0.401511409676178
 30
0.0
 10
2.913844646974891
 20
0.4184817660197261
 30
0.0
 10
2.82254774056062
 20
0.4436123362646833
 30
0.0
 10
2.82254774056062
 20
0.5599495450709906
 30
0.0
  0
SPLINE
  5
1ED
330
162
100
AcDbEntity
  8
0
  6
Continuous
 62
   179
370
     0
100
AcDbSpline
210
0.0
220
0.0
230
1.0
 70
     8
 71
     3
 72
     8
 73
     4
 74
     0
 42
0.000000001
 43
0.00000001
 40
0.0714285714285714
 40
0.0714285714285714
 40
0.0714285714285714
 40
0.0714285714285714
 40
0.1428571428571428
 40
0.1428571428571428
 40
0.1428571428571428
 40
0.1428571428571428
 10
2.82254774056062
 20
0.5599495450709906
 30
0.0
 10
2.82254774056062
 20
0.5879686866084411
 30
0.0
 10
2.827566633181379
 20
0.6321638273840113
 30
0.0
 10
2.862662774385525
 20
0.6703290755864515
 30
0.0
  0
SPLINE
  5
1EE
330
162
100
AcDbEntity
  8
0
  6
Continuous
 62
   179
370
     0
100
AcDbSpline
210
0.0
220
0.0
230
1.0
 70
     8
 71
     3
 72
     8
 73
     4
 74
     0
 42
0.000000001
 43
0.00000001
 40
0.1428571428571428
 40
0.1428571428571428
 40
0.1428571428571428
 40
0.1428571428571428
 40
0.2142857142857144
 40
0.2142857142857144
 40
0.2142857142857144
 40
0.2142857142857144
 10
2.862662774385525
 20
0.6703290755864515
 30
0.0
 10
2.915848593309055
 20
0.7266201086494501
 30
0.0
 10
2.993135928954584
 20
0.7306280013178579
 30
0.0
 10
3.038342069682548
 20
0.7336248940338619
 30
0.0
  0
SPLINE
  5
1EF
330
162
100
AcDbEntity
  8
0
  6
Continuous
 62
   179
370
     0
100
AcDbSpline
210
0.0
220
0.0
230
1.0
 70
     8
 71
     3
 72
     8
 73
     4
 74
     0
 42
0.000000001
 43
0.00000001
 40
0.2857142857142856
 40
0.2857142857142856
 40
0.2857142857142856
 40
0.2857142857142856
 40
0.3571428571428568
 40
0.3571428571428568
 40
0.3571428571428568
 40
0.3571428571428568
 10
3.038342069682548
 20
0.6201040422377445
 30
0.0
 10
3.00517766053029
 20
0.6180820423329828
 30
0.0
 10
2.971002251425654
 20
0.6090552570438421
 30
0.0
 10
2.971002251425654
 20
0.5749701157921066
 30
0.0
  0
SPLINE
  5
1F0
330
162
100
AcDbEntity
  8
0
  6
Continuous
 62
   179
370
     0
100
AcDbSpline
210
0.0
220
0.0
230
1.0
 70
     8
 71
     3
 72
     8
 73
     4
 74
     0
 42
0.000000001
 43
0.00000001
 40
0.3571428571428568
 40
0.3571428571428568
 40
0.3571428571428568
 40
0.3571428571428568
 40
0.4285714285714288
 40
0.4285714285714288
 40
0.4285714285714288
 40
0.4285714285714288
 10
2.971002251425654
 20
0.5749701157921066
 30
0.0
 10
2.971002251425654
 20
0.5478175456423812
 30
0.0
 10
2.991131982620416
 20
0.541823760210419
 30
0.0
 10
3.038342069682548
 20
0.5288251893940517
 30
0.0
  0
SPLINE
  5
1F1
330
162
100
AcDbEntity
  8
0
  6
Continuous
 62
   179
370
     0
100
AcDbSpline
210
0.0
220
0.0
230
1.0
 70
     8
 71
     3
 72
     8
 73
     4
 74
     0
 42
0.000000001
 43
0.00000001
 40
0.5
 40
0.5
 40
0.5
 40
0.5
 40
0.5714285714285712
 40
0.5714285714285712
 40
0.5714285714285712
 40
0.5714285714285712
 10
3.119041530167374
 20
0.5109160473803965
 30
0.0
 10
3.188619991175976
 20
0.494812262424626
 30
0.0
 10
3.30575155708775
 20
0.4696816921796885
 30
0.0
 10
3.30575155708775
 20
0.3383239126522652
 30
0.0
  0
SPLINE
  5
1F2
330
162
100
AcDbEntity
  8
0
  6
Continuous
 62
   179
370
     0
100
AcDbSpline
210
0.0
220
0.0
230
1.0
 70
     8
 71
     3
 72
     8
 73
     4
 74
     0
 42
0.000000001
 43
0.00000001
 40
0.5714285714285712
 40
0.5714285714285712
 40
0.5714285714285712
 40
0.5714285714285712
 40
0.6428571428571423
 40
0.6428571428571423
 40
0.6428571428571423
 40
0.6428571428571423
 10
3.30575155708775
 20
0.3383239126522652
 30
0.0
 10
3.30575155708775
 20
0.2700814158664645
 30
0.0
 10
3.271377558706735
 20
0.2146930613323655
 30
0.0
 10
3.202737883368184
 20
0.1834964913731101
 30
0.0
  0
SPLINE
  5
1F3
330
162
100
AcDbEntity
  8
0
  6
Continuous
 62
   179
370
     0
100
AcDbSpline
210
0.0
220
0.0
230
1.0
 70
     8
 71
     3
 72
     8
 73
     4
 74
     0
 42
0.000000001
 43
0.00000001
 40
0.6428571428571423
 40
0.6428571428571423
 40
0.6428571428571423
 40
0.6428571428571423
 40
0.7142857142857135
 40
0.7142857142857135
 40
0.7142857142857135
 40
0.7142857142857135
 10
3.202737883368184
 20
0.1834964913731101
 30
0.0
 10
3.148324421645324
 20
0.1583659211281989
 30
0.0
 10
3.089830852971753
 20
0.1573549211757951
 30
0.0
 10
3.066632014778672
 20
0.1573549211757951
 30
0.0
  0
SPLINE
  5
1F4
330
162
100
AcDbEntity
  8
0
  6
Continuous
 62
   179
370
     0
100
AcDbSpline
210
0.0
220
0.0
230
1.0
 70
     8
 71
     3
 72
     8
 73
     4
 74
     0
 42
0.000000001
 43
0.00000001
 40
0.7857142857142847
 40
0.7857142857142847
 40
0.7857142857142847
 40
0.7857142857142847
 40
0.8571428571428577
 40
0.8571428571428577
 40
0.8571428571428577
 40
0.8571428571428577
 10
3.066632014778672
 20
0.2721034157712066
 30
0.0
 10
3.087844960208153
 20
0.2730422014412873
 30
0.0
 10
3.147313421692938
 20
0.2780972012031883
 30
0.0
 10
3.147313421692938
 20
0.3241699133189202
 30
0.0
  0
SPLINE
  5
1F5
330
162
100
AcDbEntity
  8
0
  6
Continuous
 62
   179
370
     0
100
AcDbSpline
210
0.0
220
0.0
230
1.0
 70
     8
 71
     3
 72
     8
 73
     4
 74
     0
 42
0.000000001
 43
0.00000001
 40
0.8571428571428577
 40
0.8571428571428577
 40
0.8571428571428577
 40
0.8571428571428577
 40
0.9285714285714288
 40
0.9285714285714288
 40
0.9285714285714288
 40
0.9285714285714288
 10
3.147313421692938
 20
0.3241699133189202
 30
0.0
 10
3.147313421692938
 20
0.3573162689005946
 30
0.0
 10
3.113047744735397
 20
0.3673540541421129
 30
0.0
 10
3.077771067825477
 20
0.37645305371357
 30
0.0
  0
SPLINE
  5
1F6
330
162
100
AcDbEntity
  8
0
  6
Continuous
 62
   179
370
     0
100
AcDbSpline
210
0.0
220
0.0
230
1.0
 70
     8
 71
     3
 72
     8
 73
     4
 74
     0
 42
0.000000001
 43
0.00000001
 40
0.0
 40
0.0
 40
0.0
 40
0.0
 40
0.2
 40
0.2
 40
0.2
 40
0.2
 10
3.14290835047185
 20
0.5408849745403448
 30
0.0
 10
3.140814136284785
 20
0.6071054714213968
 30
0.0
 10
3.087592210220042
 20
0.6151212567581469
 30
0.0
 10
3.066451479072915
 20
0.6190930422853866
 30
0.0
  0
SPLINE
  5
1F7
330
162
100
AcDbEntity
  8
0
  6
Continuous
 62
   179
370
     0
100
AcDbSpline
210
0.0
220
0.0
230
1.0
 70
     8
 71
     3
 72
     8
 73
     4
 74
     0
 42
0.000000001
 43
0.00000001
 40
0.3999999999999999
 40
0.3999999999999999
 40
0.3999999999999999
 40
0.3999999999999999
 40
0.5999999999999996
 40
0.5999999999999996
 40
0.5999999999999996
 40
0.5999999999999996
 10
3.066451479072915
 20
0.7336248940338619
 30
0.0
 10
3.128754351138493
 20
0.7306280013178579
 30
0.0
 10
3.189125491152189
 20
0.7155352163144124
 30
0.0
 10
3.233392846210063
 20
0.6743008611136913
 30
0.0
  0
SPLINE
  5
1F8
330
162
100
AcDbEntity
  8
0
  6
Continuous
 62
   179
370
     0
100
AcDbSpline
210
0.0
220
0.0
230
1.0
 70
     8
 71
     3
 72
     8
 73
     4
 74
     0
 42
0.000000001
 43
0.00000001
 40
0.5999999999999996
 40
0.5999999999999996
 40
0.5999999999999996
 40
0.5999999999999996
 40
0.7999999999999998
 40
0.7999999999999998
 40
0.7999999999999998
 40
0.7999999999999998
 10
3.233392846210063
 20
0.6743008611136913
 30
0.0
 10
3.275710415645518
 20
0.6341858272887928
 30
0.0
 10
3.285712093745874
 20
0.5899906865132225
 30
0.0
 10
3.28971998641423
 20
0.5488285455947849
 30
0.0
  0
SPLINE
  5
1F9
330
162
100
AcDbEntity
  8
0
  6
Continuous
 62
   179
370
     0
100
AcDbSpline
210
0.0
220
0.0
230
1.0
 70
     8
 71
     3
 72
     8
 73
     4
 74
     0
 42
0.000000001
 43
0.00000001
 40
0.5625
 40
0.5625
 40
0.5625
 40
0.5625
 40
0.625
 40
0.625
 40
0.625
 40
0.625
 10
3.533443189220749
 20
0.3739255538326064
 30
0.0
 10
3.532468296409516
 20
0.3077050569515413
 30
0.0
 10
3.535465189125502
 20
0.2925400576658187
 30
0.0
 10
3.594789222045661
 20
0.2925400576658187
 30
0.0
  0
SPLINE
  5
1FA
330
162
100
AcDbEntity
  8
0
  6
Continuous
 62
   179
370
     0
100
AcDbSpline
210
0.0
220
0.0
230
1.0
 70
     8
 71
     3
 72
     8
 73
     4
 74
     0
 42
0.000000001
 43
0.00000001
 40
0.625
 40
0.625
 40
0.625
 40
0.625
 40
0.6875
 40
0.6875
 40
0.6875
 40
0.6875
 10
3.594789222045661
 20
0.2925400576658187
 30
0.0
 10
3.605874114380733
 20
0.2925400576658187
 30
0.0
 10
3.611904006953864
 20
0.2925400576658187
 30
0.0
 10
3.636059684387552
 20
0.294562057570587
 30
0.0
  0
SPLINE
  5
1FB
330
162
100
AcDbEntity
  8
0
  6
Continuous
 62
   179
370
     0
100
AcDbSpline
210
0.0
220
0.0
230
1.0
 70
     8
 71
     3
 72
     8
 73
     4
 74
     0
 42
0.000000001
 43
0.00000001
 40
0.75
 40
0.75
 40
0.75
 40
0.75
 40
0.8125
 40
0.8125
 40
0.8125
 40
0.8125
 10
3.636059684387552
 20
0.1743974918016727
 30
0.0
 10
3.579660329901102
 20
0.1694147063220947
 30
0.0
 10
3.56258165213405
 20
0.1673927064173199
 30
0.0
 10
3.532468296409516
 20
0.1673927064173199
 30
0.0
  0
SPLINE
  5
1FC
330
162
100
AcDbEntity
  8
0
  6
Continuous
 62
   179
370
     0
100
AcDbSpline
210
0.0
220
0.0
230
1.0
 70
     8
 71
     3
 72
     8
 73
     4
 74
     0
 42
0.000000001
 43
0.00000001
 40
0.8125
 40
0.8125
 40
0.8125
 40
0.8125
 40
0.875
 40
0.875
 40
0.875
 40
0.875
 10
3.532468296409516
 20
0.1673927064173199
 30
0.0
 10
3.385692767608264
 20
0.1673927064173199
 30
0.0
 10
3.379698982176281
 20
0.2455285598800257
 30
0.0
 10
3.377676982271521
 20
0.3186816278631469
 30
0.0
  0
SPLINE
  5
1FD
330
162
100
AcDbEntity
  8
0
  6
Continuous
 62
   179
370
     0
100
AcDbSpline
210
0.0
220
0.0
230
1.0
 70
     8
 71
     3
 72
     8
 73
     4
 74
     0
 42
0.000000001
 43
0.00000001
 40
0.0
 40
0.0
 40
0.0
 40
0.0
 40
0.25
 40
0.25
 40
0.25
 40
0.25
 10
3.039443337487846
 20
0.1573549211757951
 30
0.0
 10
2.87345880959132
 20
0.1703534919921427
 30
0.0
 10
2.813141830289353
 20
0.2418456314820648
 30
0.0
 10
2.80508993781144
 20
0.3583272688529591
 30
0.0
  0
SPLINE
  5
1FE
330
162
100
AcDbEntity
  8
0
  6
Continuous
 62
   179
370
     0
100
AcDbSpline
210
0.0
220
0.0
230
1.0
 70
     8
 71
     3
 72
     8
 73
     4
 74
     0
 42
0.000000001
 43
0.00000001
 40
0.5
 40
0.5
 40
0.5
 40
0.5
 40
0.75
 40
0.75
 40
0.75
 40
0.75
 10
2.953923573658602
 20
0.3633100543325764
 30
0.0
 10
2.962011573277678
 20
0.3162263422644931
 30
0.0
 10
2.972031304948599
 20
0.2871239864923159
 30
0.0
 10
3.039443337487846
 20
0.2740532013936781
 30
0.0
  0
SPLINE
  5
1FF
330
162
100
AcDbEntity
  8
0
  6
Continuous
 62
   179
370
     0
100
AcDbSpline
210
0.0
220
0.0
230
1.0
 70
     8
 71
     3
 72
     8
 73
     4
 74
     0
 42
0.000000001
 43
0.00000001
 40
0.0
 40
0.0
 40
0.0
 40
0.0
 40
0.0909090909090909
 40
0.0909090909090909
 40
0.0909090909090909
 40
0.0909090909090909
 10
2.579943859129977
 20
0.4191316945605543
 30
0.0
 10
2.56586207407893
 20
0.4150154804687407
 30
0.0
 10
2.497493202299038
 20
0.4020169096523668
 30
0.0
 10
2.481389417343257
 20
0.3979729098428237
 30
0.0
  0
SPLINE
  5
200
330
162
100
AcDbEntity
  8
0
  6
Continuous
 62
   179
370
     0
100
AcDbSpline
210
0.0
220
0.0
230
1.0
 70
     8
 71
     3
 72
     8
 73
     4
 74
     0
 42
0.000000001
 43
0.00000001
 40
0.0909090909090909
 40
0.0909090909090909
 40
0.0909090909090909
 40
0.0909090909090909
 40
0.1818181818181819
 40
0.1818181818181819
 40
0.1818181818181819
 40
0.1818181818181819
 10
2.481389417343257
 20
0.3979729098428237
 30
0.0
 10
2.438151115808305
 20
0.3859131246965634
 30
0.0
 10
2.415042545468171
 20
0.368798339788376
 30
0.0
 10
2.415042545468171
 20
0.3347131985366076
 30
0.0
  0
SPLINE
  5
201
330
162
100
AcDbEntity
  8
0
  6
Continuous
 62
   179
370
     0
100
AcDbSpline
210
0.0
220
0.0
230
1.0
 70
     8
 71
     3
 72
     8
 73
     4
 74
     0
 42
0.000000001
 43
0.00000001
 40
0.1818181818181819
 40
0.1818181818181819
 40
0.1818181818181819
 40
0.1818181818181819
 40
0.2727272727272729
 40
0.2727272727272729
 40
0.2727272727272729
 40
0.2727272727272729
 10
2.415042545468171
 20
0.3347131985366076
 30
0.0
 10
2.415042545468171
 20
0.3005558430025491
 30
0.0
 10
2.442177062047288
 20
0.2764362727100219
 30
0.0
 10
2.487437363486968
 20
0.2764362727100219
 30
0.0
  0
SPLINE
  5
202
330
162
100
AcDbEntity
  8
0
  6
Continuous
 62
   179
370
     0
100
AcDbSpline
210
0.0
220
0.0
230
1.0
 70
     8
 71
     3
 72
     8
 73
     4
 74
     0
 42
0.000000001
 43
0.00000001
 40
0.2727272727272729
 40
0.2727272727272729
 40
0.2727272727272729
 40
0.2727272727272729
 40
0.3636363636363638
 40
0.3636363636363638
 40
0.3636363636363638
 40
0.3636363636363638
 10
2.487437363486968
 20
0.2764362727100219
 30
0.0
 10
2.507549041111142
 20
0.2764362727100219
 30
0.0
 10
2.544739396502377
 20
0.2804802725195322
 30
0.0
 10
2.579943859129977
 20
0.3065496284345374
 30
0.0
  0
SPLINE
  5
203
330
162
100
AcDbEntity
  8
0
  6
Continuous
 62
   179
370
     0
100
AcDbSpline
210
0.0
220
0.0
230
1.0
 70
     8
 71
     3
 72
     8
 73
     4
 74
     0
 42
0.000000001
 43
0.00000001
 40
0.3636363636363638
 40
0.3636363636363638
 40
0.3636363636363638
 40
0.3636363636363638
 40
0.454545454545455
 40
0.454545454545455
 40
0.454545454545455
 40
0.454545454545455
 10
2.579943859129977
 20
0.3065496284345374
 30
0.0
 10
2.577921859225214
 20
0.2884238435739723
 30
0.0
 10
2.576928912843402
 20
0.2713812729480816
 30
0.0
 10
2.576928912843402
 20
0.2542664880398941
 30
0.0
  0
SPLINE
  5
204
330
162
100
AcDbEntity
  8
0
  6
Continuous
 62
   179
370
     0
100
AcDbSpline
210
0.0
220
0.0
230
1.0
 70
     8
 71
     3
 72
     8
 73
     4
 74
     0
 42
0.000000001
 43
0.00000001
 40
0.454545454545455
 40
0.454545454545455
 40
0.454545454545455
 40
0.454545454545455
 40
0.5454545454545459
 40
0.5454545454545459
 40
0.5454545454545459
 40
0.5454545454545459
 10
2.576928912843402
 20
0.2542664880398941
 30
0.0
 10
2.576928912843402
 20
0.2451674884684697
 30
0.0
 10
2.579943859129977
 20
0.2018389190806245
 30
0.0
 10
2.579943859129977
 20
0.1927399195091674
 30
0.0
  0
SPLINE
  5
205
330
162
100
AcDbEntity
  8
0
  6
Continuous
 62
   179
370
     0
100
AcDbSpline
210
0.0
220
0.0
230
1.0
 70
     8
 71
     3
 72
     8
 73
     4
 74
     0
 42
0.000000001
 43
0.00000001
 40
0.5454545454545459
 40
0.5454545454545459
 40
0.5454545454545459
 40
0.5454545454545459
 40
0.6363636363636367
 40
0.6363636363636367
 40
0.6363636363636367
 40
0.6363636363636367
 10
2.579943859129977
 20
0.1927399195091674
 30
0.0
 10
2.532697664926667
 20
0.1544663498832821
 30
0.0
 10
2.461277739719073
 20
0.1544663498832821
 30
0.0
 10
2.446203008286224
 20
0.1544663498832821
 30
0.0
  0
SPLINE
  5
206
330
162
100
AcDbEntity
  8
0
  6
Continuous
 62
   179
370
     0
100
AcDbSpline
210
0.0
220
0.0
230
1.0
 70
     8
 71
     3
 72
     8
 73
     4
 74
     0
 42
0.000000001
 43
0.00000001
 40
0.6363636363636367
 40
0.6363636363636367
 40
0.6363636363636367
 40
0.6363636363636367
 40
0.7272727272727275
 40
0.7272727272727275
 40
0.7272727272727275
 40
0.7272727272727275
 10
2.446203008286224
 20
0.1544663498832821
 30
0.0
 10
2.343604566689997
 20
0.1544663498832821
 30
0.0
 10
2.258066749290184
 20
0.2179427040364344
 30
0.0
 10
2.258066749290184
 20
0.3296581987747197
 30
0.0
  0
SPLINE
  5
207
330
162
100
AcDbEntity
  8
0
  6
Continuous
 62
   179
370
     0
100
AcDbSpline
210
0.0
220
0.0
230
1.0
 70
     8
 71
     3
 72
     8
 73
     4
 74
     0
 42
0.000000001
 43
0.00000001
 40
0.7272727272727275
 40
0.7272727272727275
 40
0.7272727272727275
 40
0.7272727272727275
 40
0.8181818181818183
 40
0.8181818181818183
 40
0.8181818181818183
 40
0.8181818181818183
 10
2.258066749290184
 20
0.3296581987747197
 30
0.0
 10
2.258066749290184
 20
0.4581996212919072
 30
0.0
 10
2.365738244218937
 20
0.4843411914892419
 30
0.0
 10
2.41702843823176
 20
0.4954621909654345
 30
0.0
  0
SPLINE
  5
208
330
162
100
AcDbEntity
  8
0
  6
Continuous
 62
   179
370
     0
100
AcDbSpline
210
0.0
220
0.0
230
1.0
 70
     8
 71
     3
 72
     8
 73
     4
 74
     0
 42
0.000000001
 43
0.00000001
 40
0.8181818181818183
 40
0.8181818181818183
 40
0.8181818181818183
 40
0.8181818181818183
 40
0.9090909090909101
 40
0.9090909090909101
 40
0.9090909090909101
 40
0.9090909090909101
 10
2.41702843823176
 20
0.4954621909654345
 30
0.0
 10
2.439180169331268
 20
0.5004449764450322
 30
0.0
 10
2.553784235362095
 20
0.5195817612579748
 30
0.0
 10
2.579943859129977
 20
0.5255755466899696
 30
0.0
  0
HATCH
  5
209
330
162
100
AcDbEntity
  8
0
  6
Continuous
 62
     1
100
AcDbHatch
 10
0.0
 20
0.0
 30
0.0
210
0.0
220
0.0
230
1.0
  2
SOLID
 70
     1
 71
     0
 91
        1
 92
        0
 93
       16
 72
     4
 94
        3
 73
     1
 74
     0
 95
        8
 96
        4
 40
0.875
 40
0.875
 40
0.875
 40
0.875
 40
0.9375
 40
0.9375
 40
0.9375
 40
0.9375
 10
5.750638299077935
 20
0.282430058141984
 42
1.0
 10
5.821047224333126
 20
0.282430058141984
 42
1.0
 10
5.844264116096784
 20
0.3275639845876285
 42
1.0
 10
5.851268901481157
 20
0.3417179839209932
 42
1.0
 72
     1
 10
5.851268901481157
 20
0.3417179839209932
 11
6.008226644088531
 21
0.3305969844447874
 72
     4
 94
        3
 73
     1
 74
     0
 95
        8
 96
        4
 40
0.0
 40
0.0
 40
0.0
 40
0.0
 40
0.0625
 40
0.0625
 40
0.0625
 40
0.0625
 10
6.008226644088531
 20
0.3305969844447874
 42
1.0
 10
6.001221858704182
 20
0.3125434138665191
 42
1.0
 10
5.989089859275584
 20
0.2814190581895736
 42
1.0
 10
5.960890182032337
 20
0.2473339169378315
 42
1.0
 72
     4
 94
        3
 73
     1
 74
     0
 95
        8
 96
        4
 40
0.0625
 40
0.0625
 40
0.0625
 40
0.0625
 40
0.125
 40
0.125
 40
0.125
 40
0.125
 10
5.960890182032337
 20
0.2473339169378315
 42
1.0
 10
5.908570934496544
 20
0.185157419866329
 42
1.0
 10
5.828124223999819
 20
0.1572104926111753
 42
1.0
 10
5.746666513550692
 20
0.1572104926111753
 42
1.0
 72
     4
 94
        3
 73
     1
 74
     0
 95
        8
 96
        4
 40
0.125
 40
0.125
 40
0.125
 40
0.125
 40
0.1875
 40
0.1875
 40
0.1875
 40
0.1875
 10
5.746666513550692
 20
0.1572104926111753
 42
1.0
 10
5.561509093700091
 20
0.1572104926111753
 42
1.0
 10
5.467955490963533
 20
0.288351629291669
 42
1.0
 10
5.467955490963533
 20
0.442240264900717
 42
1.0
 72
     4
 94
        3
 73
     1
 74
     0
 95
        8
 96
        4
 40
0.1875
 40
0.1875
 40
0.1875
 40
0.1875
 40
0.25
 40
0.25
 40
0.25
 40
0.25
 10
5.467955490963533
 20
0.442240264900717
 42
1.0
 10
5.467955490963533
 20
0.6115105426424762
 42
1.0
 10
5.581584664183096
 20
0.7335526797515455
 42
1.0
 10
5.748616299173166
 20
0.7335526797515455
 42
1.0
 72
     4
 94
        3
 73
     1
 74
     0
 95
        8
 96
        4
 40
0.25
 40
0.25
 40
0.25
 40
0.25
 40
0.3125
 40
0.3125
 40
0.3125
 40
0.3125
 10
5.748616299173166
 20
0.7335526797515455
 42
1.0
 10
5.844264116096784
 20
0.7335526797515455
 42
1.0
 10
5.911676148636021
 20
0.6911628960337679
 42
1.0
 10
5.950888503931994
 20
0.6377243271221339
 42
1.0
 72
     4
 94
        3
 73
     1
 74
     0
 95
        8
 96
        4
 40
0.3125
 40
0.3125
 40
0.3125
 40
0.3125
 40
0.375
 40
0.375
 40
0.375
 40
0.375
 10
5.950888503931994
 20
0.6377243271221339
 42
1.0
 10
5.999199858799414
 20
0.5741035444043487
 42
1.0
 10
6.014292643802839
 20
0.4854244057239294
 42
1.0
 10
6.014292643802839
 20
0.3989116955129046
 42
1.0
 72
     1
 10
6.014292643802839
 20
0.3989116955129046
 11
5.658131803434944
 21
0.3989116955129046
 72
     4
 94
        3
 73
     1
 74
     0
 95
        8
 96
        4
 40
0.4375
 40
0.4375
 40
0.4375
 40
0.4375
 40
0.5
 40
0.5
 40
0.5
 40
0.5
 10
5.658131803434944
 20
0.3989116955129046
 42
1.0
 10
5.654015589343065
 20
0.4169652660911794
 42
1.0
 10
5.65300458939068
 20
0.432130265376902
 42
1.0
 10
5.651993589438336
 20
0.4552388357170974
 42
1.0
 72
     4
 94
        3
 73
     1
 74
     0
 95
        8
 96
        4
 40
0.5
 40
0.5
 40
0.5
 40
0.5
 40
0.5625
 40
0.5625
 40
0.5625
 40
0.5625
 10
5.651993589438336
 20
0.4552388357170974
 42
1.0
 10
5.651993589438336
 20
0.4774808346694892
 42
1.0
 10
5.65300458939068
 20
0.4955344052477444
 42
1.0
 10
5.658131803434944
 20
0.516620975683152
 42
1.0
 72
     1
 10
5.658131803434944
 20
0.516620975683152
 11
5.851268901481157
 21
0.516620975683152
 72
     4
 94
        3
 73
     1
 74
     0
 95
        8
 96
        4
 40
0.625
 40
0.625
 40
0.625
 40
0.625
 40
0.6875
 40
0.6875
 40
0.6875
 40
0.6875
 10
5.851268901481157
 20
0.516620975683152
 42
1.0
 10
5.846250008860384
 20
0.5449289743498617
 42
1.0
 10
5.836140009336554
 20
0.5630547592104594
 42
1.0
 10
5.829135223952192
 20
0.5730925444519318
 42
1.0
 72
     4
 94
        3
 73
     1
 74
     0
 95
        8
 96
        4
 40
0.6875
 40
0.6875
 40
0.6875
 40
0.6875
 40
0.75
 40
0.75
 40
0.75
 40
0.75
 10
5.829135223952192
 20
0.5730925444519318
 42
1.0
 10
5.811045546232786
 20
0.5973565433091509
 42
1.0
 10
5.779848976273548
 20
0.6115105426424762
 42
1.0
 10
5.746666513550692
 20
0.6115105426424762
 42
1.0
 72
     4
 94
        3
 73
     1
 74
     0
 95
        8
 96
        4
 40
0.75
 40
0.75
 40
0.75
 40
0.75
 40
0.8125
 40
0.8125
 40
0.8125
 40
0.8125
 10
5.746666513550692
 20
0.6115105426424762
 42
1.0
 10
5.689328373394157
 20
0.6115105426424762
 42
1.0
 10
5.624913233570929
 20
0.5751145443567263
 42
1.0
 10
5.624913233570929
 20
0.4511948359075478
 42
1.0
 72
     4
 94
        3
 73
     1
 74
     0
 95
        8
 96
        4
 40
0.8125
 40
0.8125
 40
0.8125
 40
0.8125
 40
0.875
 40
0.875
 40
0.875
 40
0.875
 10
5.624913233570929
 20
0.4511948359075478
 42
1.0
 10
5.624913233570929
 20
0.3737811252679801
 42
1.0
 10
5.65300458939068
 20
0.282430058141984
 42
1.0
 10
5.750638299077935
 20
0.282430058141984
 42
1.0
 97
        0
 75
     0
 76
     1
 98
        1
 10
0.0
 20
0.0
  0
HATCH
  5
20A
330
162
100
AcDbEntity
  8
0
  6
Continuous
 62
   179
100
AcDbHatch
 10
0.0
 20
0.0
 30
0.0
210
0.0
220
0.0
230
1.0
  2
SOLID
 70
     1
 71
     0
 91
        1
 92
        0
 93
        4
 72
     1
 10
1.654445616964636
 20
0.7161490377281231
 11
1.654445616964636
 21
0.0
 72
     1
 10
1.654445616964636
 20
0.0
 11
1.498697463589638
 21
0.0
 72
     1
 10
1.498697463589638
 20
0.0
 11
1.498697463589638
 21
0.7161490377281231
 72
     1
 10
1.498697463589638
 20
0.7161490377281231
 11
1.654445616964636
 21
0.7161490377281231
 97
        0
 75
     0
 76
     1
 98
        1
 10
0.0
 20
0.0
  0
HATCH
  5
20B
330
162
100
AcDbEntity
  8
0
  6
Continuous
 62
   179
100
AcDbHatch
 10
0.0
 20
0.0
 30
0.0
210
0.0
220
0.0
230
1.0
  2
SOLID
 70
     1
 71
     0
 91
        1
 92
        0
 93
       10
 72
     4
 94
        3
 73
     1
 74
     0
 95
        8
 96
        4
 40
0.7999999999999998
 40
0.7999999999999998
 40
0.7999999999999998
 40
0.7999999999999998
 40
0.9000000000000004
 40
0.9000000000000004
 40
0.9000000000000004
 40
0.9000000000000004
 10
1.754660987286013
 20
0.6057334000574502
 42
1.0
 10
1.71156711431571
 20
0.6057334000574502
 42
1.0
 10
1.688512704687274
 20
0.584646829622023
 42
1.0
 10
1.680478865779957
 20
0.5766310442853058
 42
1.0
 72
     1
 10
1.680478865779957
 20
0.5766310442853058
 11
1.680478865779957
 21
0.6982398957004503
 72
     4
 94
        3
 73
     1
 74
     0
 95
        8
 96
        4
 40
0.0
 40
0.0
 40
0.0
 40
0.0
 40
0.1
 40
0.1
 40
0.1
 40
0.1
 10
1.680478865779957
 20
0.6982398957004503
 42
1.0
 10
1.71156711431571
 20
0.723442680227678
 42
1.0
 10
1.75166409457001
 20
0.7335526797515455
 42
1.0
 10
1.791706914112603
 20
0.7335526797515455
 42
1.0
 72
     4
 94
        3
 73
     1
 74
     0
 95
        8
 96
        4
 40
0.1
 40
0.1
 40
0.1
 40
0.1
 40
0.2
 40
0.2
 40
0.2
 40
0.2
 10
1.791706914112603
 20
0.7335526797515455
 42
1.0
 10
1.929473711195286
 20
0.7335526797515455
 42
1.0
 10
2.01822506415801
 20
0.6177209709214203
 42
1.0
 10
2.01822506415801
 20
0.4461398361456272
 42
1.0
 72
     4
 94
        3
 73
     1
 74
     0
 95
        8
 96
        4
 40
0.2
 40
0.2
 40
0.2
 40
0.2
 40
0.2999999999999998
 40
0.2999999999999998
 40
0.2999999999999998
 40
0.2999999999999998
 10
2.01822506415801
 20
0.4461398361456272
 42
1.0
 10
2.01822506415801
 20
0.2615601305535191
 42
1.0
 10
1.908260765765849
 20
0.1600990639036883
 42
1.0
 10
1.784684075157651
 20
0.1600990639036883
 42
1.0
 72
     4
 94
        3
 73
     1
 74
     0
 95
        8
 96
        4
 40
0.2999999999999998
 40
0.2999999999999998
 40
0.2999999999999998
 40
0.2999999999999998
 40
0.3999999999999999
 40
0.3999999999999999
 40
0.3999999999999999
 40
0.3999999999999999
 10
1.784684075157651
 20
0.1600990639036883
 42
1.0
 10
1.731606577657553
 20
0.1600990639036883
 42
1.0
 10
1.696528490024017
 20
0.1772138488118758
 42
1.0
 10
1.680478865779957
 20
0.185157419866329
 42
1.0
 72
     1
 10
1.680478865779957
 20
0.185157419866329
 11
1.680478865779957
 21
0.3157930565706077
 72
     4
 94
        3
 73
     1
 74
     0
 95
        8
 96
        4
 40
0.5
 40
0.5
 40
0.5
 40
0.5
 40
0.5999999999999996
 40
0.5999999999999996
 40
0.5999999999999996
 40
0.5999999999999996
 10
1.680478865779957
 20
0.3157930565706077
 42
1.0
 10
1.692538650926222
 20
0.3047442713767184
 42
1.0
 10
1.708588275170282
 20
0.2896514863733057
 42
1.0
 10
1.747638148331067
 20
0.2896514863733057
 42
1.0
 72
     4
 94
        3
 73
     1
 74
     0
 95
        8
 96
        4
 40
0.5999999999999996
 40
0.5999999999999996
 40
0.5999999999999996
 40
0.5999999999999996
 40
0.7000000000000002
 40
0.7000000000000002
 40
0.7000000000000002
 40
0.7000000000000002
 10
1.747638148331067
 20
0.2896514863733057
 42
1.0
 10
1.816765270075221
 20
0.2896514863733057
 42
1.0
 10
1.859841089474947
 20
0.3529111976794956
 42
1.0
 10
1.859841089474947
 20
0.4501116216728472
 42
1.0
 72
     4
 94
        3
 73
     1
 74
     0
 95
        8
 96
        4
 40
0.7000000000000002
 40
0.7000000000000002
 40
0.7000000000000002
 40
0.7000000000000002
 40
0.7999999999999998
 40
0.7999999999999998
 40
0.7999999999999998
 40
0.7999999999999998
 10
1.859841089474947
 20
0.4501116216728472
 42
1.0
 10
1.859841089474947
 20
0.5444956886560024
 42
1.0
 10
1.822777109077786
 20
0.6057334000574502
 42
1.0
 10
1.754660987286013
 20
0.6057334000574502
 42
1.0
 97
        0
 75
     0
 76
     1
 98
        1
 10
0.0
 20
0.0
  0
HATCH
  5
20C
330
162
100
AcDbEntity
  8
0
  6
Continuous
 62
   179
100
AcDbHatch
 10
0.0
 20
0.0
 30
0.0
210
0.0
220
0.0
230
1.0
  2
SOLID
 70
     1
 71
     0
 91
        1
 92
        0
 93
        4
 72
     1
 10
2.062582687058386
 20
0.8821335655968657
 11
2.216904608380256
 21
0.8821335655968657
 72
     1
 10
2.216904608380256
 20
0.8821335655968657
 11
2.216904608380256
 21
0.1717255633499919
 72
     1
 10
2.216904608380256
 20
0.1717255633499919
 11
2.062582687058386
 21
0.1717255633499919
 72
     1
 10
2.062582687058386
 20
0.1717255633499919
 11
2.062582687058386
 21
0.8821335655968657
 97
        0
 75
     0
 76
     1
 98
        1
 10
0.0
 20
0.0
  0
HATCH
  5
20D
330
162
100
AcDbEntity
  8
0
  6
Continuous
 62
   179
100
AcDbHatch
 10
0.0
 20
0.0
 30
0.0
210
0.0
220
0.0
230
1.0
  2
SOLID
 70
     1
 71
     0
 91
        1
 92
        0
 93
       16
 72
     4
 94
        3
 73
     1
 74
     0
 95
        8
 96
        4
 40
0.8125
 40
0.8125
 40
0.8125
 40
0.8125
 40
0.875
 40
0.875
 40
0.875
 40
0.875
 10
3.532468296409516
 20
0.1673927064173199
 42
1.0
 10
3.385692767608264
 20
0.1673927064173199
 42
1.0
 10
3.379698982176281
 20
0.2455285598800257
 42
1.0
 10
3.377676982271521
 20
0.3186816278631469
 42
1.0
 72
     1
 10
3.377676982271521
 20
0.3186816278631469
 11
3.377676982271521
 21
0.599739614625475
 72
     1
 10
3.377676982271521
 20
0.599739614625475
 11
3.302213057254389
 21
0.599739614625475
 72
     1
 10
3.302213057254389
 20
0.599739614625475
 11
3.302213057254389
 21
0.7161490377140791
 72
     1
 10
3.302213057254389
 20
0.7161490377140791
 11
3.377676982271521
 21
0.7161490377140791
 72
     1
 10
3.377676982271521
 20
0.7161490377140791
 11
3.377676982271521
 21
0.8147937473536938
 72
     1
 10
3.377676982271521
 20
0.8147937473536938
 11
3.533443189220749
 21
0.8147937473536938
 72
     1
 10
3.533443189220749
 20
0.8147937473536938
 11
3.533443189220749
 21
0.7161490377140791
 72
     1
 10
3.533443189220749
 20
0.7161490377140791
 11
3.636059684387552
 21
0.7161490377140791
 72
     1
 10
3.636059684387552
 20
0.7161490377140791
 11
3.636059684387552
 21
0.599739614625475
 72
     1
 10
3.636059684387552
 20
0.599739614625475
 11
3.533443189220749
 21
0.599739614625475
 72
     1
 10
3.533443189220749
 20
0.599739614625475
 11
3.533443189220749
 21
0.3739255538326064
 72
     4
 94
        3
 73
     1
 74
     0
 95
        8
 96
        4
 40
0.5625
 40
0.5625
 40
0.5625
 40
0.5625
 40
0.625
 40
0.625
 40
0.625
 40
0.625
 10
3.533443189220749
 20
0.3739255538326064
 42
1.0
 10
3.532468296409516
 20
0.3077050569515413
 42
1.0
 10
3.535465189125502
 20
0.2925400576658187
 42
1.0
 10
3.594789222045661
 20
0.2925400576658187
 42
1.0
 72
     4
 94
        3
 73
     1
 74
     0
 95
        8
 96
        4
 40
0.625
 40
0.625
 40
0.625
 40
0.625
 40
0.6875
 40
0.6875
 40
0.6875
 40
0.6875
 10
3.594789222045661
 20
0.2925400576658187
 42
1.0
 10
3.605874114380733
 20
0.2925400576658187
 42
1.0
 10
3.611904006953864
 20
0.2925400576658187
 42
1.0
 10
3.636059684387552
 20
0.294562057570587
 42
1.0
 72
     1
 10
3.636059684387552
 20
0.294562057570587
 11
3.636059684387552
 21
0.1743974918016727
 72
     4
 94
        3
 73
     1
 74
     0
 95
        8
 96
        4
 40
0.75
 40
0.75
 40
0.75
 40
0.75
 40
0.8125
 40
0.8125
 40
0.8125
 40
0.8125
 10
3.636059684387552
 20
0.1743974918016727
 42
1.0
 10
3.579660329901102
 20
0.1694147063220947
 42
1.0
 10
3.56258165213405
 20
0.1673927064173199
 42
1.0
 10
3.532468296409516
 20
0.1673927064173199
 42
1.0
 97
        0
 75
     0
 76
     1
 98
        1
 10
0.0
 20
0.0
  0
HATCH
  5
20E
330
162
100
AcDbEntity
  8
0
  6
Continuous
 62
   179
100
AcDbHatch
 10
0.0
 20
0.0
 30
0.0
210
0.0
220
0.0
230
1.0
  2
SOLID
 70
     1
 71
     0
 91
        1
 92
        0
 93
        4
 72
     1
 10
3.660937504667762
 20
0.744023750653118
 11
3.660937504667762
 21
0.8819891370281154
 72
     1
 10
3.660937504667762
 20
0.8819891370281154
 11
3.816667604492762
 21
0.8819891370281154
 72
     1
 10
3.816667604492762
 20
0.8819891370281154
 11
3.816667604492762
 21
0.744023750653118
 72
     1
 10
3.816667604492762
 20
0.744023750653118
 11
3.660937504667762
 21
0.744023750653118
 97
        0
 75
     0
 76
     1
 98
        1
 10
0.0
 20
0.0
  0
HATCH
  5
20F
330
162
100
AcDbEntity
  8
0
  6
Continuous
 62
   179
100
AcDbHatch
 10
0.0
 20
0.0
 30
0.0
210
0.0
220
0.0
230
1.0
  2
SOLID
 70
     1
 71
     0
 91
        1
 92
        0
 93
        4
 72
     1
 10
3.660937504667762
 20
0.1717255633499919
 11
3.660937504667762
 21
0.7161490377281231
 72
     1
 10
3.660937504667762
 20
0.7161490377281231
 11
3.816667604492762
 21
0.7161490377281231
 72
     1
 10
3.816667604492762
 20
0.7161490377281231
 11
3.816667604492762
 21
0.1717255633499919
 72
     1
 10
3.816667604492762
 20
0.1717255633499919
 11
3.660937504667762
 21
0.1717255633499919
 97
        0
 75
     0
 76
     1
 98
        1
 10
0.0
 20
0.0
  0
HATCH
  5
210
330
162
100
AcDbEntity
  8
0
  6
Continuous
 62
   179
100
AcDbHatch
 10
0.0
 20
0.0
 30
0.0
210
0.0
220
0.0
230
1.0
  2
SOLID
 70
     1
 71
     0
 91
        1
 92
        0
 93
       11
 72
     4
 94
        3
 73
     1
 74
     0
 95
        8
 96
        4
 40
0.8181818181818183
 40
0.8181818181818183
 40
0.8181818181818183
 40
0.8181818181818183
 40
0.9090909090909101
 40
0.9090909090909101
 40
0.9090909090909101
 40
0.9090909090909101
 10
2.41702843823176
 20
0.4954621909654345
 42
1.0
 10
2.439180169331268
 20
0.5004449764450322
 42
1.0
 10
2.553784235362095
 20
0.5195817612579748
 42
1.0
 10
2.579943859129977
 20
0.5255755466899696
 42
1.0
 72
     1
 10
2.579943859129977
 20
0.5255755466899696
 11
2.579943859129977
 21
0.4191316945605543
 72
     4
 94
        3
 73
     1
 74
     0
 95
        8
 96
        4
 40
0.0
 40
0.0
 40
0.0
 40
0.0
 40
0.0909090909090909
 40
0.0909090909090909
 40
0.0909090909090909
 40
0.0909090909090909
 10
2.579943859129977
 20
0.4191316945605543
 42
1.0
 10
2.56586207407893
 20
0.4150154804687407
 42
1.0
 10
2.497493202299038
 20
0.4020169096523668
 42
1.0
 10
2.481389417343257
 20
0.3979729098428237
 42
1.0
 72
     4
 94
        3
 73
     1
 74
     0
 95
        8
 96
        4
 40
0.0909090909090909
 40
0.0909090909090909
 40
0.0909090909090909
 40
0.0909090909090909
 40
0.1818181818181819
 40
0.1818181818181819
 40
0.1818181818181819
 40
0.1818181818181819
 10
2.481389417343257
 20
0.3979729098428237
 42
1.0
 10
2.438151115808305
 20
0.3859131246965634
 42
1.0
 10
2.415042545468171
 20
0.368798339788376
 42
1.0
 10
2.415042545468171
 20
0.3347131985366076
 42
1.0
 72
     4
 94
        3
 73
     1
 74
     0
 95
        8
 96
        4
 40
0.1818181818181819
 40
0.1818181818181819
 40
0.1818181818181819
 40
0.1818181818181819
 40
0.2727272727272729
 40
0.2727272727272729
 40
0.2727272727272729
 40
0.2727272727272729
 10
2.415042545468171
 20
0.3347131985366076
 42
1.0
 10
2.415042545468171
 20
0.3005558430025491
 42
1.0
 10
2.442177062047288
 20
0.2764362727100219
 42
1.0
 10
2.487437363486968
 20
0.2764362727100219
 42
1.0
 72
     4
 94
        3
 73
     1
 74
     0
 95
        8
 96
        4
 40
0.2727272727272729
 40
0.2727272727272729
 40
0.2727272727272729
 40
0.2727272727272729
 40
0.3636363636363638
 40
0.3636363636363638
 40
0.3636363636363638
 40
0.3636363636363638
 10
2.487437363486968
 20
0.2764362727100219
 42
1.0
 10
2.507549041111142
 20
0.2764362727100219
 42
1.0
 10
2.544739396502377
 20
0.2804802725195322
 42
1.0
 10
2.579943859129977
 20
0.3065496284345374
 42
1.0
 72
     4
 94
        3
 73
     1
 74
     0
 95
        8
 96
        4
 40
0.3636363636363638
 40
0.3636363636363638
 40
0.3636363636363638
 40
0.3636363636363638
 40
0.454545454545455
 40
0.454545454545455
 40
0.454545454545455
 40
0.454545454545455
 10
2.579943859129977
 20
0.3065496284345374
 42
1.0
 10
2.577921859225214
 20
0.2884238435739723
 42
1.0
 10
2.576928912843402
 20
0.2713812729480816
 42
1.0
 10
2.576928912843402
 20
0.2542664880398941
 42
1.0
 72
     4
 94
        3
 73
     1
 74
     0
 95
        8
 96
        4
 40
0.454545454545455
 40
0.454545454545455
 40
0.454545454545455
 40
0.454545454545455
 40
0.5454545454545459
 40
0.5454545454545459
 40
0.5454545454545459
 40
0.5454545454545459
 10
2.576928912843402
 20
0.2542664880398941
 42
1.0
 10
2.576928912843402
 20
0.2451674884684697
 42
1.0
 10
2.579943859129977
 20
0.2018389190806245
 42
1.0
 10
2.579943859129977
 20
0.1927399195091674
 42
1.0
 72
     4
 94
        3
 73
     1
 74
     0
 95
        8
 96
        4
 40
0.5454545454545459
 40
0.5454545454545459
 40
0.5454545454545459
 40
0.5454545454545459
 40
0.6363636363636367
 40
0.6363636363636367
 40
0.6363636363636367
 40
0.6363636363636367
 10
2.579943859129977
 20
0.1927399195091674
 42
1.0
 10
2.532697664926667
 20
0.1544663498832821
 42
1.0
 10
2.461277739719073
 20
0.1544663498832821
 42
1.0
 10
2.446203008286224
 20
0.1544663498832821
 42
1.0
 72
     4
 94
        3
 73
     1
 74
     0
 95
        8
 96
        4
 40
0.6363636363636367
 40
0.6363636363636367
 40
0.6363636363636367
 40
0.6363636363636367
 40
0.7272727272727275
 40
0.7272727272727275
 40
0.7272727272727275
 40
0.7272727272727275
 10
2.446203008286224
 20
0.1544663498832821
 42
1.0
 10
2.343604566689997
 20
0.1544663498832821
 42
1.0
 10
2.258066749290184
 20
0.2179427040364344
 42
1.0
 10
2.258066749290184
 20
0.3296581987747197
 42
1.0
 72
     4
 94
        3
 73
     1
 74
     0
 95
        8
 96
        4
 40
0.7272727272727275
 40
0.7272727272727275
 40
0.7272727272727275
 40
0.7272727272727275
 40
0.8181818181818183
 40
0.8181818181818183
 40
0.8181818181818183
 40
0.8181818181818183
 10
2.258066749290184
 20
0.3296581987747197
 42
1.0
 10
2.258066749290184
 20
0.4581996212919072
 42
1.0
 10
2.365738244218937
 20
0.4843411914892419
 42
1.0
 10
2.41702843823176
 20
0.4954621909654345
 42
1.0
 97
        0
 75
     0
 76
     1
 98
        1
 10
0.0
 20
0.0
  0
HATCH
  5
211
330
162
100
AcDbEntity
  8
0
  6
Continuous
 62
   179
100
AcDbHatch
 10
0.0
 20
0.0
 30
0.0
210
0.0
220
0.0
230
1.0
  2
SOLID
 70
     1
 71
     0
 91
        1
 92
        0
 93
       11
 72
     4
 94
        3
 73
     1
 74
     0
 95
        8
 96
        4
 40
0.3636363636363638
 40
0.3636363636363638
 40
0.3636363636363638
 40
0.3636363636363638
 40
0.454545454545455
 40
0.454545454545455
 40
0.454545454545455
 40
0.454545454545455
 10
2.760010172077536
 20
0.2790359868732822
 42
1.0
 10
2.760010172077536
 20
0.2275472035840803
 42
1.0
 10
2.762050225552859
 20
0.2042219903969683
 42
1.0
 10
2.780139903272285
 20
0.1719422062030321
 42
1.0
 72
     1
 10
2.780139903272285
 20
0.1719422062030321
 11
2.615166375328144
 21
0.1719422062030321
 72
     4
 94
        3
 73
     1
 74
     0
 95
        8
 96
        4
 40
0.5454545454545459
 40
0.5454545454545459
 40
0.5454545454545459
 40
0.5454545454545459
 40
0.6363636363636367
 40
0.6363636363636367
 40
0.6363636363636367
 40
0.6363636363636367
 10
2.615166375328144
 20
0.1719422062030321
 42
1.0
 10
2.607114482850275
 20
0.1911512052983108
 42
1.0
 10
2.604081482993109
 20
0.2042219903969683
 42
1.0
 10
2.603088536611319
 20
0.2526777738290113
 42
1.0
 72
     1
 10
2.603088536611319
 20
0.2526777738290113
 11
2.603088536611319
 21
0.5315693321219646
 72
     4
 94
        3
 73
     1
 74
     0
 95
        8
 96
        4
 40
0.7272727272727275
 40
0.7272727272727275
 40
0.7272727272727275
 40
0.7272727272727275
 40
0.8181818181818183
 40
0.8181818181818183
 40
0.8181818181818183
 40
0.8181818181818183
 10
2.603088536611319
 20
0.5315693321219646
 42
1.0
 10
2.604081482993109
 20
0.5607439021764385
 42
1.0
 10
2.605074429374913
 20
0.6099940427139229
 42
1.0
 10
2.521630826162205
 20
0.6099940427139229
 42
1.0
 72
     4
 94
        3
 73
     1
 74
     0
 95
        8
 96
        4
 40
0.8181818181818183
 40
0.8181818181818183
 40
0.8181818181818183
 40
0.8181818181818183
 40
0.9090909090909101
 40
0.9090909090909101
 40
0.9090909090909101
 40
0.9090909090909101
 10
2.521630826162205
 20
0.6099940427139229
 42
1.0
 10
2.504534094824611
 20
0.6099940427139229
 42
1.0
 10
2.433114169617009
 20
0.6078998285268448
 42
1.0
 10
2.431128276853366
 20
0.5416793316457796
 42
1.0
 72
     1
 10
2.431128276853366
 20
0.5416793316457796
 11
2.288270372867611
 21
0.5413182602342499
 72
     4
 94
        3
 73
     1
 74
     0
 95
        8
 96
        4
 40
0.0
 40
0.0
 40
0.0
 40
0.0
 40
0.0909090909090909
 40
0.0909090909090909
 40
0.0909090909090909
 40
0.0909090909090909
 10
2.288270372867611
 20
0.5413182602342499
 42
1.0
 10
2.296322265345536
 20
0.6663211829180765
 42
1.0
 10
2.379820029269962
 20
0.7307363227413293
 42
1.0
 10
2.521630826162205
 20
0.7307363227413293
 42
1.0
 72
     4
 94
        3
 73
     1
 74
     0
 95
        8
 96
        4
 40
0.0909090909090909
 40
0.0909090909090909
 40
0.0909090909090909
 40
0.0909090909090909
 40
0.1818181818181819
 40
0.1818181818181819
 40
0.1818181818181819
 40
0.1818181818181819
 10
2.521630826162205
 20
0.7307363227413293
 42
1.0
 10
2.579943859129977
 20
0.7307363227413293
 42
1.0
 10
2.641289891954871
 20
0.7226483231222826
 42
1.0
 10
2.68859024686992
 20
0.6884187533058944
 42
1.0
 72
     4
 94
        3
 73
     1
 74
     0
 95
        8
 96
        4
 40
0.1818181818181819
 40
0.1818181818181819
 40
0.1818181818181819
 40
0.1818181818181819
 40
0.2727272727272729
 40
0.2727272727272729
 40
0.2727272727272729
 40
0.2727272727272729
 10
2.68859024686992
 20
0.6884187533058944
 42
1.0
 10
2.756002279409147
 20
0.641118398390816
 42
1.0
 10
2.758006225743342
 20
0.5746090443805506
 42
1.0
 10
2.760010172077536
 20
0.514093475802208
 42
1.0
 72
     1
 10
2.760010172077536
 20
0.514093475802208
 11
2.760010172077536
 21
0.2790359868732822
 97
        0
 75
     0
 76
     1
 98
        1
 10
0.0
 20
0.0
  0
HATCH
  5
212
330
162
100
AcDbEntity
  8
0
  6
Continuous
 62
   179
100
AcDbHatch
 10
0.0
 20
0.0
 30
0.0
210
0.0
220
0.0
230
1.0
  2
SOLID
 70
     1
 71
     0
 91
        1
 92
        0
 93
        5
 72
     4
 94
        3
 73
     1
 74
     0
 95
        8
 96
        4
 40
0.5999999999999996
 40
0.5999999999999996
 40
0.5999999999999996
 40
0.5999999999999996
 40
0.7999999999999998
 40
0.7999999999999998
 40
0.7999999999999998
 40
0.7999999999999998
 10
3.233392846210063
 20
0.6743008611136913
 42
1.0
 10
3.275710415645518
 20
0.6341858272887928
 42
1.0
 10
3.285712093745874
 20
0.5899906865132225
 42
1.0
 10
3.28971998641423
 20
0.5488285455947849
 42
1.0
 72
     1
 10
3.28971998641423
 20
0.5488285455947849
 11
3.14290835047185
 21
0.5408849745403448
 72
     4
 94
        3
 73
     1
 74
     0
 95
        8
 96
        4
 40
0.0
 40
0.0
 40
0.0
 40
0.0
 40
0.2
 40
0.2
 40
0.2
 40
0.2
 10
3.14290835047185
 20
0.5408849745403448
 42
1.0
 10
3.140814136284785
 20
0.6071054714213968
 42
1.0
 10
3.087592210220042
 20
0.6151212567581469
 42
1.0
 10
3.066451479072915
 20
0.6190930422853866
 42
1.0
 72
     1
 10
3.066451479072915
 20
0.6190930422853866
 11
3.066451479072915
 21
0.7336248940338619
 72
     4
 94
        3
 73
     1
 74
     0
 95
        8
 96
        4
 40
0.3999999999999999
 40
0.3999999999999999
 40
0.3999999999999999
 40
0.3999999999999999
 40
0.5999999999999996
 40
0.5999999999999996
 40
0.5999999999999996
 40
0.5999999999999996
 10
3.066451479072915
 20
0.7336248940338619
 42
1.0
 10
3.128754351138493
 20
0.7306280013178579
 42
1.0
 10
3.189125491152189
 20
0.7155352163144124
 42
1.0
 10
3.233392846210063
 20
0.6743008611136913
 42
1.0
 97
        0
 75
     0
 76
     1
 98
        1
 10
0.0
 20
0.0
  0
HATCH
  5
213
330
162
100
AcDbEntity
  8
0
  6
Continuous
 62
   179
100
AcDbHatch
 10
0.0
 20
0.0
 30
0.0
210
0.0
220
0.0
230
1.0
  2
SOLID
 70
     1
 71
     0
 91
        1
 92
        0
 93
        4
 72
     4
 94
        3
 73
     1
 74
     0
 95
        8
 96
        4
 40
0.5
 40
0.5
 40
0.5
 40
0.5
 40
0.75
 40
0.75
 40
0.75
 40
0.75
 10
2.953923573658602
 20
0.3633100543325764
 42
1.0
 10
2.962011573277678
 20
0.3162263422644931
 42
1.0
 10
2.972031304948599
 20
0.2871239864923159
 42
1.0
 10
3.039443337487846
 20
0.2740532013936781
 42
1.0
 72
     1
 10
3.039443337487846
 20
0.2740532013936781
 11
3.039443337487846
 21
0.1573549211757951
 72
     4
 94
        3
 73
     1
 74
     0
 95
        8
 96
        4
 40
0.0
 40
0.0
 40
0.0
 40
0.0
 40
0.25
 40
0.25
 40
0.25
 40
0.25
 10
3.039443337487846
 20
0.1573549211757951
 42
1.0
 10
2.87345880959132
 20
0.1703534919921427
 42
1.0
 10
2.813141830289353
 20
0.2418456314820648
 42
1.0
 10
2.80508993781144
 20
0.3583272688529591
 42
1.0
 72
     1
 10
2.80508993781144
 20
0.3583272688529591
 11
2.953923573658602
 21
0.3633100543325764
 97
        0
 75
     0
 76
     1
 98
        1
 10
0.0
 20
0.0
  0
HATCH
  5
214
330
162
100
AcDbEntity
  8
0
  6
Continuous
 62
   179
100
AcDbHatch
 10
0.0
 20
0.0
 30
0.0
210
0.0
220
0.0
230
1.0
  2
SOLID
 70
     1
 71
     0
 91
        1
 92
        0
 93
       14
 72
     4
 94
        3
 73
     1
 74
     0
 95
        8
 96
        4
 40
0.2857142857142856
 40
0.2857142857142856
 40
0.2857142857142856
 40
0.2857142857142856
 40
0.3571428571428568
 40
0.3571428571428568
 40
0.3571428571428568
 40
0.3571428571428568
 10
3.038342069682548
 20
0.6201040422377445
 42
1.0
 10
3.00517766053029
 20
0.6180820423329828
 42
1.0
 10
2.971002251425654
 20
0.6090552570438421
 42
1.0
 10
2.971002251425654
 20
0.5749701157921066
 42
1.0
 72
     4
 94
        3
 73
     1
 74
     0
 95
        8
 96
        4
 40
0.3571428571428568
 40
0.3571428571428568
 40
0.3571428571428568
 40
0.3571428571428568
 40
0.4285714285714288
 40
0.4285714285714288
 40
0.4285714285714288
 40
0.4285714285714288
 10
2.971002251425654
 20
0.5749701157921066
 42
1.0
 10
2.971002251425654
 20
0.5478175456423812
 42
1.0
 10
2.991131982620416
 20
0.541823760210419
 42
1.0
 10
3.038342069682548
 20
0.5288251893940517
 42
1.0
 72
     1
 10
3.038342069682548
 20
0.5288251893940517
 11
3.119041530167374
 21
0.5109160473803965
 72
     4
 94
        3
 73
     1
 74
     0
 95
        8
 96
        4
 40
0.5
 40
0.5
 40
0.5
 40
0.5
 40
0.5714285714285712
 40
0.5714285714285712
 40
0.5714285714285712
 40
0.5714285714285712
 10
3.119041530167374
 20
0.5109160473803965
 42
1.0
 10
3.188619991175976
 20
0.494812262424626
 42
1.0
 10
3.30575155708775
 20
0.4696816921796885
 42
1.0
 10
3.30575155708775
 20
0.3383239126522652
 42
1.0
 72
     4
 94
        3
 73
     1
 74
     0
 95
        8
 96
        4
 40
0.5714285714285712
 40
0.5714285714285712
 40
0.5714285714285712
 40
0.5714285714285712
 40
0.6428571428571423
 40
0.6428571428571423
 40
0.6428571428571423
 40
0.6428571428571423
 10
3.30575155708775
 20
0.3383239126522652
 42
1.0
 10
3.30575155708775
 20
0.2700814158664645
 42
1.0
 10
3.271377558706735
 20
0.2146930613323655
 42
1.0
 10
3.202737883368184
 20
0.1834964913731101
 42
1.0
 72
     4
 94
        3
 73
     1
 74
     0
 95
        8
 96
        4
 40
0.6428571428571423
 40
0.6428571428571423
 40
0.6428571428571423
 40
0.6428571428571423
 40
0.7142857142857135
 40
0.7142857142857135
 40
0.7142857142857135
 40
0.7142857142857135
 10
3.202737883368184
 20
0.1834964913731101
 42
1.0
 10
3.148324421645324
 20
0.1583659211281989
 42
1.0
 10
3.089830852971753
 20
0.1573549211757951
 42
1.0
 10
3.066632014778672
 20
0.1573549211757951
 42
1.0
 72
     1
 10
3.066632014778672
 20
0.1573549211757951
 11
3.066632014778672
 21
0.2721034157712066
 72
     4
 94
        3
 73
     1
 74
     0
 95
        8
 96
        4
 40
0.7857142857142847
 40
0.7857142857142847
 40
0.7857142857142847
 40
0.7857142857142847
 40
0.8571428571428577
 40
0.8571428571428577
 40
0.8571428571428577
 40
0.8571428571428577
 10
3.066632014778672
 20
0.2721034157712066
 42
1.0
 10
3.087844960208153
 20
0.2730422014412873
 42
1.0
 10
3.147313421692938
 20
0.2780972012031883
 42
1.0
 10
3.147313421692938
 20
0.3241699133189202
 42
1.0
 72
     4
 94
        3
 73
     1
 74
     0
 95
        8
 96
        4
 40
0.8571428571428577
 40
0.8571428571428577
 40
0.8571428571428577
 40
0.8571428571428577
 40
0.9285714285714288
 40
0.9285714285714288
 40
0.9285714285714288
 40
0.9285714285714288
 10
3.147313421692938
 20
0.3241699133189202
 42
1.0
 10
3.147313421692938
 20
0.3573162689005946
 42
1.0
 10
3.113047744735397
 20
0.3673540541421129
 42
1.0
 10
3.077771067825477
 20
0.37645305371357
 42
1.0
 72
     1
 10
3.077771067825477
 20
0.37645305371357
 11
2.976021144046416
 21
0.401511409676178
 72
     4
 94
        3
 73
     1
 74
     0
 95
        8
 96
        4
 40
0.0
 40
0.0
 40
0.0
 40
0.0
 40
0.0714285714285714
 40
0.0714285714285714
 40
0.0714285714285714
 40
0.0714285714285714
 10
2.976021144046416
 20
0.401511409676178
 42
1.0
 10
2.913844646974891
 20
0.4184817660197261
 42
1.0
 10
2.82254774056062
 20
0.4436123362646833
 42
1.0
 10
2.82254774056062
 20
0.5599495450709906
 42
1.0
 72
     4
 94
        3
 73
     1
 74
     0
 95
        8
 96
        4
 40
0.0714285714285714
 40
0.0714285714285714
 40
0.0714285714285714
 40
0.0714285714285714
 40
0.1428571428571428
 40
0.1428571428571428
 40
0.1428571428571428
 40
0.1428571428571428
 10
2.82254774056062
 20
0.5599495450709906
 42
1.0
 10
2.82254774056062
 20
0.5879686866084411
 42
1.0
 10
2.827566633181379
 20
0.6321638273840113
 42
1.0
 10
2.862662774385525
 20
0.6703290755864515
 42
1.0
 72
     4
 94
        3
 73
     1
 74
     0
 95
        8
 96
        4
 40
0.1428571428571428
 40
0.1428571428571428
 40
0.1428571428571428
 40
0.1428571428571428
 40
0.2142857142857144
 40
0.2142857142857144
 40
0.2142857142857144
 40
0.2142857142857144
 10
2.862662774385525
 20
0.6703290755864515
 42
1.0
 10
2.915848593309055
 20
0.7266201086494501
 42
1.0
 10
2.993135928954584
 20
0.7306280013178579
 42
1.0
 10
3.038342069682548
 20
0.7336248940338619
 42
1.0
 72
     1
 10
3.038342069682548
 20
0.7336248940338619
 11
3.038342069682548
 21
0.6201040422377445
 97
        0
 75
     0
 76
     1
 98
        1
 10
0.0
 20
0.0
  0
HATCH
  5
215
330
162
100
AcDbEntity
  8
0
  6
Continuous
 62
     1
100
AcDbHatch
 10
0.0
 20
0.0
 30
0.0
210
0.0
220
0.0
230
1.0
  2
SOLID
 70
     1
 71
     0
 91
        1
 92
        0
 93
        7
 72
     4
 94
        3
 73
     1
 74
     0
 95
        8
 96
        4
 40
0.1428571428571429
 40
0.1428571428571429
 40
0.1428571428571429
 40
0.1428571428571429
 40
0.2857142857142858
 40
0.2857142857142858
 40
0.2857142857142858
 40
0.2857142857142858
 10
3.865159495025667
 20
0.443034622006178
 42
1.0
 10
3.865159495025667
 20
0.6482676123398213
 42
1.0
 10
4.001247310044594
 20
0.7296531085066221
 42
1.0
 10
4.125022589929156
 20
0.7336248940338619
 42
1.0
 72
     1
 10
4.125022589929156
 20
0.7336248940338619
 11
4.125022589929156
 21
0.6081886856560974
 72
     4
 94
        3
 73
     1
 74
     0
 95
        8
 96
        4
 40
0.4285714285714288
 40
0.4285714285714288
 40
0.4285714285714288
 40
0.4285714285714288
 40
0.5714285714285716
 40
0.5714285714285716
 40
0.5714285714285716
 40
0.5714285714285716
 10
4.125022589929156
 20
0.6081886856560974
 42
1.0
 10
4.036487879813358
 20
0.5940707934638811
 42
1.0
 10
4.026486201712983
 20
0.5005171907273814
 42
1.0
 10
4.026486201712983
 20
0.4471508360980244
 42
1.0
 72
     4
 94
        3
 73
     1
 74
     0
 95
        8
 96
        4
 40
0.5714285714285716
 40
0.5714285714285716
 40
0.5714285714285716
 40
0.5714285714285716
 40
0.7142857142857144
 40
0.7142857142857144
 40
0.7142857142857144
 40
0.7142857142857144
 10
4.026486201712983
 20
0.4471508360980244
 42
1.0
 10
4.026486201712983
 20
0.4228146229584955
 42
1.0
 10
4.027461094524216
 20
0.3683650540945036
 42
1.0
 10
4.056563450296348
 20
0.3300192701862757
 42
1.0
 72
     4
 94
        3
 73
     1
 74
     0
 95
        8
 96
        4
 40
0.7142857142857144
 40
0.7142857142857144
 40
0.7142857142857144
 40
0.7142857142857144
 40
0.8571428571428577
 40
0.8571428571428577
 40
0.8571428571428577
 40
0.8571428571428577
 10
4.056563450296348
 20
0.3300192701862757
 42
1.0
 10
4.079816449201186
 20
0.2997614858971011
 42
1.0
 10
4.107907805020956
 20
0.2926844862304188
 42
1.0
 10
4.125022589929156
 20
0.2896514863733057
 42
1.0
 72
     1
 10
4.125022589929156
 20
0.2896514863733057
 11
4.125022589929156
 21
0.1572104926111753
 72
     4
 94
        3
 73
     1
 74
     0
 95
        8
 96
        4
 40
0.0
 40
0.0
 40
0.0
 40
0.0
 40
0.1428571428571429
 40
0.1428571428571429
 40
0.1428571428571429
 40
0.1428571428571429
 10
4.125022589929156
 20
0.1572104926111753
 42
1.0
 10
3.929682956272354
 20
0.1632042780431571
 42
1.0
 10
3.865159495025667
 20
0.3097992711386259
 42
1.0
 10
3.865159495025667
 20
0.443034622006178
 42
1.0
 97
        0
 75
     0
 76
     1
 98
        1
 10
0.0
 20
0.0
  0
HATCH
  5
216
330
162
100
AcDbEntity
  8
0
  6
Continuous
 62
     1
100
AcDbHatch
 10
0.0
 20
0.0
 30
0.0
210
0.0
220
0.0
230
1.0
  2
SOLID
 70
     1
 71
     0
 91
        1
 92
        0
 93
        5
 72
     4
 94
        3
 73
     1
 74
     0
 95
        8
 96
        4
 40
0.5999999999999996
 40
0.5999999999999996
 40
0.5999999999999996
 40
0.5999999999999996
 40
0.7999999999999998
 40
0.7999999999999998
 40
0.7999999999999998
 40
0.7999999999999998
 10
4.315235009541685
 20
0.6746980396664021
 42
1.0
 10
4.37358414965062
 20
0.622703756401018
 42
1.0
 10
4.382647042080912
 20
0.5647879019859358
 42
1.0
 10
4.388676934654031
 20
0.5298361893464489
 42
1.0
 72
     1
 10
4.388676934654031
 20
0.5298361893464489
 11
4.236738084667419
 21
0.5217481897274021
 72
     4
 94
        3
 73
     1
 74
     0
 95
        8
 96
        4
 40
0.0
 40
0.0
 40
0.0
 40
0.0
 40
0.2
 40
0.2
 40
0.2
 40
0.2
 10
4.236738084667419
 20
0.5217481897274021
 42
1.0
 10
4.223631192427588
 20
0.5867771509502823
 42
1.0
 10
4.191459729657151
 20
0.599811828907785
 42
1.0
 10
4.151236374408762
 20
0.6078276142445349
 42
1.0
 72
     1
 10
4.151236374408762
 20
0.6078276142445349
 11
4.151236374408762
 21
0.7336248940338619
 72
     4
 94
        3
 73
     1
 74
     0
 95
        8
 96
        4
 40
0.3999999999999999
 40
0.3999999999999999
 40
0.3999999999999999
 40
0.3999999999999999
 40
0.5999999999999996
 40
0.5999999999999996
 40
0.5999999999999996
 40
0.5999999999999996
 10
4.151236374408762
 20
0.7336248940338619
 42
1.0
 10
4.237749084619803
 20
0.7316390012702355
 42
1.0
 10
4.288046332250823
 20
0.6987092885354775
 42
1.0
 10
4.315235009541685
 20
0.6746980396664021
 42
1.0
 97
        0
 75
     0
 76
     1
 98
        1
 10
0.0
 20
0.0
  0
HATCH
  5
217
330
162
100
AcDbEntity
  8
0
  6
Continuous
 62
     1
100
AcDbHatch
 10
0.0
 20
0.0
 30
0.0
210
0.0
220
0.0
230
1.0
  2
SOLID
 70
     1
 71
     0
 91
        1
 92
        0
 93
        4
 72
     4
 94
        3
 73
     1
 74
     0
 95
        8
 96
        4
 40
0.5
 40
0.5
 40
0.5
 40
0.5
 40
0.75
 40
0.75
 40
0.75
 40
0.75
 10
4.392648720181261
 20
0.3753698394788629
 42
1.0
 10
4.379577935082613
 20
0.2753530584753017
 42
1.0
 10
4.314260116730467
 20
0.165298492230209
 42
1.0
 10
4.151236374408762
 20
0.1572104926111753
 42
1.0
 72
     1
 10
4.151236374408762
 20
0.1572104926111753
 11
4.151236374408762
 21
0.2896514863733057
 72
     4
 94
        3
 73
     1
 74
     0
 95
        8
 96
        4
 40
0.0
 40
0.0
 40
0.0
 40
0.0
 40
0.25
 40
0.25
 40
0.25
 40
0.25
 10
4.151236374408762
 20
0.2896514863733057
 42
1.0
 10
4.208538407424164
 20
0.2987504859447235
 42
1.0
 10
4.228722299330665
 20
0.3290804845162014
 42
1.0
 10
4.239734977383403
 20
0.3825912677101519
 42
1.0
 72
     1
 10
4.239734977383403
 20
0.3825912677101519
 11
4.392648720181261
 21
0.3753698394788629
 97
        0
 75
     0
 76
     1
 98
        1
 10
0.0
 20
0.0
  0
HATCH
  5
218
330
162
100
AcDbEntity
  8
0
  6
Continuous
 62
     1
100
AcDbHatch
 10
0.0
 20
0.0
 30
0.0
210
0.0
220
0.0
230
1.0
  2
SOLID
 70
     1
 71
     0
 91
        1
 92
        0
 93
        5
 72
     4
 94
        3
 73
     1
 74
     0
 95
        8
 96
        4
 40
0.5999999999999996
 40
0.5999999999999996
 40
0.5999999999999996
 40
0.5999999999999996
 40
0.7999999999999998
 40
0.7999999999999998
 40
0.7999999999999998
 40
0.7999999999999998
 10
5.374510209650465
 20
0.6743008611136913
 42
1.0
 10
5.416719457662442
 20
0.6341858272887928
 42
1.0
 10
5.426829457186272
 20
0.5899906865132225
 42
1.0
 10
5.430837349854645
 20
0.5488285455947849
 42
1.0
 72
     1
 10
5.430837349854645
 20
0.5488285455947849
 11
5.283917392488752
 21
0.5408849745403448
 72
     4
 94
        3
 73
     1
 74
     0
 95
        8
 96
        4
 40
0.0
 40
0.0
 40
0.0
 40
0.0
 40
0.2
 40
0.2
 40
0.2
 40
0.2
 10
5.283917392488752
 20
0.5408849745403448
 42
1.0
 10
5.281895392583991
 20
0.6071054714213968
 42
1.0
 10
5.228673466519274
 20
0.6151212567581469
 42
1.0
 10
5.207586896083892
 20
0.6190930422853866
 42
1.0
 72
     1
 10
5.207586896083892
 20
0.6190930422853866
 11
5.207586896083892
 21
0.7336248940338619
 72
     4
 94
        3
 73
     1
 74
     0
 95
        8
 96
        4
 40
0.3999999999999999
 40
0.3999999999999999
 40
0.3999999999999999
 40
0.3999999999999999
 40
0.5999999999999996
 40
0.5999999999999996
 40
0.5999999999999996
 40
0.5999999999999996
 10
5.207586896083892
 20
0.7336248940338619
 42
1.0
 10
5.269907821720027
 20
0.7306280013178579
 42
1.0
 10
5.330206747451427
 20
0.7155352163144124
 42
1.0
 10
5.374510209650465
 20
0.6743008611136913
 42
1.0
 97
        0
 75
     0
 76
     1
 98
        1
 10
0.0
 20
0.0
  0
HATCH
  5
219
330
162
100
AcDbEntity
  8
0
  6
Continuous
 62
     1
100
AcDbHatch
 10
0.0
 20
0.0
 30
0.0
210
0.0
220
0.0
230
1.0
  2
SOLID
 70
     1
 71
     0
 91
        1
 92
        0
 93
        4
 72
     4
 94
        3
 73
     1
 74
     0
 95
        8
 96
        4
 40
0.5
 40
0.5
 40
0.5
 40
0.5
 40
0.75
 40
0.75
 40
0.75
 40
0.75
 10
5.09504093709902
 20
0.3633100543325764
 42
1.0
 10
5.103056722435767
 20
0.3162263422644931
 42
1.0
 10
5.113130614818432
 20
0.2871239864923159
 42
1.0
 10
5.180578754498822
 20
0.2740532013936781
 42
1.0
 72
     1
 10
5.180578754498822
 20
0.2740532013936781
 11
5.180578754498822
 21
0.1573549211757951
 72
     4
 94
        3
 73
     1
 74
     0
 95
        8
 96
        4
 40
0.0
 40
0.0
 40
0.0
 40
0.0
 40
0.25
 40
0.25
 40
0.25
 40
0.25
 10
5.180578754498822
 20
0.1573549211757951
 42
1.0
 10
5.014485905178835
 20
0.1703534919921427
 42
1.0
 10
4.954186979447416
 20
0.2418456314820648
 42
1.0
 10
4.946171194110682
 20
0.3583272688529591
 42
1.0
 72
     1
 10
4.946171194110682
 20
0.3583272688529591
 11
5.09504093709902
 21
0.3633100543325764
 97
        0
 75
     0
 76
     1
 98
        1
 10
0.0
 20
0.0
  0
HATCH
  5
21A
330
162
100
AcDbEntity
  8
0
  6
Continuous
 62
     1
100
AcDbHatch
 10
0.0
 20
0.0
 30
0.0
210
0.0
220
0.0
230
1.0
  2
SOLID
 70
     1
 71
     0
 91
        1
 92
        0
 93
       11
 72
     4
 94
        3
 73
     1
 74
     0
 95
        8
 96
        4
 40
0.6363636363636367
 40
0.6363636363636367
 40
0.6363636363636367
 40
0.6363636363636367
 40
0.7272727272727275
 40
0.7272727272727275
 40
0.7272727272727275
 40
0.7272727272727275
 10
4.587266211014894
 20
0.1544663498832821
 42
1.0
 10
4.484649715848079
 20
0.1544663498832821
 42
1.0
 10
4.399148005589441
 20
0.2179427040364344
 42
1.0
 10
4.399148005589441
 20
0.3296581987747197
 42
1.0
 72
     4
 94
        3
 73
     1
 74
     0
 95
        8
 96
        4
 40
0.7272727272727275
 40
0.7272727272727275
 40
0.7272727272727275
 40
0.7272727272727275
 40
0.8181818181818183
 40
0.8181818181818183
 40
0.8181818181818183
 40
0.8181818181818183
 10
4.399148005589441
 20
0.3296581987747197
 42
1.0
 10
4.399148005589441
 20
0.4581996212919072
 42
1.0
 10
4.506855607659324
 20
0.4843411914892419
 42
1.0
 10
4.558163855242751
 20
0.4954621909654345
 42
1.0
 72
     4
 94
        3
 73
     1
 74
     0
 95
        8
 96
        4
 40
0.8181818181818183
 40
0.8181818181818183
 40
0.8181818181818183
 40
0.8181818181818183
 40
0.9090909090909101
 40
0.9090909090909101
 40
0.9090909090909101
 40
0.9090909090909101
 10
4.558163855242751
 20
0.4954621909654345
 42
1.0
 10
4.580261425630515
 20
0.5004449764450322
 42
1.0
 10
4.694901598802476
 20
0.5195817612579748
 42
1.0
 10
4.721007061858631
 20
0.5255755466899696
 42
1.0
 72
     1
 10
4.721007061858631
 20
0.5255755466899696
 11
4.721007061858631
 21
0.4191316945605543
 72
     4
 94
        3
 73
     1
 74
     0
 95
        8
 96
        4
 40
0.0
 40
0.0
 40
0.0
 40
0.0
 40
0.0909090909090909
 40
0.0909090909090909
 40
0.0909090909090909
 40
0.0909090909090909
 10
4.721007061858631
 20
0.4191316945605543
 42
1.0
 10
4.706925276807587
 20
0.4150154804687407
 42
1.0
 10
4.638610565739469
 20
0.4020169096523668
 42
1.0
 10
4.622506780783656
 20
0.3979729098428237
 42
1.0
 72
     4
 94
        3
 73
     1
 74
     0
 95
        8
 96
        4
 40
0.0909090909090909
 40
0.0909090909090909
 40
0.0909090909090909
 40
0.0909090909090909
 40
0.1818181818181819
 40
0.1818181818181819
 40
0.1818181818181819
 40
0.1818181818181819
 10
4.622506780783656
 20
0.3979729098428237
 42
1.0
 10
4.579250425678143
 20
0.3859131246965634
 42
1.0
 10
4.556069641055672
 20
0.368798339788376
 42
1.0
 10
4.556069641055672
 20
0.3347131985366076
 42
1.0
 72
     4
 94
        3
 73
     1
 74
     0
 95
        8
 96
        4
 40
0.1818181818181819
 40
0.1818181818181819
 40
0.1818181818181819
 40
0.1818181818181819
 40
0.2727272727272729
 40
0.2727272727272729
 40
0.2727272727272729
 40
0.2727272727272729
 10
4.556069641055672
 20
0.3347131985366076
 42
1.0
 10
4.556069641055672
 20
0.3005558430025491
 42
1.0
 10
4.583258318346529
 20
0.2764362727100219
 42
1.0
 10
4.628500566215641
 20
0.2764362727100219
 42
1.0
 72
     4
 94
        3
 73
     1
 74
     0
 95
        8
 96
        4
 40
0.2727272727272729
 40
0.2727272727272729
 40
0.2727272727272729
 40
0.2727272727272729
 40
0.3636363636363638
 40
0.3636363636363638
 40
0.3636363636363638
 40
0.3636363636363638
 10
4.628500566215641
 20
0.2764362727100219
 42
1.0
 10
4.648576136698662
 20
0.2764362727100219
 42
1.0
 10
4.685838706372192
 20
0.2804802725195322
 42
1.0
 10
4.721007061858631
 20
0.3065496284345374
 42
1.0
 72
     4
 94
        3
 73
     1
 74
     0
 95
        8
 96
        4
 40
0.3636363636363638
 40
0.3636363636363638
 40
0.3636363636363638
 40
0.3636363636363638
 40
0.454545454545455
 40
0.454545454545455
 40
0.454545454545455
 40
0.454545454545455
 10
4.721007061858631
 20
0.3065496284345374
 42
1.0
 10
4.719021169095031
 20
0.2884238435739723
 42
1.0
 10
4.718046276283802
 20
0.2713812729480816
 42
1.0
 10
4.718046276283802
 20
0.2542664880398941
 42
1.0
 72
     4
 94
        3
 73
     1
 74
     0
 95
        8
 96
        4
 40
0.454545454545455
 40
0.454545454545455
 40
0.454545454545455
 40
0.454545454545455
 40
0.5454545454545459
 40
0.5454545454545459
 40
0.5454545454545459
 40
0.5454545454545459
 10
4.718046276283802
 20
0.2542664880398941
 42
1.0
 10
4.718046276283802
 20
0.2451674884684697
 42
1.0
 10
4.721007061858631
 20
0.2018389190806245
 42
1.0
 10
4.721007061858631
 20
0.1927399195091674
 42
1.0
 72
     4
 94
        3
 73
     1
 74
     0
 95
        8
 96
        4
 40
0.5454545454545459
 40
0.5454545454545459
 40
0.5454545454545459
 40
0.5454545454545459
 40
0.6363636363636367
 40
0.6363636363636367
 40
0.6363636363636367
 40
0.6363636363636367
 10
4.721007061858631
 20
0.1927399195091674
 42
1.0
 10
4.673778921225919
 20
0.1544663498832821
 42
1.0
 10
4.60235899601834
 20
0.1544663498832821
 42
1.0
 10
4.587266211014894
 20
0.1544663498832821
 42
1.0
 97
        0
 75
     0
 76
     1
 98
        1
 10
0.0
 20
0.0
  0
HATCH
  5
21B
330
162
100
AcDbEntity
  8
0
  6
Continuous
 62
     1
100
AcDbHatch
 10
0.0
 20
0.0
 30
0.0
210
0.0
220
0.0
230
1.0
  2
SOLID
 70
     1
 71
     0
 91
        1
 92
        0
 93
       11
 72
     4
 94
        3
 73
     1
 74
     0
 95
        8
 96
        4
 40
0.1818181818181819
 40
0.1818181818181819
 40
0.1818181818181819
 40
0.1818181818181819
 40
0.2727272727272729
 40
0.2727272727272729
 40
0.2727272727272729
 40
0.2727272727272729
 10
4.829653449598639
 20
0.6884187533058944
 42
1.0
 10
4.897065482137817
 20
0.641118398390816
 42
1.0
 10
4.899087482042598
 20
0.5746090443805506
 42
1.0
 10
4.901073374806193
 20
0.514093475802208
 42
1.0
 72
     1
 10
4.901073374806193
 20
0.514093475802208
 11
4.901073374806193
 21
0.2790359868732822
 72
     4
 94
        3
 73
     1
 74
     0
 95
        8
 96
        4
 40
0.3636363636363638
 40
0.3636363636363638
 40
0.3636363636363638
 40
0.3636363636363638
 40
0.454545454545455
 40
0.454545454545455
 40
0.454545454545455
 40
0.454545454545455
 10
4.901073374806193
 20
0.2790359868732822
 42
1.0
 10
4.901073374806193
 20
0.2275472035840803
 42
1.0
 10
4.903167588993268
 20
0.2042219903969683
 42
1.0
 10
4.921257266712703
 20
0.1719422062030321
 42
1.0
 72
     1
 10
4.921257266712703
 20
0.1719422062030321
 11
4.756247631627414
 21
0.1719422062030321
 72
     4
 94
        3
 73
     1
 74
     0
 95
        8
 96
        4
 40
0.5454545454545459
 40
0.5454545454545459
 40
0.5454545454545459
 40
0.5454545454545459
 40
0.6363636363636367
 40
0.6363636363636367
 40
0.6363636363636367
 40
0.6363636363636367
 10
4.756247631627414
 20
0.1719422062030321
 42
1.0
 10
4.748123524867188
 20
0.1911512052983108
 42
1.0
 10
4.745126632151202
 20
0.2042219903969683
 42
1.0
 10
4.744115632198814
 20
0.2526777738290113
 42
1.0
 72
     1
 10
4.744115632198814
 20
0.2526777738290113
 11
4.744115632198814
 21
0.5315693321219646
 72
     4
 94
        3
 73
     1
 74
     0
 95
        8
 96
        4
 40
0.7272727272727275
 40
0.7272727272727275
 40
0.7272727272727275
 40
0.7272727272727275
 40
0.8181818181818183
 40
0.8181818181818183
 40
0.8181818181818183
 40
0.8181818181818183
 10
4.744115632198814
 20
0.5315693321219646
 42
1.0
 10
4.745126632151202
 20
0.5607439021764385
 42
1.0
 10
4.746137632103589
 20
0.6099940427139229
 42
1.0
 10
4.662730136032026
 20
0.6099940427139229
 42
1.0
 72
     4
 94
        3
 73
     1
 74
     0
 95
        8
 96
        4
 40
0.8181818181818183
 40
0.8181818181818183
 40
0.8181818181818183
 40
0.8181818181818183
 40
0.9090909090909101
 40
0.9090909090909101
 40
0.9090909090909101
 40
0.9090909090909101
 10
4.662730136032026
 20
0.6099940427139229
 42
1.0
 10
4.645579243982674
 20
0.6099940427139229
 42
1.0
 10
4.574195425916222
 20
0.6078998285268448
 42
1.0
 10
4.572173426011472
 20
0.5416793316457796
 42
1.0
 72
     1
 10
4.572173426011472
 20
0.5416793316457796
 11
4.42933357559628
 21
0.5413182602342499
 72
     4
 94
        3
 73
     1
 74
     0
 95
        8
 96
        4
 40
0.0
 40
0.0
 40
0.0
 40
0.0
 40
0.0909090909090909
 40
0.0909090909090909
 40
0.0909090909090909
 40
0.0909090909090909
 10
4.42933357559628
 20
0.5413182602342499
 42
1.0
 10
4.437421575215351
 20
0.6663211829180765
 42
1.0
 10
4.520865178428067
 20
0.7307363227413293
 42
1.0
 10
4.662730136032026
 20
0.7307363227413293
 42
1.0
 72
     4
 94
        3
 73
     1
 74
     0
 95
        8
 96
        4
 40
0.0909090909090909
 40
0.0909090909090909
 40
0.0909090909090909
 40
0.0909090909090909
 40
0.1818181818181819
 40
0.1818181818181819
 40
0.1818181818181819
 40
0.1818181818181819
 10
4.662730136032026
 20
0.7307363227413293
 42
1.0
 10
4.721007061858631
 20
0.7307363227413293
 42
1.0
 10
4.782316987542422
 20
0.7226483231222826
 42
1.0
 10
4.829653449598639
 20
0.6884187533058944
 42
1.0
 97
        0
 75
     0
 76
     1
 98
        1
 10
0.0
 20
0.0
  0
HATCH
  5
21C
330
162
100
AcDbEntity
  8
0
  6
Continuous
 62
     1
100
AcDbHatch
 10
0.0
 20
0.0
 30
0.0
210
0.0
220
0.0
230
1.0
  2
SOLID
 70
     1
 71
     0
 91
        1
 92
        0
 93
       14
 72
     4
 94
        3
 73
     1
 74
     0
 95
        8
 96
        4
 40
0.3571428571428568
 40
0.3571428571428568
 40
0.3571428571428568
 40
0.3571428571428568
 40
0.4285714285714288
 40
0.4285714285714288
 40
0.4285714285714288
 40
0.4285714285714288
 10
5.112155722007223
 20
0.5749701157921066
 42
1.0
 10
5.112155722007223
 20
0.5478175456423812
 42
1.0
 10
5.132159078207917
 20
0.541823760210419
 42
1.0
 10
5.17945943312296
 20
0.5288251893940517
 42
1.0
 72
     1
 10
5.17945943312296
 20
0.5288251893940517
 11
5.260158893607784
 21
0.5109160473803965
 72
     4
 94
        3
 73
     1
 74
     0
 95
        8
 96
        4
 40
0.5
 40
0.5
 40
0.5
 40
0.5
 40
0.5714285714285712
 40
0.5714285714285712
 40
0.5714285714285712
 40
0.5714285714285712
 10
5.260158893607784
 20
0.5109160473803965
 42
1.0
 10
5.329773461757551
 20
0.494812262424626
 42
1.0
 10
5.446760599104657
 20
0.4696816921796885
 42
1.0
 10
5.446760599104657
 20
0.3383239126522652
 42
1.0
 72
     4
 94
        3
 73
     1
 74
     0
 95
        8
 96
        4
 40
0.5714285714285712
 40
0.5714285714285712
 40
0.5714285714285712
 40
0.5714285714285712
 40
0.6428571428571423
 40
0.6428571428571423
 40
0.6428571428571423
 40
0.6428571428571423
 10
5.446760599104657
 20
0.3383239126522652
 42
1.0
 10
5.446760599104657
 20
0.2700814158664645
 42
1.0
 10
5.412458815005992
 20
0.2146930613323655
 42
1.0
 10
5.343855246808602
 20
0.1834964913731101
 42
1.0
 72
     4
 94
        3
 73
     1
 74
     0
 95
        8
 96
        4
 40
0.6428571428571423
 40
0.6428571428571423
 40
0.6428571428571423
 40
0.6428571428571423
 40
0.7142857142857135
 40
0.7142857142857135
 40
0.7142857142857135
 40
0.7142857142857135
 10
5.343855246808602
 20
0.1834964913731101
 42
1.0
 10
5.289369570803398
 20
0.1583659211281989
 42
1.0
 10
5.230984323553323
 20
0.1573549211757951
 42
1.0
 10
5.207731324648514
 20
0.1573549211757951
 42
1.0
 72
     1
 10
5.207731324648514
 20
0.1573549211757951
 11
5.207731324648514
 21
0.2721034157712066
 72
     4
 94
        3
 73
     1
 74
     0
 95
        8
 96
        4
 40
0.7857142857142847
 40
0.7857142857142847
 40
0.7857142857142847
 40
0.7857142857142847
 40
0.8571428571428577
 40
0.8571428571428577
 40
0.8571428571428577
 40
0.8571428571428577
 10
5.207731324648514
 20
0.2721034157712066
 42
1.0
 10
5.228890109366239
 20
0.2730422014412873
 42
1.0
 10
5.288394677992181
 20
0.2780972012031883
 42
1.0
 10
5.288394677992181
 20
0.3241699133189202
 42
1.0
 72
     4
 94
        3
 73
     1
 74
     0
 95
        8
 96
        4
 40
0.8571428571428577
 40
0.8571428571428577
 40
0.8571428571428577
 40
0.8571428571428577
 40
0.9285714285714288
 40
0.9285714285714288
 40
0.9285714285714288
 40
0.9285714285714288
 10
5.288394677992181
 20
0.3241699133189202
 42
1.0
 10
5.288394677992181
 20
0.3573162689005946
 42
1.0
 10
5.254092893893466
 20
0.3673540541421129
 42
1.0
 10
5.218852324124724
 20
0.37645305371357
 42
1.0
 72
     1
 10
5.218852324124724
 20
0.37645305371357
 11
5.117138507486805
 21
0.401511409676178
 72
     4
 94
        3
 73
     1
 74
     0
 95
        8
 96
        4
 40
0.0
 40
0.0
 40
0.0
 40
0.0
 40
0.0714285714285714
 40
0.0714285714285714
 40
0.0714285714285714
 40
0.0714285714285714
 10
5.117138507486805
 20
0.401511409676178
 42
1.0
 10
5.054925903274125
 20
0.4184817660197261
 42
1.0
 10
4.963647050430452
 20
0.4436123362646833
 42
1.0
 10
4.963647050430452
 20
0.5599495450709906
 42
1.0
 72
     4
 94
        3
 73
     1
 74
     0
 95
        8
 96
        4
 40
0.0714285714285714
 40
0.0714285714285714
 40
0.0714285714285714
 40
0.0714285714285714
 40
0.1428571428571428
 40
0.1428571428571428
 40
0.1428571428571428
 40
0.1428571428571428
 10
4.963647050430452
 20
0.5599495450709906
 42
1.0
 10
4.963647050430452
 20
0.5879686866084411
 42
1.0
 10
4.96866594305122
 20
0.6321638273840113
 42
1.0
 10
5.003798191396503
 20
0.6703290755864515
 42
1.0
 72
     4
 94
        3
 73
     1
 74
     0
 95
        8
 96
        4
 40
0.1428571428571428
 40
0.1428571428571428
 40
0.1428571428571428
 40
0.1428571428571428
 40
0.2142857142857144
 40
0.2142857142857144
 40
0.2142857142857144
 40
0.2142857142857144
 10
5.003798191396503
 20
0.6703290755864515
 42
1.0
 10
5.056947903178896
 20
0.7266201086494501
 42
1.0
 10
5.134253292395013
 20
0.7306280013178579
 42
1.0
 10
5.17945943312296
 20
0.7336248940338619
 42
1.0
 72
     1
 10
5.17945943312296
 20
0.7336248940338619
 11
5.17945943312296
 21
0.6201040422377445
 72
     4
 94
        3
 73
     1
 74
     0
 95
        8
 96
        4
 40
0.2857142857142856
 40
0.2857142857142856
 40
0.2857142857142856
 40
0.2857142857142856
 40
0.3571428571428568
 40
0.3571428571428568
 40
0.3571428571428568
 40
0.3571428571428568
 10
5.17945943312296
 20
0.6201040422377445
 42
1.0
 10
5.146276970400124
 20
0.6180820423329828
 42
1.0
 10
5.112155722007223
 20
0.6090552570438421
 42
1.0
 10
5.112155722007223
 20
0.5749701157921066
 42
1.0
 97
        0
 75
     0
 76
     1
 98
        1
 10
0.0
 20
0.0
  0
INSERT
  5
21E
330
162
100
AcDbEntity
  8
0
  6
Continuous
 62
     7
100
AcDbBlockReference
  2
Block16_1
 10
0.0
 20
0.0233057873
 30
0.0
  0
ENDBLK
  5
164
330
162
100
AcDbEntity
  8
0
100
AcDbBlockEnd
  0
BLOCK
  5
231
330
230
100
AcDbEntity
  8
0
100
AcDbBlockBegin
  2
SW_NOTE_0
 70
     0
 10
0.0
 20
0.0
 30
0.0
  3
SW_NOTE_0
  1

  0
MTEXT
  5
233
330
230
100
AcDbEntity
  8
0
  6
Continuous
 62
     0
370
     0
100
AcDbMText
 10
0.0
 20
0.2417002012
 30
0.0
 40
0.1875
 41
0.0
 71
     1
 72
     1
  1
L'INFORMATION CONTENUE DANS CE DESSIN EST LA PROPRIÉTÉ EXCLUSIVE DE PLASTICASE INC. TOUTE
  7
SLDTEXTSTYLE0
 73
     1
 44
1.0
  0
MTEXT
  5
234
330
230
100
AcDbEntity
  8
0
  6
Continuous
 62
     0
370
     0
100
AcDbMText
 10
0.0
 20
-0.0082997958
 30
0.0
 40
0.1875
 41
0.0
 71
     1
 72
     1
  1
REPRODUCTION EN PARTIE OU COMPLÈTE N'EST PERMISESANS LE CONSENTEMENT ÉCRIT DE PLASTICASE INC.
  7
SLDTEXTSTYLE0
 73
     1
 44
1.0
  0
MTEXT
  5
235
330
230
100
AcDbEntity
  8
0
  6
Continuous
 62
     0
370
     0
100
AcDbMText
 10
0.0
 20
-0.2582997928
 30
0.0
 40
0.1875
 41
0.0
 71
     1
 72
     1
  1
THE INFORMATION CONTAINED IN THIS DRAWING IS THE SOLE & EXCLUSIVE PROPERTY OF PLASTICASE INC.
  7
SLDTEXTSTYLE0
 73
     1
 44
1.0
  0
MTEXT
  5
236
330
230
100
AcDbEntity
  8
0
  6
Continuous
 62
     0
370
     0
100
AcDbMText
 10
0.0
 20
-0.5082997897
 30
0.0
 40
0.1875
 41
0.0
 71
     1
 72
     1
  1
ANY REPRODUCTION IN PART OR WHOLE WITHOUT THE WRITTEN PERMISSION OF PLASTICASE INC. IS PROHIBITED.
  7
SLDTEXTSTYLE0
 73
     1
 44
1.0
  0
ENDBLK
  5
232
330
230
100
AcDbEntity
  8
0
100
AcDbBlockEnd
  0
BLOCK
  5
241
330
240
100
AcDbEntity
  8
0
100
AcDbBlockBegin
  2
SW_NOTE_1
 70
     0
 10
0.0
 20
0.0
 30
0.0
  3
SW_NOTE_1
  1

  0
MTEXT
  5
243
330
240
100
AcDbEntity
  8
LAYER1
 62
     0
100
AcDbMText
 10
0.0
 20
0.3222669349
 30
0.0
 40
0.25
 41
0.0
 71
     1
 72
     1
  1
1059, boulevard des Entreprises Ouest
  7
SLDTEXTSTYLE0
 73
     1
 44
1.0
  0
MTEXT
  5
244
330
240
100
AcDbEntity
  8
LAYER1
 62
     0
100
AcDbMText
 10
0.0
 20
-0.0110663944
 30
0.0
 40
0.25
 41
0.0
 71
     1
 72
     1
  1
Terrebonne, QC Canada J6Y 1V2
  7
SLDTEXTSTYLE0
 73
     1
 44
1.0
  0
MTEXT
  5
245
330
240
100
AcDbEntity
  8
LAYER1
 62
     0
100
AcDbMText
 10
0.0
 20
-0.3443997237
 30
0.0
 40
0.25
 41
0.0
 71
     1
 72
     1
  1
Tel  450-628-1006 1.800.783.6883
  7
SLDTEXTSTYLE0
 73
     1
 44
1.0
  0
MTEXT
  5
246
330
240
100
AcDbEntity
  8
LAYER1
 62
     0
100
AcDbMText
 10
0.0
 20
-0.677733053
 30
0.0
 40
0.25
 41
0.0
 71
     1
 72
     1
  1
Fax 450-628-7801 1.888.783.6883
  7
SLDTEXTSTYLE0
 73
     1
 44
1.0
  0
MTEXT
  5
247
330
240
100
AcDbEntity
  8
LAYER1
 62
     0
100
AcDbMText
 10
0.0
 20
-1.0110663823
 30
0.0
 40
0.25
 41
0.0
 71
     1
 72
     1
  1
www.plasticase.com
  7
SLDTEXTSTYLE0
 73
     1
 44
1.0
  0
ENDBLK
  5
242
330
240
100
AcDbEntity
  8
0
100
AcDbBlockEnd
  0
BLOCK
  5
24A
330
249
100
AcDbEntity
  8
0
100
AcDbBlockBegin
  2
SW_NOTE_2
 70
     0
 10
0.0
 20
0.0
 30
0.0
  3
SW_NOTE_2
  1

  0
MTEXT
  5
24C
330
249
100
AcDbEntity
  8
LAYER1
 62
     0
100
AcDbMText
 10
0.0
 20
0.2417002012
 30
0.0
 40
0.1875
 41
0.0
 71
     1
 72
     1
  1
DIMENSIONS EN POUCE [MILLIMETRES] SAUF SI INDIQUÉ
  7
SLDTEXTSTYLE0
 73
     1
 44
1.0
  0
MTEXT
  5
24D
330
249
100
AcDbEntity
  8
LAYER1
 62
     0
100
AcDbMText
 10
0.0
 20
-0.0082997958
 30
0.0
 40
0.1875
 41
0.0
 71
     1
 72
     1
  1
DIMENSIONS ARE IN INCHES [MILLIMETERS] UNLESS OTHERWISE SPECIFIED
  7
SLDTEXTSTYLE0
 73
     1
 44
1.0
  0
ENDBLK
  5
24B
330
249
100
AcDbEntity
  8
0
100
AcDbBlockEnd
  0
BLOCK
  5
271
330
270
100
AcDbEntity
  8
0
100
AcDbBlockBegin
  2
_D
 70
     0
 10
0.0
 20
0.0
 30
0.0
  3
_D
  1

  0
SOLID
  5
273
330
270
100
AcDbEntity
  8
DIMENSION
100
AcDbTrace
 10
5.279220896
 20
9.748952992
 30
0.0
 11
5.3176824345
 21
9.998952992
 31
0.0
 12
5.2407593576
 22
9.998952992
 32
0.0
 13
5.2407593576
 23
9.998952992
 33
0.0
  0
SOLID
  5
274
330
270
100
AcDbEntity
  8
DIMENSION
100
AcDbTrace
 10
5.279220896
 20
13.6701481817
 30
0.0
 11
5.2407593576
 21
13.4201481817
 31
0.0
 12
5.3176824345
 22
13.4201481817
 32
0.0
 13
5.3176824345
 23
13.4201481817
 33
0.0
  0
LINE
  5
275
330
270
100
AcDbEntity
  8
DIMENSION
100
AcDbLine
 10
5.1062116599
 20
11.880400328
 30
0.0
 11
5.0555172159
 21
11.880400328
 31
0.0
  0
LINE
  5
276
330
270
100
AcDbEntity
  8
DIMENSION
100
AcDbLine
 10
5.0555172159
 20
11.880400328
 30
0.0
 11
5.0555172159
 21
11.4831781142
 31
0.0
  0
LINE
  5
277
330
270
100
AcDbEntity
  8
DIMENSION
100
AcDbLine
 10
5.0555172159
 20
11.4831781142
 30
0.0
 11
5.1062116599
 21
11.4831781142
 31
0.0
  0
LINE
  5
278
330
270
100
AcDbEntity
  8
DIMENSION
100
AcDbLine
 10
5.8792440992
 20
11.880400328
 30
0.0
 11
5.9299385432
 21
11.880400328
 31
0.0
  0
LINE
  5
279
330
270
100
AcDbEntity
  8
DIMENSION
100
AcDbLine
 10
5.9299385432
 20
11.880400328
 30
0.0
 11
5.9299385432
 21
11.4831781142
 31
0.0
  0
LINE
  5
27A
330
270
100
AcDbEntity
  8
DIMENSION
100
AcDbLine
 10
5.9299385432
 20
11.4831781142
 30
0.0
 11
5.8792440992
 21
11.4831781142
 31
0.0
  0
LINE
  5
27B
330
270
100
AcDbEntity
  8
DIMENSION
100
AcDbLine
 10
11.2334869518
 20
9.748952992
 30
0.0
 11
4.904220896
 21
9.748952992
 31
0.0
  0
LINE
  5
27C
330
270
100
AcDbEntity
  8
DIMENSION
100
AcDbLine
 10
10.5622917622
 20
13.6701481817
 30
0.0
 11
4.904220896
 21
13.6701481817
 31
0.0
  0
LINE
  5
27D
330
270
100
AcDbEntity
  8
DIMENSION
100
AcDbLine
 10
5.279220896
 20
9.748952992
 30
0.0
 11
5.279220896
 21
11.4324836874
 31
0.0
  0
LINE
  5
27E
330
270
100
AcDbEntity
  8
DIMENSION
100
AcDbLine
 10
5.279220896
 20
13.6701481817
 30
0.0
 11
5.279220896
 21
12.2644281117
 31
0.0
  0
INSERT
  5
284
330
270
100
AcDbEntity
  8
DIMENSION
100
AcDbBlockReference
  2
SW_SYMBOL_MOD_CL
 10
4.5904824974
 20
11.9657627374
 30
0.0
 41
0.0027037109
 42
0.0027037109
 43
0.0027037109
  0
MTEXT
  5
285
330
270
100
AcDbEntity
  8
DIMENSION
100
AcDbMText
 10
5.0772185696
 20
12.2533617035
 30
0.0
 40
0.25
 41
0.0
 71
     1
 72
     1
  1
3.921
  7
SLDTEXTSTYLE1
 73
     1
 44
1.0
  0
MTEXT
  5
286
330
270
100
AcDbEntity
  8
DIMENSION
100
AcDbMText
 10
5.1695797176
 20
11.8054450354
 30
0.0
 40
0.25
 41
0.0
 71
     1
 72
     1
  1
99.6
  7
SLDTEXTSTYLE1
 73
     1
 44
1.0
  0
ENDBLK
  5
272
330
270
100
AcDbEntity
  8
0
100
AcDbBlockEnd
  0
BLOCK
  5
280
330
27F
100
AcDbEntity
  8
0
100
AcDbBlockBegin
  2
SW_SYMBOL_MOD_CL
 70
     0
 10
0.0
 20
0.0
 30
0.0
  3
SW_SYMBOL_MOD_CL
  1

  0
MTEXT
  5
282
330
27F
100
AcDbEntity
  8
DIMENSION
 62
     0
100
AcDbMText
 10
47.2440944882
 20
70.8661417323
 30
0.0
 40
92.4655060319
 41
0.0
 71
     5
 72
     1
  1
C
  7
SLDTEXTSTYLE1
 73
     1
 44
1.0
  0
MTEXT
  5
283
330
27F
100
AcDbEntity
  8
DIMENSION
 62
     0
100
AcDbMText
 10
70.8661417323
 20
35.4330708661
 30
0.0
 40
92.4655060319
 41
0.0
 71
     5
 72
     1
  1
L
  7
SLDTEXTSTYLE1
 73
     1
 44
1.0
  0
ENDBLK
  5
281
330
27F
100
AcDbEntity
  8
0
100
AcDbBlockEnd
  0
BLOCK
  5
289
330
288
100
AcDbEntity
  8
0
100
AcDbBlockBegin
  2
_D_1
 70
     0
 10
0.0
 20
0.0
 30
0.0
  3
_D_1
  1

  0
SOLID
  5
28B
330
288
100
AcDbEntity
  8
DIMENSION
100
AcDbTrace
 10
3.628635161
 20
17.5913433714
 30
0.0
 11
3.5901736226
 21
17.3413433714
 31
0.0
 12
3.6670966995
 22
17.3413433714
 32
0.0
 13
3.6670966995
 23
17.3413433714
 33
0.0
  0
SOLID
  5
28C
330
288
100
AcDbEntity
  8
DIMENSION
100
AcDbTrace
 10
3.628635161
 20
9.748952992
 30
0.0
 11
3.6670966995
 21
9.998952992
 31
0.0
 12
3.5901736226
 22
9.998952992
 32
0.0
 13
3.5901736226
 23
9.998952992
 33
0.0
  0
LINE
  5
28D
330
288
100
AcDbEntity
  8
DIMENSION
100
AcDbLine
 10
3.1497578209
 20
12.7577593007
 30
0.0
 11
3.0990633768
 21
12.7577593007
 31
0.0
  0
LINE
  5
28E
330
288
100
AcDbEntity
  8
DIMENSION
100
AcDbLine
 10
3.0990633768
 20
12.7577593007
 30
0.0
 11
3.0990633768
 21
12.360537087
 31
0.0
  0
LINE
  5
28F
330
288
100
AcDbEntity
  8
DIMENSION
100
AcDbLine
 10
3.0990633768
 20
12.360537087
 30
0.0
 11
3.1497578209
 21
12.360537087
 31
0.0
  0
LINE
  5
290
330
288
100
AcDbEntity
  8
DIMENSION
100
AcDbLine
 10
4.1075125012
 20
12.7577593007
 30
0.0
 11
4.1582069452
 21
12.7577593007
 31
0.0
  0
LINE
  5
291
330
288
100
AcDbEntity
  8
DIMENSION
100
AcDbLine
 10
4.1582069452
 20
12.7577593007
 30
0.0
 11
4.1582069452
 21
12.360537087
 31
0.0
  0
LINE
  5
292
330
288
100
AcDbEntity
  8
DIMENSION
100
AcDbLine
 10
4.1582069452
 20
12.360537087
 30
0.0
 11
4.1075125012
 21
12.360537087
 31
0.0
  0
LINE
  5
293
330
288
100
AcDbEntity
  8
DIMENSION
100
AcDbLine
 10
11.2334869518
 20
17.5913433714
 30
0.0
 11
3.253635161
 21
17.5913433714
 31
0.0
  0
LINE
  5
294
330
288
100
AcDbEntity
  8
DIMENSION
100
AcDbLine
 10
11.2334869518
 20
9.748952992
 30
0.0
 11
3.253635161
 21
9.748952992
 31
0.0
  0
LINE
  5
295
330
288
100
AcDbEntity
  8
DIMENSION
100
AcDbLine
 10
3.628635161
 20
17.5913433714
 30
0.0
 11
3.628635161
 21
13.2056759689
 31
0.0
  0
LINE
  5
296
330
288
100
AcDbEntity
  8
DIMENSION
100
AcDbLine
 10
3.628635161
 20
9.748952992
 30
0.0
 11
3.628635161
 21
12.3098426876
 31
0.0
  0
MTEXT
  5
297
330
288
100
AcDbEntity
  8
DIMENSION
100
AcDbMText
 10
3.0642832865
 20
13.1307206763
 30
0.0
 40
0.25
 41
0.0
 71
     1
 72
     1
  1

  7
SLDTEXTSTYLE1
 73
     1
 44
1.0
  0
MTEXT
  5
298
330
288
100
AcDbEntity
  8
DIMENSION
100
AcDbMText
 10
3.2131258785
 20
13.1307206763
 30
0.0
 40
0.25
 41
0.0
 71
     1
 72
     1
  1
7.842
  7
SLDTEXTSTYLE1
 73
     1
 44
1.0
  0
MTEXT
  5
299
330
288
100
AcDbEntity
  8
DIMENSION
100
AcDbMText
 10
3.2131258785
 20
12.6828040082
 30
0.0
 40
0.25
 41
0.0
 71
     1
 72
     1
  1
199.2
  7
SLDTEXTSTYLE1
 73
     1
 44
1.0
  0
MTEXT
  5
29A
330
288
100
AcDbEntity
  8
DIMENSION
100
AcDbMText
 10
4.3837277241
 20
13.1307206763
 30
0.0
 40
0.25
 41
0.0
 71
     1
 72
     1
  1

  7
SLDTEXTSTYLE1
 73
     1
 44
1.0
  0
ENDBLK
  5
28A
330
288
100
AcDbEntity
  8
0
100
AcDbBlockEnd
  0
BLOCK
  5
29D
330
29C
100
AcDbEntity
  8
0
100
AcDbBlockBegin
  2
_D_2
 70
     0
 10
0.0
 20
0.0
 30
0.0
  3
_D_2
  1

  0
SOLID
  5
29F
330
29C
100
AcDbEntity
  8
DIMENSION
100
AcDbTrace
 10
10.7122917622
 20
5.5167549639
 30
0.0
 11
10.9622917622
 21
5.4782934255
 31
0.0
 12
10.9622917622
 22
5.5552165024
 32
0.0
 13
10.9622917622
 23
5.5552165024
 33
0.0
  0
SOLID
  5
2A0
330
29C
100
AcDbEntity
  8
DIMENSION
100
AcDbTrace
 10
20.5546821415
 20
5.5167549639
 30
0.0
 11
20.3046821415
 21
5.5552165024
 31
0.0
 12
20.3046821415
 22
5.4782934255
 32
0.0
 13
20.3046821415
 23
5.4782934255
 33
0.0
  0
LINE
  5
2A1
330
29C
100
AcDbEntity
  8
DIMENSION
100
AcDbLine
 10
15.2930355326
 20
5.5167549364
 30
0.0
 11
15.2423410885
 21
5.5167549364
 31
0.0
  0
LINE
  5
2A2
330
29C
100
AcDbEntity
  8
DIMENSION
100
AcDbLine
 10
15.2423410885
 20
5.5167549364
 30
0.0
 11
15.2423410885
 21
5.1195327227
 31
0.0
  0
LINE
  5
2A3
330
29C
100
AcDbEntity
  8
DIMENSION
100
AcDbLine
 10
15.2423410885
 20
5.1195327227
 30
0.0
 11
15.2930355326
 21
5.1195327227
 31
0.0
  0
LINE
  5
2A4
330
29C
100
AcDbEntity
  8
DIMENSION
100
AcDbLine
 10
15.9739383161
 20
5.5167549364
 30
0.0
 11
16.0246327602
 21
5.5167549364
 31
0.0
  0
LINE
  5
2A5
330
29C
100
AcDbEntity
  8
DIMENSION
100
AcDbLine
 10
16.0246327602
 20
5.5167549364
 30
0.0
 11
16.0246327602
 21
5.1195327227
 31
0.0
  0
LINE
  5
2A6
330
29C
100
AcDbEntity
  8
DIMENSION
100
AcDbLine
 10
16.0246327602
 20
5.1195327227
 30
0.0
 11
15.9739383161
 21
5.1195327227
 31
0.0
  0
LINE
  5
2A7
330
29C
100
AcDbEntity
  8
DIMENSION
100
AcDbLine
 10
10.7122917622
 20
10.2701481817
 30
0.0
 11
10.7122917622
 21
5.1417549639
 31
0.0
  0
LINE
  5
2A8
330
29C
100
AcDbEntity
  8
DIMENSION
100
AcDbLine
 10
20.5546821415
 20
10.2701481817
 30
0.0
 11
20.5546821415
 21
5.1417549639
 31
0.0
  0
LINE
  5
2A9
330
29C
100
AcDbEntity
  8
DIMENSION
100
AcDbLine
 10
10.7122917622
 20
5.5167549639
 30
0.0
 11
14.9693401859
 21
5.5167549639
 31
0.0
  0
LINE
  5
2AA
330
29C
100
AcDbEntity
  8
DIMENSION
100
AcDbLine
 10
20.5546821415
 20
5.5167549639
 30
0.0
 11
16.2976337178
 21
5.5167549639
 31
0.0
  0
MTEXT
  5
2AB
330
29C
100
AcDbEntity
  8
DIMENSION
100
AcDbMText
 10
15.2075609982
 20
5.889716312
 30
0.0
 40
0.25
 41
0.0
 71
     1
 72
     1
  1

  7
SLDTEXTSTYLE1
 73
     1
 44
1.0
  0
MTEXT
  5
2AC
330
29C
100
AcDbEntity
  8
DIMENSION
100
AcDbMText
 10
15.2179776418
 20
5.889716312
 30
0.0
 40
0.25
 41
0.0
 71
     1
 72
     1
  1
9.842
  7
SLDTEXTSTYLE1
 73
     1
 44
1.0
  0
MTEXT
  5
2AD
330
29C
100
AcDbEntity
  8
DIMENSION
100
AcDbMText
 10
15.3564035902
 20
5.4417996439
 30
0.0
 40
0.25
 41
0.0
 71
     1
 72
     1
  1
250
  7
SLDTEXTSTYLE1
 73
     1
 44
1.0
  0
MTEXT
  5
2AE
330
29C
100
AcDbEntity
  8
DIMENSION
100
AcDbMText
 10
16.2501535941
 20
5.889716312
 30
0.0
 40
0.25
 41
0.0
 71
     1
 72
     1
  1

  7
SLDTEXTSTYLE1
 73
     1
 44
1.0
  0
ENDBLK
  5
29E
330
29C
100
AcDbEntity
  8
0
100
AcDbBlockEnd
  0
BLOCK
  5
2B2
330
2B1
100
AcDbEntity
  8
0
100
AcDbBlockBegin
  2
_D_3
 70
     0
 10
0.0
 20
0.0
 30
0.0
  3
_D_3
  1

  0
SOLID
  5
2B4
330
2B1
100
AcDbEntity
  8
DIMENSION
100
AcDbTrace
 10
10.7122917622
 20
7.7242985362
 30
0.0
 11
10.4622917622
 21
7.7627600746
 31
0.0
 12
10.4622917622
 22
7.6858369977
 32
0.0
 13
10.4622917622
 23
7.6858369977
 33
0.0
  0
SOLID
  5
2B5
330
2B1
100
AcDbEntity
  8
DIMENSION
100
AcDbTrace
 10
12.3379779867
 20
7.7242985362
 30
0.0
 11
12.5879779867
 21
7.6858369977
 31
0.0
 12
12.5879779867
 22
7.7627600746
 32
0.0
 13
12.5879779867
 23
7.7627600746
 33
0.0
  0
LINE
  5
2B6
330
2B1
100
AcDbEntity
  8
DIMENSION
100
AcDbLine
 10
11.154091173
 20
7.7242985087
 30
0.0
 11
11.103396729
 21
7.7242985087
 31
0.0
  0
LINE
  5
2B7
330
2B1
100
AcDbEntity
  8
DIMENSION
100
AcDbLine
 10
11.103396729
 20
7.7242985087
 30
0.0
 11
11.103396729
 21
7.3270762949
 31
0.0
  0
LINE
  5
2B8
330
2B1
100
AcDbEntity
  8
DIMENSION
100
AcDbLine
 10
11.103396729
 20
7.3270762949
 30
0.0
 11
11.154091173
 21
7.3270762949
 31
0.0
  0
LINE
  5
2B9
330
2B1
100
AcDbEntity
  8
DIMENSION
100
AcDbLine
 10
11.9271236123
 20
7.7242985087
 30
0.0
 11
11.9778180563
 21
7.7242985087
 31
0.0
  0
LINE
  5
2BA
330
2B1
100
AcDbEntity
  8
DIMENSION
100
AcDbLine
 10
11.9778180563
 20
7.7242985087
 30
0.0
 11
11.9778180563
 21
7.3270762949
 31
0.0
  0
LINE
  5
2BB
330
2B1
100
AcDbEntity
  8
DIMENSION
100
AcDbLine
 10
11.9778180563
 20
7.3270762949
 30
0.0
 11
11.9271236123
 21
7.3270762949
 31
0.0
  0
LINE
  5
2BC
330
2B1
100
AcDbEntity
  8
DIMENSION
100
AcDbLine
 10
10.7122917622
 20
10.2701481817
 30
0.0
 11
10.7122917622
 21
7.3492985362
 31
0.0
  0
LINE
  5
2BD
330
2B1
100
AcDbEntity
  8
DIMENSION
100
AcDbLine
 10
12.3379779867
 20
9.6401334063
 30
0.0
 11
12.3379779867
 21
7.3492985362
 31
0.0
  0
LINE
  5
2BE
330
2B1
100
AcDbEntity
  8
DIMENSION
100
AcDbLine
 10
10.7122917622
 20
7.7242985362
 30
0.0
 11
10.2315225314
 21
7.7242985362
 31
0.0
  0
LINE
  5
2BF
330
2B1
100
AcDbEntity
  8
DIMENSION
100
AcDbLine
 10
12.3379779867
 20
7.7242985362
 30
0.0
 11
12.8187472174
 21
7.7242985362
 31
0.0
  0
MTEXT
  5
2C0
330
2B1
100
AcDbEntity
  8
DIMENSION
100
AcDbMText
 10
11.0686166387
 20
8.0972598843
 30
0.0
 40
0.25
 41
0.0
 71
     1
 72
     1
  1

  7
SLDTEXTSTYLE1
 73
     1
 44
1.0
  0
MTEXT
  5
2C1
330
2B1
100
AcDbEntity
  8
DIMENSION
100
AcDbMText
 10
11.1250980827
 20
8.0972598843
 30
0.0
 40
0.25
 41
0.0
 71
     1
 72
     1
  1
1.626
  7
SLDTEXTSTYLE1
 73
     1
 44
1.0
  0
MTEXT
  5
2C2
330
2B1
100
AcDbEntity
  8
DIMENSION
100
AcDbMText
 10
11.2174592307
 20
7.6493432161
 30
0.0
 40
0.25
 41
0.0
 71
     1
 72
     1
  1
41.3
  7
SLDTEXTSTYLE1
 73
     1
 44
1.0
  0
MTEXT
  5
2C3
330
2B1
100
AcDbEntity
  8
DIMENSION
100
AcDbMText
 10
12.2033388902
 20
8.0972598843
 30
0.0
 40
0.25
 41
0.0
 71
     1
 72
     1
  1

  7
SLDTEXTSTYLE1
 73
     1
 44
1.0
  0
ENDBLK
  5
2B3
330
2B1
100
AcDbEntity
  8
0
100
AcDbBlockEnd
  0
BLOCK
  5
2C6
330
2C5
100
AcDbEntity
  8
0
100
AcDbBlockBegin
  2
_D_4
 70
     0
 10
0.0
 20
0.0
 30
0.0
  3
_D_4
  1

  0
SOLID
  5
2C8
330
2C5
100
AcDbEntity
  8
DIMENSION
100
AcDbTrace
 10
10.7122917622
 20
6.814361656
 30
0.0
 11
10.9622917622
 21
6.7759001175
 31
0.0
 12
10.9622917622
 22
6.8528231945
 32
0.0
 13
10.9622917622
 23
6.8528231945
 33
0.0
  0
SOLID
  5
2C9
330
2C5
100
AcDbEntity
  8
DIMENSION
100
AcDbTrace
 10
15.6334869518
 20
6.814361656
 30
0.0
 11
15.3834869518
 21
6.8528231945
 31
0.0
 12
15.3834869518
 22
6.7759001175
 32
0.0
 13
15.3834869518
 23
6.7759001175
 33
0.0
  0
LINE
  5
2CA
330
2C5
100
AcDbEntity
  8
DIMENSION
100
AcDbLine
 10
13.1519683462
 20
6.8463060845
 30
0.0
 11
13.1012739021
 21
6.8463060845
 31
0.0
  0
LINE
  5
2CB
330
2C5
100
AcDbEntity
  8
DIMENSION
100
AcDbLine
 10
13.1012739021
 20
6.8463060845
 30
0.0
 11
13.1012739021
 21
6.4490838707
 31
0.0
  0
LINE
  5
2CC
330
2C5
100
AcDbEntity
  8
DIMENSION
100
AcDbLine
 10
13.1012739021
 20
6.4490838707
 30
0.0
 11
13.1519683462
 21
6.4490838707
 31
0.0
  0
LINE
  5
2CD
330
2C5
100
AcDbEntity
  8
DIMENSION
100
AcDbLine
 10
13.8328711297
 20
6.8463060845
 30
0.0
 11
13.8835655737
 21
6.8463060845
 31
0.0
  0
LINE
  5
2CE
330
2C5
100
AcDbEntity
  8
DIMENSION
100
AcDbLine
 10
13.8835655737
 20
6.8463060845
 30
0.0
 11
13.8835655737
 21
6.4490838707
 31
0.0
  0
LINE
  5
2CF
330
2C5
100
AcDbEntity
  8
DIMENSION
100
AcDbLine
 10
13.8835655737
 20
6.4490838707
 30
0.0
 11
13.8328711297
 21
6.4490838707
 31
0.0
  0
LINE
  5
2D0
330
2C5
100
AcDbEntity
  8
DIMENSION
100
AcDbLine
 10
10.7122917622
 20
10.2701481817
 30
0.0
 11
10.7122917622
 21
6.439361656
 31
0.0
  0
LINE
  5
2D1
330
2C5
100
AcDbEntity
  8
DIMENSION
100
AcDbLine
 10
15.6334869518
 20
9.6401334063
 30
0.0
 11
15.6334869518
 21
6.439361656
 31
0.0
  0
LINE
  5
2D2
330
2C5
100
AcDbEntity
  8
DIMENSION
100
AcDbLine
 10
10.7122917622
 20
6.814361656
 30
0.0
 11
12.5855183713
 21
6.814361656
 31
0.0
  0
LINE
  5
2D3
330
2C5
100
AcDbEntity
  8
DIMENSION
100
AcDbLine
 10
15.6334869518
 20
6.814361656
 30
0.0
 11
13.9723072475
 21
6.814361656
 31
0.0
  0
INSERT
  5
2D4
330
2C5
100
AcDbEntity
  8
DIMENSION
100
AcDbBlockReference
  2
SW_SYMBOL_MOD_CL
 10
12.6362391836
 20
6.9316684939
 30
0.0
 41
0.0027037109
 42
0.0027037109
 43
0.0027037109
  0
MTEXT
  5
2D5
330
2C5
100
AcDbEntity
  8
DIMENSION
100
AcDbMText
 10
13.0769104554
 20
7.21926746
 30
0.0
 40
0.25
 41
0.0
 71
     1
 72
     1
  1
4.921
  7
SLDTEXTSTYLE1
 73
     1
 44
1.0
  0
MTEXT
  5
2D6
330
2C5
100
AcDbEntity
  8
DIMENSION
100
AcDbMText
 10
13.2153364038
 20
6.7713507919
 30
0.0
 40
0.25
 41
0.0
 71
     1
 72
     1
  1
125
  7
SLDTEXTSTYLE1
 73
     1
 44
1.0
  0
ENDBLK
  5
2C7
330
2C5
100
AcDbEntity
  8
0
100
AcDbBlockEnd
  0
BLOCK
  5
2D9
330
2D8
100
AcDbEntity
  8
0
100
AcDbBlockBegin
  2
_D_5
 70
     0
 10
0.0
 20
0.0
 30
0.0
  3
_D_5
  1

  0
SOLID
  5
2DB
330
2D8
100
AcDbEntity
  8
DIMENSION
100
AcDbTrace
 10
10.7122917622
 20
8.8664839885
 30
0.0
 11
10.4622917622
 21
8.904945527
 31
0.0
 12
10.4622917622
 22
8.8280224501
 32
0.0
 13
10.4622917622
 23
8.8280224501
 33
0.0
  0
SOLID
  5
2DC
330
2D8
100
AcDbEntity
  8
DIMENSION
100
AcDbTrace
 10
10.9382221765
 20
8.8664839885
 30
0.0
 11
11.1882221765
 21
8.8280224501
 31
0.0
 12
11.1882221765
 22
8.904945527
 32
0.0
 13
11.1882221765
 23
8.904945527
 33
0.0
  0
LINE
  5
2DD
330
2D8
100
AcDbEntity
  8
DIMENSION
100
AcDbLine
 10
8.5283728286
 20
8.866483961
 30
0.0
 11
8.4776783845
 21
8.866483961
 31
0.0
  0
LINE
  5
2DE
330
2D8
100
AcDbEntity
  8
DIMENSION
100
AcDbLine
 10
8.4776783845
 20
8.866483961
 30
0.0
 11
8.4776783845
 21
8.4692617473
 31
0.0
  0
LINE
  5
2DF
330
2D8
100
AcDbEntity
  8
DIMENSION
100
AcDbLine
 10
8.4776783845
 20
8.4692617473
 30
0.0
 11
8.5283728286
 21
8.4692617473
 31
0.0
  0
LINE
  5
2E0
330
2D8
100
AcDbEntity
  8
DIMENSION
100
AcDbLine
 10
9.1166830267
 20
8.866483961
 30
0.0
 11
9.1673774708
 21
8.866483961
 31
0.0
  0
LINE
  5
2E1
330
2D8
100
AcDbEntity
  8
DIMENSION
100
AcDbLine
 10
9.1673774708
 20
8.866483961
 30
0.0
 11
9.1673774708
 21
8.4692617473
 31
0.0
  0
LINE
  5
2E2
330
2D8
100
AcDbEntity
  8
DIMENSION
100
AcDbLine
 10
9.1673774708
 20
8.4692617473
 30
0.0
 11
9.1166830267
 21
8.4692617473
 31
0.0
  0
LINE
  5
2E3
330
2D8
100
AcDbEntity
  8
DIMENSION
100
AcDbLine
 10
10.7122917622
 20
10.2701481817
 30
0.0
 11
10.7122917622
 21
8.4914839885
 31
0.0
  0
LINE
  5
2E4
330
2D8
100
AcDbEntity
  8
DIMENSION
100
AcDbLine
 10
10.9382221765
 20
11.4738384051
 30
0.0
 11
10.9382221765
 21
8.4914839885
 31
0.0
  0
LINE
  5
2E5
330
2D8
100
AcDbEntity
  8
DIMENSION
100
AcDbLine
 10
10.7122917622
 20
8.8664839885
 30
0.0
 11
9.4403784834
 21
8.8664839885
 31
0.0
  0
LINE
  5
2E6
330
2D8
100
AcDbEntity
  8
DIMENSION
100
AcDbLine
 10
10.9382221765
 20
8.8664839885
 30
0.0
 11
11.4189914072
 21
8.8664839885
 31
0.0
  0
MTEXT
  5
2E7
330
2D8
100
AcDbEntity
  8
DIMENSION
100
AcDbMText
 10
8.4428982942
 20
9.2394453366
 30
0.0
 40
0.25
 41
0.0
 71
     1
 72
     1
  1

  7
SLDTEXTSTYLE1
 73
     1
 44
1.0
  0
MTEXT
  5
2E8
330
2D8
100
AcDbEntity
  8
DIMENSION
100
AcDbMText
 10
8.4993797657
 20
9.2394453366
 30
0.0
 40
0.25
 41
0.0
 71
     1
 72
     1
  1
.226
  7
SLDTEXTSTYLE1
 73
     1
 44
1.0
  0
MTEXT
  5
2E9
330
2D8
100
AcDbEntity
  8
DIMENSION
100
AcDbMText
 10
8.5917408862
 20
8.7915286685
 30
0.0
 40
0.25
 41
0.0
 71
     1
 72
     1
  1
5.7
  7
SLDTEXTSTYLE1
 73
     1
 44
1.0
  0
MTEXT
  5
2EA
330
2D8
100
AcDbEntity
  8
DIMENSION
100
AcDbMText
 10
9.3928983597
 20
9.2394453366
 30
0.0
 40
0.25
 41
0.0
 71
     1
 72
     1
  1

  7
SLDTEXTSTYLE1
 73
     1
 44
1.0
  0
ENDBLK
  5
2DA
330
2D8
100
AcDbEntity
  8
0
100
AcDbBlockEnd
  0
BLOCK
  5
2ED
330
2EC
100
AcDbEntity
  8
0
100
AcDbBlockBegin
  2
_D_6
 70
     0
 10
0.0
 20
0.0
 30
0.0
  3
_D_6
  1

  0
SOLID
  5
2EF
330
2EC
100
AcDbEntity
  8
DIMENSION
100
AcDbTrace
 10
9.8541608069
 20
9.748952992
 30
0.0
 11
9.8156992684
 21
9.498952992
 31
0.0
 12
9.8926223454
 22
9.498952992
 32
0.0
 13
9.8926223454
 23
9.498952992
 33
0.0
  0
SOLID
  5
2F0
330
2EC
100
AcDbEntity
  8
DIMENSION
100
AcDbTrace
 10
9.8541608069
 20
9.9748834063
 30
0.0
 11
9.8926223454
 21
10.2248834063
 31
0.0
 12
9.8156992684
 22
10.2248834063
 32
0.0
 13
9.8156992684
 23
10.2248834063
 33
0.0
  0
LINE
  5
2F1
330
2EC
100
AcDbEntity
  8
DIMENSION
100
AcDbLine
 10
8.0907135274
 20
11.0901197335
 30
0.0
 11
8.0400190833
 21
11.0901197335
 31
0.0
  0
LINE
  5
2F2
330
2EC
100
AcDbEntity
  8
DIMENSION
100
AcDbLine
 10
8.0400190833
 20
11.0901197335
 30
0.0
 11
8.0400190833
 21
10.6928975198
 31
0.0
  0
LINE
  5
2F3
330
2EC
100
AcDbEntity
  8
DIMENSION
100
AcDbLine
 10
8.0400190833
 20
10.6928975198
 30
0.0
 11
8.0907135274
 21
10.6928975198
 31
0.0
  0
LINE
  5
2F4
330
2EC
100
AcDbEntity
  8
DIMENSION
100
AcDbLine
 10
8.6790237256
 20
11.0901197335
 30
0.0
 11
8.7297181696
 21
11.0901197335
 31
0.0
  0
LINE
  5
2F5
330
2EC
100
AcDbEntity
  8
DIMENSION
100
AcDbLine
 10
8.7297181696
 20
11.0901197335
 30
0.0
 11
8.7297181696
 21
10.6928975198
 31
0.0
  0
LINE
  5
2F6
330
2EC
100
AcDbEntity
  8
DIMENSION
100
AcDbLine
 10
8.7297181696
 20
10.6928975198
 30
0.0
 11
8.6790237256
 21
10.6928975198
 31
0.0
  0
LINE
  5
2F7
330
2EC
100
AcDbEntity
  8
DIMENSION
100
AcDbLine
 10
11.2334869518
 20
9.748952992
 30
0.0
 11
9.4791608069
 21
9.748952992
 31
0.0
  0
LINE
  5
2F8
330
2EC
100
AcDbEntity
  8
DIMENSION
100
AcDbLine
 10
12.0032279867
 20
9.9748834063
 30
0.0
 11
9.4791608069
 21
9.9748834063
 31
0.0
  0
LINE
  5
2F9
330
2EC
100
AcDbEntity
  8
DIMENSION
100
AcDbLine
 10
9.1041608069
 20
11.090119761
 30
0.0
 11
9.8541608069
 21
11.090119761
 31
0.0
  0
LINE
  5
2FA
330
2EC
100
AcDbEntity
  8
DIMENSION
100
AcDbLine
 10
9.8541608069
 20
11.090119761
 30
0.0
 11
9.8541608069
 21
9.9748834063
 31
0.0
  0
LINE
  5
2FB
330
2EC
100
AcDbEntity
  8
DIMENSION
100
AcDbLine
 10
9.8541608069
 20
9.748952992
 30
0.0
 11
9.8541608069
 21
9.2681837613
 31
0.0
  0
MTEXT
  5
2FC
330
2EC
100
AcDbEntity
  8
DIMENSION
100
AcDbMText
 10
8.005238993
 20
11.4630811091
 30
0.0
 40
0.25
 41
0.0
 71
     1
 72
     1
  1

  7
SLDTEXTSTYLE1
 73
     1
 44
1.0
  0
MTEXT
  5
2FD
330
2EC
100
AcDbEntity
  8
DIMENSION
100
AcDbMText
 10
8.0617204645
 20
11.4630811091
 30
0.0
 40
0.25
 41
0.0
 71
     1
 72
     1
  1
.226
  7
SLDTEXTSTYLE1
 73
     1
 44
1.0
  0
MTEXT
  5
2FE
330
2EC
100
AcDbEntity
  8
DIMENSION
100
AcDbMText
 10
8.1540815851
 20
11.0151644409
 30
0.0
 40
0.25
 41
0.0
 71
     1
 72
     1
  1
5.7
  7
SLDTEXTSTYLE1
 73
     1
 44
1.0
  0
MTEXT
  5
2FF
330
2EC
100
AcDbEntity
  8
DIMENSION
100
AcDbMText
 10
8.9552390585
 20
11.4630811091
 30
0.0
 40
0.25
 41
0.0
 71
     1
 72
     1
  1

  7
SLDTEXTSTYLE1
 73
     1
 44
1.0
  0
ENDBLK
  5
2EE
330
2EC
100
AcDbEntity
  8
0
100
AcDbBlockEnd
  0
BLOCK
  5
303
330
302
100
AcDbEntity
  8
0
100
AcDbBlockBegin
  2
_D_7
 70
     0
 10
0.0
 20
0.0
 30
0.0
  3
_D_7
  1

  0
SOLID
  5
305
330
302
100
AcDbEntity
  8
DIMENSION
100
AcDbTrace
 10
6.6965437307
 20
9.748952992
 30
0.0
 11
6.7350052691
 21
9.998952992
 31
0.0
 12
6.6580821922
 22
9.998952992
 32
0.0
 13
6.6580821922
 23
9.998952992
 33
0.0
  0
SOLID
  5
306
330
302
100
AcDbEntity
  8
DIMENSION
100
AcDbTrace
 10
6.6965437307
 20
11.8085884051
 30
0.0
 11
6.6580821922
 21
11.5585884051
 31
0.0
 12
6.7350052691
 22
11.5585884051
 32
0.0
 13
6.7350052691
 23
11.5585884051
 33
0.0
  0
LINE
  5
307
330
302
100
AcDbEntity
  8
DIMENSION
100
AcDbLine
 10
6.3100274835
 20
10.8745837938
 30
0.0
 11
6.2593330395
 21
10.8745837938
 31
0.0
  0
LINE
  5
308
330
302
100
AcDbEntity
  8
DIMENSION
100
AcDbLine
 10
6.2593330395
 20
10.8745837938
 30
0.0
 11
6.2593330395
 21
10.47736158
 31
0.0
  0
LINE
  5
309
330
302
100
AcDbEntity
  8
DIMENSION
100
AcDbLine
 10
6.2593330395
 20
10.47736158
 30
0.0
 11
6.3100274835
 21
10.47736158
 31
0.0
  0
LINE
  5
30A
330
302
100
AcDbEntity
  8
DIMENSION
100
AcDbLine
 10
7.0830599228
 20
10.8745837938
 30
0.0
 11
7.1337543668
 21
10.8745837938
 31
0.0
  0
LINE
  5
30B
330
302
100
AcDbEntity
  8
DIMENSION
100
AcDbLine
 10
7.1337543668
 20
10.8745837938
 30
0.0
 11
7.1337543668
 21
10.47736158
 31
0.0
  0
LINE
  5
30C
330
302
100
AcDbEntity
  8
DIMENSION
100
AcDbLine
 10
7.1337543668
 20
10.47736158
 30
0.0
 11
7.0830599228
 21
10.47736158
 31
0.0
  0
LINE
  5
30D
330
302
100
AcDbEntity
  8
DIMENSION
100
AcDbLine
 10
11.2334869518
 20
9.748952992
 30
0.0
 11
6.3215437307
 21
9.748952992
 31
0.0
  0
LINE
  5
30E
330
302
100
AcDbEntity
  8
DIMENSION
100
AcDbLine
 10
10.6034721765
 20
11.8085884051
 30
0.0
 11
6.3215437307
 21
11.8085884051
 31
0.0
  0
LINE
  5
30F
330
302
100
AcDbEntity
  8
DIMENSION
100
AcDbLine
 10
6.6965437307
 20
9.748952992
 30
0.0
 11
6.6965437307
 21
10.4266671806
 31
0.0
  0
LINE
  5
310
330
302
100
AcDbEntity
  8
DIMENSION
100
AcDbLine
 10
6.6965437307
 20
11.8085884051
 30
0.0
 11
6.6965437307
 21
11.3225004619
 31
0.0
  0
MTEXT
  5
311
330
302
100
AcDbEntity
  8
DIMENSION
100
AcDbMText
 10
6.2245529492
 20
11.2475451693
 30
0.0
 40
0.25
 41
0.0
 71
     1
 72
     1
  1

  7
SLDTEXTSTYLE1
 73
     1
 44
1.0
  0
MTEXT
  5
312
330
302
100
AcDbEntity
  8
DIMENSION
100
AcDbMText
 10
6.2810343932
 20
11.2475451693
 30
0.0
 40
0.25
 41
0.0
 71
     1
 72
     1
  1
2.060
  7
SLDTEXTSTYLE1
 73
     1
 44
1.0
  0
MTEXT
  5
313
330
302
100
AcDbEntity
  8
DIMENSION
100
AcDbMText
 10
6.3733955412
 20
10.7996285012
 30
0.0
 40
0.25
 41
0.0
 71
     1
 72
     1
  1
52.3
  7
SLDTEXTSTYLE1
 73
     1
 44
1.0
  0
MTEXT
  5
314
330
302
100
AcDbEntity
  8
DIMENSION
100
AcDbMText
 10
7.3592752008
 20
11.2475451693
 30
0.0
 40
0.25
 41
0.0
 71
     1
 72
     1
  1

  7
SLDTEXTSTYLE1
 73
     1
 44
1.0
  0
ENDBLK
  5
304
330
302
100
AcDbEntity
  8
0
100
AcDbBlockEnd
  0
BLOCK
  5
317
330
316
100
AcDbEntity
  8
0
100
AcDbBlockBegin
  2
_D_8
 70
     0
 10
0.0
 20
0.0
 30
0.0
  3
_D_8
  1

  0
SOLID
  5
319
330
316
100
AcDbEntity
  8
DIMENSION
100
AcDbTrace
 10
16.3665695268
 20
9.9748834063
 30
0.0
 11
16.4050310652
 21
10.2248834063
 31
0.0
 12
16.3281079883
 22
10.2248834063
 32
0.0
 13
16.3281079883
 23
10.2248834063
 33
0.0
  0
SOLID
  5
31A
330
316
100
AcDbEntity
  8
DIMENSION
100
AcDbTrace
 10
16.3665695268
 20
9.748952992
 30
0.0
 11
16.3281079883
 21
9.498952992
 31
0.0
 12
16.4050310652
 22
9.498952992
 32
0.0
 13
16.4050310652
 23
9.498952992
 33
0.0
  0
LINE
  5
31B
330
316
100
AcDbEntity
  8
DIMENSION
100
AcDbLine
 10
17.5417064981
 20
9.0079896264
 30
0.0
 11
17.491012054
 21
9.0079896264
 31
0.0
  0
LINE
  5
31C
330
316
100
AcDbEntity
  8
DIMENSION
100
AcDbLine
 10
17.491012054
 20
9.0079896264
 30
0.0
 11
17.491012054
 21
8.6107674127
 31
0.0
  0
LINE
  5
31D
330
316
100
AcDbEntity
  8
DIMENSION
100
AcDbLine
 10
17.491012054
 20
8.6107674127
 30
0.0
 11
17.5417064981
 21
8.6107674127
 31
0.0
  0
LINE
  5
31E
330
316
100
AcDbEntity
  8
DIMENSION
100
AcDbLine
 10
18.1300166963
 20
9.0079896264
 30
0.0
 11
18.1807111403
 21
9.0079896264
 31
0.0
  0
LINE
  5
31F
330
316
100
AcDbEntity
  8
DIMENSION
100
AcDbLine
 10
18.1807111403
 20
9.0079896264
 30
0.0
 11
18.1807111403
 21
8.6107674127
 31
0.0
  0
LINE
  5
320
330
316
100
AcDbEntity
  8
DIMENSION
100
AcDbLine
 10
18.1807111403
 20
8.6107674127
 30
0.0
 11
18.1300166963
 21
8.6107674127
 31
0.0
  0
LINE
  5
321
330
316
100
AcDbEntity
  8
DIMENSION
100
AcDbLine
 10
15.9682369518
 20
9.9748834063
 30
0.0
 11
16.7415695268
 21
9.9748834063
 31
0.0
  0
LINE
  5
322
330
316
100
AcDbEntity
  8
DIMENSION
100
AcDbLine
 10
17.1165695268
 20
9.0079896539
 30
0.0
 11
16.3665695268
 21
9.0079896539
 31
0.0
  0
LINE
  5
323
330
316
100
AcDbEntity
  8
DIMENSION
100
AcDbLine
 10
16.3665695268
 20
9.0079896539
 30
0.0
 11
16.3665695268
 21
9.748952992
 31
0.0
  0
LINE
  5
324
330
316
100
AcDbEntity
  8
DIMENSION
100
AcDbLine
 10
16.3665695268
 20
9.9748834063
 30
0.0
 11
16.3665695268
 21
10.4556526371
 31
0.0
  0
MTEXT
  5
325
330
316
100
AcDbEntity
  8
DIMENSION
100
AcDbMText
 10
17.4562319637
 20
9.380951002
 30
0.0
 40
0.25
 41
0.0
 71
     1
 72
     1
  1

  7
SLDTEXTSTYLE1
 73
     1
 44
1.0
  0
MTEXT
  5
326
330
316
100
AcDbEntity
  8
DIMENSION
100
AcDbMText
 10
17.5127134352
 20
9.380951002
 30
0.0
 40
0.25
 41
0.0
 71
     1
 72
     1
  1
.226
  7
SLDTEXTSTYLE1
 73
     1
 44
1.0
  0
MTEXT
  5
327
330
316
100
AcDbEntity
  8
DIMENSION
100
AcDbMText
 10
17.6050745558
 20
8.9330343339
 30
0.0
 40
0.25
 41
0.0
 71
     1
 72
     1
  1
5.7
  7
SLDTEXTSTYLE1
 73
     1
 44
1.0
  0
MTEXT
  5
328
330
316
100
AcDbEntity
  8
DIMENSION
100
AcDbMText
 10
18.4062320292
 20
9.380951002
 30
0.0
 40
0.25
 41
0.0
 71
     1
 72
     1
  1

  7
SLDTEXTSTYLE1
 73
     1
 44
1.0
  0
ENDBLK
  5
318
330
316
100
AcDbEntity
  8
0
100
AcDbBlockEnd
  0
BLOCK
  5
32C
330
32B
100
AcDbEntity
  8
0
100
AcDbBlockBegin
  2
_D_9
 70
     0
 10
0.0
 20
0.0
 30
0.0
  3
_D_9
  1

  0
SOLID
  5
32E
330
32B
100
AcDbEntity
  8
DIMENSION
100
AcDbTrace
 10
20.4171624573
 20
17.3272027696
 30
0.0
 11
20.639265989
 21
17.4482371083
 31
0.0
 12
20.5926150417
 22
17.5093995877
 32
0.0
 13
20.5926150417
 23
17.5093995877
 33
0.0
  0
LINE
  5
32F
330
32B
100
AcDbEntity
  8
DIMENSION
100
AcDbLine
 10
22.4722629074
 20
18.2017880208
 30
0.0
 11
22.4215684633
 21
18.2017880208
 31
0.0
  0
LINE
  5
330
330
32B
100
AcDbEntity
  8
DIMENSION
100
AcDbLine
 10
22.4215684633
 20
18.2017880208
 30
0.0
 11
22.4215684633
 21
17.8045658071
 31
0.0
  0
LINE
  5
331
330
32B
100
AcDbEntity
  8
DIMENSION
100
AcDbLine
 10
22.4215684633
 20
17.8045658071
 30
0.0
 11
22.4722629074
 21
17.8045658071
 31
0.0
  0
LINE
  5
332
330
32B
100
AcDbEntity
  8
DIMENSION
100
AcDbLine
 10
22.9684434773
 20
18.2017880208
 30
0.0
 11
23.0191379214
 21
18.2017880208
 31
0.0
  0
LINE
  5
333
330
32B
100
AcDbEntity
  8
DIMENSION
100
AcDbLine
 10
23.0191379214
 20
18.2017880208
 30
0.0
 11
23.0191379214
 21
17.8045658071
 31
0.0
  0
LINE
  5
334
330
32B
100
AcDbEntity
  8
DIMENSION
100
AcDbLine
 10
23.0191379214
 20
17.8045658071
 30
0.0
 11
22.9684434773
 21
17.8045658071
 31
0.0
  0
LINE
  5
335
330
32B
100
AcDbEntity
  8
DIMENSION
100
AcDbLine
 10
20.4171624573
 20
17.3272027696
 30
0.0
 11
21.5460476002
 21
18.188246366
 31
0.0
  0
LINE
  5
336
330
32B
100
AcDbEntity
  8
DIMENSION
100
AcDbLine
 10
21.5460476002
 20
18.188246366
 30
0.0
 11
22.2960476002
 21
18.188246366
 31
0.0
  0
MTEXT
  5
337
330
32B
100
AcDbEntity
  8
DIMENSION
100
AcDbMText
 10
22.2960476002
 20
18.5747493964
 30
0.0
 40
0.25
 41
0.0
 71
     1
 72
     1
  1
R.671
  7
SLDTEXTSTYLE1
 73
     1
 44
1.0
  0
MTEXT
  5
338
330
32B
100
AcDbEntity
  8
DIMENSION
100
AcDbMText
 10
22.535630965
 20
18.1268327282
 30
0.0
 40
0.25
 41
0.0
 71
     1
 72
     1
  1
17
  7
SLDTEXTSTYLE1
 73
     1
 44
1.0
  0
ENDBLK
  5
32D
330
32B
100
AcDbEntity
  8
0
100
AcDbBlockEnd
  0
BLOCK
  5
33A
330
339
100
AcDbEntity
  8
0
100
AcDbBlockBegin
  2
SW_CENTERMARKSYMBOL_0
 70
     0
 10
0.0
 20
0.0
 30
0.0
  3
SW_CENTERMARKSYMBOL_0
  1

  0
LINE
  5
33C
330
339
100
AcDbEntity
  8
DIMENSION
 62
     0
100
AcDbLine
 10
0.0
 20
0.0
 30
0.0
 11
0.0
 21
0.1
 31
0.0
  0
LINE
  5
33D
330
339
100
AcDbEntity
  8
DIMENSION
 62
     0
100
AcDbLine
 10
0.0
 20
0.0
 30
0.0
 11
-0.1
 21
0.0
 31
0.0
  0
LINE
  5
33E
330
339
100
AcDbEntity
  8
DIMENSION
 62
     0
100
AcDbLine
 10
0.0
 20
0.0
 30
0.0
 11
0.0
 21
-0.1
 31
0.0
  0
LINE
  5
33F
330
339
100
AcDbEntity
  8
DIMENSION
 62
     0
100
AcDbLine
 10
0.0
 20
0.0
 30
0.0
 11
0.1
 21
0.0
 31
0.0
  0
LINE
  5
340
330
339
100
AcDbEntity
  8
DIMENSION
 62
     0
100
AcDbLine
 10
0.0
 20
0.1
 30
0.0
 11
0.0
 21
0.18475
 31
0.0
  0
LINE
  5
341
330
339
100
AcDbEntity
  8
DIMENSION
 62
     0
100
AcDbLine
 10
-0.1
 20
0.0
 30
0.0
 11
-0.18475
 21
0.0
 31
0.0
  0
LINE
  5
342
330
339
100
AcDbEntity
  8
DIMENSION
 62
     0
100
AcDbLine
 10
0.0
 20
-0.1
 30
0.0
 11
0.0
 21
-0.18475
 31
0.0
  0
LINE
  5
343
330
339
100
AcDbEntity
  8
DIMENSION
 62
     0
100
AcDbLine
 10
0.1
 20
0.0
 30
0.0
 11
0.18475
 21
0.0
 31
0.0
  0
ENDBLK
  5
33B
330
339
100
AcDbEntity
  8
0
100
AcDbBlockEnd
  0
BLOCK
  5
346
330
345
100
AcDbEntity
  8
0
100
AcDbBlockBegin
  2
SW_CENTERMARKSYMBOL_1
 70
     0
 10
0.0
 20
0.0
 30
0.0
  3
SW_CENTERMARKSYMBOL_1
  1

  0
LINE
  5
348
330
345
100
AcDbEntity
  8
DIMENSION
 62
     0
100
AcDbLine
 10
0.0
 20
0.0
 30
0.0
 11
0.0
 21
0.1
 31
0.0
  0
LINE
  5
349
330
345
100
AcDbEntity
  8
DIMENSION
 62
     0
100
AcDbLine
 10
0.0
 20
0.0
 30
0.0
 11
-0.1
 21
0.0
 31
0.0
  0
LINE
  5
34A
330
345
100
AcDbEntity
  8
DIMENSION
 62
     0
100
AcDbLine
 10
0.0
 20
0.0
 30
0.0
 11
0.0
 21
-0.1
 31
0.0
  0
LINE
  5
34B
330
345
100
AcDbEntity
  8
DIMENSION
 62
     0
100
AcDbLine
 10
0.0
 20
0.0
 30
0.0
 11
0.1
 21
0.0
 31
0.0
  0
LINE
  5
34C
330
345
100
AcDbEntity
  8
DIMENSION
 62
     0
100
AcDbLine
 10
0.0
 20
0.1
 30
0.0
 11
0.0
 21
0.18475
 31
0.0
  0
LINE
  5
34D
330
345
100
AcDbEntity
  8
DIMENSION
 62
     0
100
AcDbLine
 10
-0.1
 20
0.0
 30
0.0
 11
-0.18475
 21
0.0
 31
0.0
  0
LINE
  5
34E
330
345
100
AcDbEntity
  8
DIMENSION
 62
     0
100
AcDbLine
 10
0.0
 20
-0.1
 30
0.0
 11
0.0
 21
-0.18475
 31
0.0
  0
LINE
  5
34F
330
345
100
AcDbEntity
  8
DIMENSION
 62
     0
100
AcDbLine
 10
0.1
 20
0.0
 30
0.0
 11
0.18475
 21
0.0
 31
0.0
  0
ENDBLK
  5
347
330
345
100
AcDbEntity
  8
0
100
AcDbBlockEnd
  0
BLOCK
  5
352
330
351
100
AcDbEntity
  8
0
100
AcDbBlockBegin
  2
SW_CENTERMARKSYMBOL_2
 70
     0
 10
0.0
 20
0.0
 30
0.0
  3
SW_CENTERMARKSYMBOL_2
  1

  0
LINE
  5
354
330
351
100
AcDbEntity
  8
DIMENSION
 62
     0
100
AcDbLine
 10
0.0
 20
0.0
 30
0.0
 11
0.0
 21
0.1
 31
0.0
  0
LINE
  5
355
330
351
100
AcDbEntity
  8
DIMENSION
 62
     0
100
AcDbLine
 10
0.0
 20
0.0
 30
0.0
 11
-0.1
 21
0.0
 31
0.0
  0
LINE
  5
356
330
351
100
AcDbEntity
  8
DIMENSION
 62
     0
100
AcDbLine
 10
0.0
 20
0.0
 30
0.0
 11
0.0
 21
-0.1
 31
0.0
  0
LINE
  5
357
330
351
100
AcDbEntity
  8
DIMENSION
 62
     0
100
AcDbLine
 10
0.0
 20
0.0
 30
0.0
 11
0.1
 21
0.0
 31
0.0
  0
LINE
  5
358
330
351
100
AcDbEntity
  8
DIMENSION
 62
     0
100
AcDbLine
 10
0.0
 20
0.1
 30
0.0
 11
0.0
 21
0.18475
 31
0.0
  0
LINE
  5
359
330
351
100
AcDbEntity
  8
DIMENSION
 62
     0
100
AcDbLine
 10
-0.1
 20
0.0
 30
0.0
 11
-0.18475
 21
0.0
 31
0.0
  0
LINE
  5
35A
330
351
100
AcDbEntity
  8
DIMENSION
 62
     0
100
AcDbLine
 10
0.0
 20
-0.1
 30
0.0
 11
0.0
 21
-0.18475
 31
0.0
  0
LINE
  5
35B
330
351
100
AcDbEntity
  8
DIMENSION
 62
     0
100
AcDbLine
 10
0.1
 20
0.0
 30
0.0
 11
0.18475
 21
0.0
 31
0.0
  0
ENDBLK
  5
353
330
351
100
AcDbEntity
  8
0
100
AcDbBlockEnd
  0
BLOCK
  5
35E
330
35D
100
AcDbEntity
  8
0
100
AcDbBlockBegin
  2
SW_CENTERMARKSYMBOL_3
 70
     0
 10
0.0
 20
0.0
 30
0.0
  3
SW_CENTERMARKSYMBOL_3
  1

  0
LINE
  5
360
330
35D
100
AcDbEntity
  8
DIMENSION
 62
     0
100
AcDbLine
 10
0.0
 20
0.0
 30
0.0
 11
0.0
 21
0.1
 31
0.0
  0
LINE
  5
361
330
35D
100
AcDbEntity
  8
DIMENSION
 62
     0
100
AcDbLine
 10
0.0
 20
0.0
 30
0.0
 11
-0.1
 21
0.0
 31
0.0
  0
LINE
  5
362
330
35D
100
AcDbEntity
  8
DIMENSION
 62
     0
100
AcDbLine
 10
0.0
 20
0.0
 30
0.0
 11
0.0
 21
-0.1
 31
0.0
  0
LINE
  5
363
330
35D
100
AcDbEntity
  8
DIMENSION
 62
     0
100
AcDbLine
 10
0.0
 20
0.0
 30
0.0
 11
0.1
 21
0.0
 31
0.0
  0
LINE
  5
364
330
35D
100
AcDbEntity
  8
DIMENSION
 62
     0
100
AcDbLine
 10
0.0
 20
0.1
 30
0.0
 11
0.0
 21
0.18475
 31
0.0
  0
LINE
  5
365
330
35D
100
AcDbEntity
  8
DIMENSION
 62
     0
100
AcDbLine
 10
-0.1
 20
0.0
 30
0.0
 11
-0.18475
 21
0.0
 31
0.0
  0
LINE
  5
366
330
35D
100
AcDbEntity
  8
DIMENSION
 62
     0
100
AcDbLine
 10
0.0
 20
-0.1
 30
0.0
 11
0.0
 21
-0.18475
 31
0.0
  0
LINE
  5
367
330
35D
100
AcDbEntity
  8
DIMENSION
 62
     0
100
AcDbLine
 10
0.1
 20
0.0
 30
0.0
 11
0.18475
 21
0.0
 31
0.0
  0
ENDBLK
  5
35F
330
35D
100
AcDbEntity
  8
0
100
AcDbBlockEnd
  0
BLOCK
  5
36A
330
369
100
AcDbEntity
  8
0
100
AcDbBlockBegin
  2
SW_CENTERMARKSYMBOL_4
 70
     0
 10
0.0
 20
0.0
 30
0.0
  3
SW_CENTERMARKSYMBOL_4
  1

  0
LINE
  5
36C
330
369
100
AcDbEntity
  8
DIMENSION
 62
     0
100
AcDbLine
 10
0.0
 20
0.0
 30
0.0
 11
0.0
 21
0.1
 31
0.0
  0
LINE
  5
36D
330
369
100
AcDbEntity
  8
DIMENSION
 62
     0
100
AcDbLine
 10
0.0
 20
0.0
 30
0.0
 11
-0.1
 21
0.0
 31
0.0
  0
LINE
  5
36E
330
369
100
AcDbEntity
  8
DIMENSION
 62
     0
100
AcDbLine
 10
0.0
 20
0.0
 30
0.0
 11
0.0
 21
-0.1
 31
0.0
  0
LINE
  5
36F
330
369
100
AcDbEntity
  8
DIMENSION
 62
     0
100
AcDbLine
 10
0.0
 20
0.0
 30
0.0
 11
0.1
 21
0.0
 31
0.0
  0
LINE
  5
370
330
369
100
AcDbEntity
  8
DIMENSION
 62
     0
100
AcDbLine
 10
0.0
 20
0.1
 30
0.0
 11
0.0
 21
0.18475
 31
0.0
  0
LINE
  5
371
330
369
100
AcDbEntity
  8
DIMENSION
 62
     0
100
AcDbLine
 10
-0.1
 20
0.0
 30
0.0
 11
-0.18475
 21
0.0
 31
0.0
  0
LINE
  5
372
330
369
100
AcDbEntity
  8
DIMENSION
 62
     0
100
AcDbLine
 10
0.0
 20
-0.1
 30
0.0
 11
0.0
 21
-0.18475
 31
0.0
  0
LINE
  5
373
330
369
100
AcDbEntity
  8
DIMENSION
 62
     0
100
AcDbLine
 10
0.1
 20
0.0
 30
0.0
 11
0.18475
 21
0.0
 31
0.0
  0
ENDBLK
  5
36B
330
369
100
AcDbEntity
  8
0
100
AcDbBlockEnd
  0
BLOCK
  5
376
330
375
100
AcDbEntity
  8
0
100
AcDbBlockBegin
  2
SW_CENTERMARKSYMBOL_5
 70
     0
 10
0.0
 20
0.0
 30
0.0
  3
SW_CENTERMARKSYMBOL_5
  1

  0
LINE
  5
378
330
375
100
AcDbEntity
  8
DIMENSION
 62
     0
100
AcDbLine
 10
0.0
 20
0.0
 30
0.0
 11
0.0
 21
0.1
 31
0.0
  0
LINE
  5
379
330
375
100
AcDbEntity
  8
DIMENSION
 62
     0
100
AcDbLine
 10
0.0
 20
0.0
 30
0.0
 11
-0.1
 21
0.0
 31
0.0
  0
LINE
  5
37A
330
375
100
AcDbEntity
  8
DIMENSION
 62
     0
100
AcDbLine
 10
0.0
 20
0.0
 30
0.0
 11
0.0
 21
-0.1
 31
0.0
  0
LINE
  5
37B
330
375
100
AcDbEntity
  8
DIMENSION
 62
     0
100
AcDbLine
 10
0.0
 20
0.0
 30
0.0
 11
0.1
 21
0.0
 31
0.0
  0
LINE
  5
37C
330
375
100
AcDbEntity
  8
DIMENSION
 62
     0
100
AcDbLine
 10
0.0
 20
0.1
 30
0.0
 11
0.0
 21
0.18475
 31
0.0
  0
LINE
  5
37D
330
375
100
AcDbEntity
  8
DIMENSION
 62
     0
100
AcDbLine
 10
-0.1
 20
0.0
 30
0.0
 11
-0.18475
 21
0.0
 31
0.0
  0
LINE
  5
37E
330
375
100
AcDbEntity
  8
DIMENSION
 62
     0
100
AcDbLine
 10
0.0
 20
-0.1
 30
0.0
 11
0.0
 21
-0.18475
 31
0.0
  0
LINE
  5
37F
330
375
100
AcDbEntity
  8
DIMENSION
 62
     0
100
AcDbLine
 10
0.1
 20
0.0
 30
0.0
 11
0.18475
 21
0.0
 31
0.0
  0
ENDBLK
  5
377
330
375
100
AcDbEntity
  8
0
100
AcDbBlockEnd
  0
BLOCK
  5
382
330
381
100
AcDbEntity
  8
0
100
AcDbBlockBegin
  2
SW_CENTERMARKSYMBOL_6
 70
     0
 10
0.0
 20
0.0
 30
0.0
  3
SW_CENTERMARKSYMBOL_6
  1

  0
LINE
  5
384
330
381
100
AcDbEntity
  8
DIMENSION
 62
     0
100
AcDbLine
 10
0.0
 20
0.0
 30
0.0
 11
0.0
 21
0.1
 31
0.0
  0
LINE
  5
385
330
381
100
AcDbEntity
  8
DIMENSION
 62
     0
100
AcDbLine
 10
0.0
 20
0.0
 30
0.0
 11
-0.1
 21
0.0
 31
0.0
  0
LINE
  5
386
330
381
100
AcDbEntity
  8
DIMENSION
 62
     0
100
AcDbLine
 10
0.0
 20
0.0
 30
0.0
 11
0.0
 21
-0.1
 31
0.0
  0
LINE
  5
387
330
381
100
AcDbEntity
  8
DIMENSION
 62
     0
100
AcDbLine
 10
0.0
 20
0.0
 30
0.0
 11
0.1
 21
0.0
 31
0.0
  0
LINE
  5
388
330
381
100
AcDbEntity
  8
DIMENSION
 62
     0
100
AcDbLine
 10
0.0
 20
0.1
 30
0.0
 11
0.0
 21
0.18475
 31
0.0
  0
LINE
  5
389
330
381
100
AcDbEntity
  8
DIMENSION
 62
     0
100
AcDbLine
 10
-0.1
 20
0.0
 30
0.0
 11
-0.18475
 21
0.0
 31
0.0
  0
LINE
  5
38A
330
381
100
AcDbEntity
  8
DIMENSION
 62
     0
100
AcDbLine
 10
0.0
 20
-0.1
 30
0.0
 11
0.0
 21
-0.18475
 31
0.0
  0
LINE
  5
38B
330
381
100
AcDbEntity
  8
DIMENSION
 62
     0
100
AcDbLine
 10
0.1
 20
0.0
 30
0.0
 11
0.18475
 21
0.0
 31
0.0
  0
ENDBLK
  5
383
330
381
100
AcDbEntity
  8
0
100
AcDbBlockEnd
  0
BLOCK
  5
38E
330
38D
100
AcDbEntity
  8
0
100
AcDbBlockBegin
  2
SW_CENTERMARKSYMBOL_7
 70
     0
 10
0.0
 20
0.0
 30
0.0
  3
SW_CENTERMARKSYMBOL_7
  1

  0
LINE
  5
390
330
38D
100
AcDbEntity
  8
DIMENSION
 62
     0
100
AcDbLine
 10
0.0
 20
0.0
 30
0.0
 11
0.0
 21
0.1
 31
0.0
  0
LINE
  5
391
330
38D
100
AcDbEntity
  8
DIMENSION
 62
     0
100
AcDbLine
 10
0.0
 20
0.0
 30
0.0
 11
-0.1
 21
0.0
 31
0.0
  0
LINE
  5
392
330
38D
100
AcDbEntity
  8
DIMENSION
 62
     0
100
AcDbLine
 10
0.0
 20
0.0
 30
0.0
 11
0.0
 21
-0.1
 31
0.0
  0
LINE
  5
393
330
38D
100
AcDbEntity
  8
DIMENSION
 62
     0
100
AcDbLine
 10
0.0
 20
0.0
 30
0.0
 11
0.1
 21
0.0
 31
0.0
  0
LINE
  5
394
330
38D
100
AcDbEntity
  8
DIMENSION
 62
     0
100
AcDbLine
 10
0.0
 20
0.1
 30
0.0
 11
0.0
 21
0.18475
 31
0.0
  0
LINE
  5
395
330
38D
100
AcDbEntity
  8
DIMENSION
 62
     0
100
AcDbLine
 10
-0.1
 20
0.0
 30
0.0
 11
-0.18475
 21
0.0
 31
0.0
  0
LINE
  5
396
330
38D
100
AcDbEntity
  8
DIMENSION
 62
     0
100
AcDbLine
 10
0.0
 20
-0.1
 30
0.0
 11
0.0
 21
-0.18475
 31
0.0
  0
LINE
  5
397
330
38D
100
AcDbEntity
  8
DIMENSION
 62
     0
100
AcDbLine
 10
0.1
 20
0.0
 30
0.0
 11
0.18475
 21
0.0
 31
0.0
  0
ENDBLK
  5
38F
330
38D
100
AcDbEntity
  8
0
100
AcDbBlockEnd
  0
BLOCK
  5
39A
330
399
100
AcDbEntity
  8
0
100
AcDbBlockBegin
  2
SW_CENTERMARKSYMBOL_8
 70
     0
 10
0.0
 20
0.0
 30
0.0
  3
SW_CENTERMARKSYMBOL_8
  1

  0
LINE
  5
39C
330
399
100
AcDbEntity
  8
DIMENSION
 62
     0
100
AcDbLine
 10
0.0
 20
0.0
 30
0.0
 11
0.0
 21
0.1
 31
0.0
  0
LINE
  5
39D
330
399
100
AcDbEntity
  8
DIMENSION
 62
     0
100
AcDbLine
 10
0.0
 20
0.0
 30
0.0
 11
-0.1
 21
0.0
 31
0.0
  0
LINE
  5
39E
330
399
100
AcDbEntity
  8
DIMENSION
 62
     0
100
AcDbLine
 10
0.0
 20
0.0
 30
0.0
 11
0.0
 21
-0.1
 31
0.0
  0
LINE
  5
39F
330
399
100
AcDbEntity
  8
DIMENSION
 62
     0
100
AcDbLine
 10
0.0
 20
0.0
 30
0.0
 11
0.1
 21
0.0
 31
0.0
  0
LINE
  5
3A0
330
399
100
AcDbEntity
  8
DIMENSION
 62
     0
100
AcDbLine
 10
0.0
 20
0.1
 30
0.0
 11
0.0
 21
0.18475
 31
0.0
  0
LINE
  5
3A1
330
399
100
AcDbEntity
  8
DIMENSION
 62
     0
100
AcDbLine
 10
-0.1
 20
0.0
 30
0.0
 11
-0.18475
 21
0.0
 31
0.0
  0
LINE
  5
3A2
330
399
100
AcDbEntity
  8
DIMENSION
 62
     0
100
AcDbLine
 10
0.0
 20
-0.1
 30
0.0
 11
0.0
 21
-0.18475
 31
0.0
  0
LINE
  5
3A3
330
399
100
AcDbEntity
  8
DIMENSION
 62
     0
100
AcDbLine
 10
0.1
 20
0.0
 30
0.0
 11
0.18475
 21
0.0
 31
0.0
  0
ENDBLK
  5
39B
330
399
100
AcDbEntity
  8
0
100
AcDbBlockEnd
  0
BLOCK
  5
3A6
330
3A5
100
AcDbEntity
  8
0
100
AcDbBlockBegin
  2
SW_CENTERMARKSYMBOL_9
 70
     0
 10
0.0
 20
0.0
 30
0.0
  3
SW_CENTERMARKSYMBOL_9
  1

  0
LINE
  5
3A8
330
3A5
100
AcDbEntity
  8
DIMENSION
 62
     0
100
AcDbLine
 10
0.0
 20
0.0
 30
0.0
 11
0.0
 21
0.1
 31
0.0
  0
LINE
  5
3A9
330
3A5
100
AcDbEntity
  8
DIMENSION
 62
     0
100
AcDbLine
 10
0.0
 20
0.0
 30
0.0
 11
-0.1
 21
0.0
 31
0.0
  0
LINE
  5
3AA
330
3A5
100
AcDbEntity
  8
DIMENSION
 62
     0
100
AcDbLine
 10
0.0
 20
0.0
 30
0.0
 11
0.0
 21
-0.1
 31
0.0
  0
LINE
  5
3AB
330
3A5
100
AcDbEntity
  8
DIMENSION
 62
     0
100
AcDbLine
 10
0.0
 20
0.0
 30
0.0
 11
0.1
 21
0.0
 31
0.0
  0
LINE
  5
3AC
330
3A5
100
AcDbEntity
  8
DIMENSION
 62
     0
100
AcDbLine
 10
0.0
 20
0.1
 30
0.0
 11
0.0
 21
0.18475
 31
0.0
  0
LINE
  5
3AD
330
3A5
100
AcDbEntity
  8
DIMENSION
 62
     0
100
AcDbLine
 10
-0.1
 20
0.0
 30
0.0
 11
-0.18475
 21
0.0
 31
0.0
  0
LINE
  5
3AE
330
3A5
100
AcDbEntity
  8
DIMENSION
 62
     0
100
AcDbLine
 10
0.0
 20
-0.1
 30
0.0
 11
0.0
 21
-0.18475
 31
0.0
  0
LINE
  5
3AF
330
3A5
100
AcDbEntity
  8
DIMENSION
 62
     0
100
AcDbLine
 10
0.1
 20
0.0
 30
0.0
 11
0.18475
 21
0.0
 31
0.0
  0
ENDBLK
  5
3A7
330
3A5
100
AcDbEntity
  8
0
100
AcDbBlockEnd
  0
BLOCK
  5
3BD
330
3BC
100
AcDbEntity
  8
0
100
AcDbBlockBegin
  2
_D_10
 70
     0
 10
0.0
 20
0.0
 30
0.0
  3
_D_10
  1

  0
SOLID
  5
3BF
330
3BC
100
AcDbEntity
  8
DIMENSION
100
AcDbTrace
 10
26.9985643051
 20
8.3027753397
 30
0.0
 11
27.2485643051
 21
8.2643138012
 31
0.0
 12
27.2485643051
 22
8.3412368781
 32
0.0
 13
27.2485643051
 23
8.3412368781
 33
0.0
  0
SOLID
  5
3C0
330
3BC
100
AcDbEntity
  8
DIMENSION
100
AcDbTrace
 10
26.8735643051
 20
8.3027753397
 30
0.0
 11
26.6235643051
 21
8.3412368781
 31
0.0
 12
26.6235643051
 22
8.2643138012
 32
0.0
 13
26.6235643051
 23
8.2643138012
 33
0.0
  0
LINE
  5
3C1
330
3BC
100
AcDbEntity
  8
DIMENSION
100
AcDbLine
 10
27.8855115132
 20
8.3027753122
 30
0.0
 11
27.8348170691
 21
8.3027753122
 31
0.0
  0
LINE
  5
3C2
330
3BC
100
AcDbEntity
  8
DIMENSION
100
AcDbLine
 10
27.8348170691
 20
8.3027753122
 30
0.0
 11
27.8348170691
 21
7.9055530984
 31
0.0
  0
LINE
  5
3C3
330
3BC
100
AcDbEntity
  8
DIMENSION
100
AcDbLine
 10
27.8348170691
 20
7.9055530984
 30
0.0
 11
27.8855115132
 21
7.9055530984
 31
0.0
  0
LINE
  5
3C4
330
3BC
100
AcDbEntity
  8
DIMENSION
100
AcDbLine
 10
28.4738217114
 20
8.3027753122
 30
0.0
 11
28.5245161554
 21
8.3027753122
 31
0.0
  0
LINE
  5
3C5
330
3BC
100
AcDbEntity
  8
DIMENSION
100
AcDbLine
 10
28.5245161554
 20
8.3027753122
 30
0.0
 11
28.5245161554
 21
7.9055530984
 31
0.0
  0
LINE
  5
3C6
330
3BC
100
AcDbEntity
  8
DIMENSION
100
AcDbLine
 10
28.5245161554
 20
7.9055530984
 30
0.0
 11
28.4738217114
 21
7.9055530984
 31
0.0
  0
LINE
  5
3C7
330
3BC
100
AcDbEntity
  8
DIMENSION
100
AcDbLine
 10
26.9985643051
 20
9.598952992
 30
0.0
 11
26.9985643051
 21
7.9277753397
 31
0.0
  0
LINE
  5
3C8
330
3BC
100
AcDbEntity
  8
DIMENSION
100
AcDbLine
 10
26.8735643051
 20
9.598952992
 30
0.0
 11
26.8735643051
 21
7.9277753397
 31
0.0
  0
LINE
  5
3C9
330
3BC
100
AcDbEntity
  8
DIMENSION
100
AcDbLine
 10
26.9985643051
 20
8.3027753397
 30
0.0
 11
27.5618161665
 21
8.3027753397
 31
0.0
  0
LINE
  5
3CA
330
3BC
100
AcDbEntity
  8
DIMENSION
100
AcDbLine
 10
26.8735643051
 20
8.3027753397
 30
0.0
 11
26.3927950743
 21
8.3027753397
 31
0.0
  0
MTEXT
  5
3CB
330
3BC
100
AcDbEntity
  8
DIMENSION
100
AcDbMText
 10
27.8000369788
 20
8.6757366877
 30
0.0
 40
0.25
 41
0.0
 71
     1
 72
     1
  1

  7
SLDTEXTSTYLE1
 73
     1
 44
1.0
  0
MTEXT
  5
3CC
330
3BC
100
AcDbEntity
  8
DIMENSION
100
AcDbMText
 10
27.8565184503
 20
8.6757366877
 30
0.0
 40
0.25
 41
0.0
 71
     1
 72
     1
  1
.125
  7
SLDTEXTSTYLE1
 73
     1
 44
1.0
  0
MTEXT
  5
3CD
330
3BC
100
AcDbEntity
  8
DIMENSION
100
AcDbMText
 10
27.9488795708
 20
8.2278200196
 30
0.0
 40
0.25
 41
0.0
 71
     1
 72
     1
  1
3.2
  7
SLDTEXTSTYLE1
 73
     1
 44
1.0
  0
MTEXT
  5
3CE
330
3BC
100
AcDbEntity
  8
DIMENSION
100
AcDbMText
 10
28.7500370443
 20
8.6757366877
 30
0.0
 40
0.25
 41
0.0
 71
     1
 72
     1
  1

  7
SLDTEXTSTYLE1
 73
     1
 44
1.0
  0
ENDBLK
  5
3BE
330
3BC
100
AcDbEntity
  8
0
100
AcDbBlockEnd
  0
ENDSEC
  0
SECTION
  2
ENTITIES
  0
LINE
  5
21F
330
1F
100
AcDbEntity
  8
0
  6
Continuous
 62
     7
370
    15
100
AcDbLine
 10
0.846638452
 20
24.5157678168
 30
0.0
 11
31.889781
 21
24.5157678168
 31
0.0
  0
LINE
  5
220
330
1F
100
AcDbEntity
  8
0
  6
Continuous
 62
     7
370
    15
100
AcDbLine
 10
0.846638452
 20
24.5157678168
 30
0.0
 11
0.846638452
 21
1.1762195122
 31
0.0
  0
LINE
  5
221
330
1F
100
AcDbEntity
  8
0
  6
Continuous
 62
     7
370
    15
100
AcDbLine
 10
31.889781
 20
1.1762195122
 30
0.0
 11
0.846638452
 21
1.1762195122
 31
0.0
  0
LINE
  5
222
330
1F
100
AcDbEntity
  8
0
  6
Continuous
 62
     7
370
    15
100
AcDbLine
 10
31.889781
 20
1.1762195122
 30
0.0
 11
31.889781
 21
24.5157678168
 31
0.0
  0
LINE
  5
223
330
1F
100
AcDbEntity
  8
0
  6
Continuous
 62
     7
370
     0
100
AcDbLine
 10
15.6737889173
 20
1.1762195122
 30
0.0
 11
15.6737889173
 21
2.3174154361
 31
0.0
  0
LINE
  5
224
330
1F
100
AcDbEntity
  8
0
  6
Continuous
 62
     7
370
     0
100
AcDbLine
 10
19.4210449219
 20
1.1762195122
 30
0.0
 11
19.4210449219
 21
2.3174154361
 31
0.0
  0
LINE
  5
225
330
1F
100
AcDbEntity
  8
0
  6
Continuous
 62
     7
370
     0
100
AcDbLine
 10
30.4526362078
 20
1.1762195122
 30
0.0
 11
30.4526362078
 21
2.3174154361
 31
0.0
  0
LINE
  5
226
330
1F
100
AcDbEntity
  8
0
  6
Continuous
 62
     7
370
     0
100
AcDbLine
 10
17.305069796
 20
24.5157678168
 30
0.0
 11
17.305069796
 21
22.9570774143
 31
0.0
  0
LINE
  5
227
330
1F
100
AcDbEntity
  8
0
  6
Continuous
 62
     7
370
    15
100
AcDbLine
 10
0.846638452
 20
21.3983870119
 30
0.0
 11
31.889781
 21
21.3983870119
 31
0.0
  0
LINE
  5
228
330
1F
100
AcDbEntity
  8
0
  6
Continuous
 62
     7
370
     0
100
AcDbLine
 10
8.7046178938
 20
24.5157678168
 30
0.0
 11
8.7046178938
 21
21.3983870119
 31
0.0
  0
LINE
  5
229
330
1F
100
AcDbEntity
  8
0
  6
Continuous
 62
     7
370
     0
100
AcDbLine
 10
23.2777402651
 20
24.5157678168
 30
0.0
 11
23.2777402651
 21
21.3983870119
 31
0.0
  0
LINE
  5
22A
330
1F
100
AcDbEntity
  8
0
  6
Continuous
 62
     7
370
     0
100
AcDbLine
 10
31.889781
 20
21.3983870119
 30
0.0
 11
23.2777402651
 21
21.3983870119
 31
0.0
  0
LINE
  5
22B
330
1F
100
AcDbEntity
  8
0
  6
Continuous
 62
     7
370
    15
100
AcDbLine
 10
31.889781
 20
2.3174154361
 30
0.0
 11
0.846638452
 21
2.3174154361
 31
0.0
  0
LINE
  5
22C
330
1F
100
AcDbEntity
  8
0
  6
Continuous
 62
     7
370
     0
100
AcDbLine
 10
8.7046178938
 20
22.9570774143
 30
0.0
 11
31.889781
 21
22.9570774143
 31
0.0
  0
INSERT
  5
22D
330
1F
100
AcDbEntity
  8
0
  6
Continuous
 62
     7
100
AcDbBlockReference
  2
Block17_1_1_1_1
 10
1.0959834114
 20
23.2575845103
 30
0.0
  0
MTEXT
  5
22F
330
1F
100
AcDbEntity
  8
0
  6
Continuous
 62
     7
370
     0
100
AcDbMText
 10
16.3602250444
 20
1.5485595512
 30
0.0
 40
0.1875
 41
0.0
 71
     1
 72
     1
  1
ÉCHELLE_SCALE 1:3
  7
SLDTEXTSTYLE0
 73
     1
 44
1.0
  0
INSERT
  5
237
330
1F
100
AcDbEntity
  8
0
  6
Continuous
 62
     7
370
     0
100
AcDbBlockReference
  2
SW_NOTE_0
 10
1.0357712626
 20
1.9973873802
 30
0.0
  0
MTEXT
  5
238
330
1F
100
AcDbEntity
  8
0
  6
Continuous
 62
     7
370
     0
100
AcDbMText
 10
8.9174201196
 20
24.1454600576
 30
0.0
 40
0.4375
 41
0.0
 71
     1
 72
     1
  1
LEXAN BEZEL PLATE TOP
  7
SLDTEXTSTYLE0
 73
     1
 44
1.0
  0
MTEXT
  5
239
330
1F
100
AcDbEntity
  8
0
  6
Continuous
 62
     7
370
     0
100
AcDbMText
 10
8.94460831
 20
23.3286571336
 30
0.0
 40
0.1875
 41
0.0
 71
     1
 72
     1
  1
PROJET_PROJECT
  7
SLDTEXTSTYLE0
 73
     1
 44
1.0
  0
MTEXT
  5
23A
330
1F
100
AcDbEntity
  8
0
  6
Continuous
 62
     7
370
     0
100
AcDbMText
 10
19.7013669695
 20
1.5485595512
 30
0.0
 40
0.1875
 41
0.0
 71
     1
 72
     1
  1
REPÉSENTANT_REPRESENTATIVE
  7
SLDTEXTSTYLE0
 73
     1
 44
1.0
  0
MTEXT
  5
23B
330
1F
100
AcDbEntity
  8
0
  6
Continuous
 62
     7
370
     0
100
AcDbMText
 10
24.1660648468
 20
1.5769103819
 30
0.0
 40
0.1875
 41
0.0
 71
     1
 72
     1
  1
CONCEPTEUR_DESIGNER
  7
SLDTEXTSTYLE0
 73
     1
 44
1.0
  0
MTEXT
  5
23C
330
1F
100
AcDbEntity
  8
0
  6
Continuous
 62
     7
370
     0
100
AcDbMText
 10
28.5765676344
 20
1.5721070909
 30
0.0
 40
0.1875
 41
0.0
 71
     1
 72
     1
  1
DATE
  7
SLDTEXTSTYLE0
 73
     1
 44
1.0
  0
MTEXT
  5
23D
330
1F
100
AcDbEntity
  8
0
  6
Continuous
 62
     7
370
     0
100
AcDbMText
 10
30.7059888804
 20
2.0326983904
 30
0.0
 40
0.5
 41
0.0
 71
     1
 72
     1
  1
2/2
  7
SLDTEXTSTYLE0
 73
     1
 44
1.0
  0
MTEXT
  5
23E
330
1F
100
AcDbEntity
  8
0
  6
Continuous
 62
     7
370
     0
100
AcDbMText
 10
25.1572757843
 20
2.0194479355
 30
0.0
 40
0.21875
 41
0.0
 71
     2
 72
     1
  1
Martin Keighan
  7
SLDTEXTSTYLE0
 73
     1
 44
1.0
  0
MTEXT
  5
23F
330
1F
100
AcDbEntity
  8
0
  6
Continuous
 62
     7
370
     0
100
AcDbMText
 10
29.3152033783
 20
2.0194479355
 30
0.0
 40
0.21875
 41
0.0
 71
     2
 72
     1
  1
2018-10-01
  7
SLDTEXTSTYLE0
 73
     1
 44
1.0
  0
INSERT
  5
248
330
1F
100
AcDbEntity
  8
LAYER1
100
AcDbBlockReference
  2
SW_NOTE_1
 10
2.5756277711
 20
22.8026800597
 30
0.0
  0
INSERT
  5
24E
330
1F
100
AcDbEntity
  8
LAYER1
 62
     7
100
AcDbBlockReference
  2
SW_NOTE_2
 10
22.573150043
 20
2.657553972
 30
0.0
  0
MTEXT
  5
24F
330
1F
100
AcDbEntity
  8
LAYER1
 62
     7
100
AcDbMText
 10
17.5290540839
 20
23.3286571336
 30
0.0
 40
0.1875
 41
0.0
 71
     1
 72
     1
  1
PRODUIT_PRODUCT
  7
SLDTEXTSTYLE0
 73
     1
 44
1.0
  0
MTEXT
  5
250
330
1F
100
AcDbEntity
  8
LAYER1
 62
     7
100
AcDbMText
 10
23.4631814337
 20
24.1195640706
 30
0.0
 40
0.28125
 41
0.0
 71
     1
 72
     1
  1
905-N_LEXAN BEZEL PLATE_TOP_a.00
  7
SLDTEXTSTYLE0
 73
     1
 44
1.0
  0
MTEXT
  5
251
330
1F
100
AcDbEntity
  8
LAYER1
 62
     7
100
AcDbMText
 10
23.4631814337
 20
23.4276149145
 30
0.0
 40
0.1875
 41
0.0
 71
     1
 72
     1
  1
DESSIN_DRAWING
  7
SLDTEXTSTYLE0
 73
     1
 44
1.0
  0
MTEXT
  5
252
330
1F
100
AcDbEntity
  8
LAYER1
 62
     7
100
AcDbMText
 10
31.6536165445
 20
23.4240026249
 30
0.0
 40
0.1875
 41
0.0
 71
     3
 72
     1
  1
STATUS
  7
SLDTEXTSTYLE0
 73
     1
 44
1.0
  0
MTEXT
  5
253
330
1F
100
AcDbEntity
  8
LAYER1
 62
     7
100
AcDbMText
 10
23.4631814337
 20
21.8661064039
 30
0.0
 40
0.1875
 41
0.0
 71
     1
 72
     1
  1
TOLÉRANCE_TOLERANCE
  7
SLDTEXTSTYLE0
 73
     1
 44
1.0
  0
MTEXT
  5
254
330
1F
100
AcDbEntity
  8
LAYER1
 62
     7
100
AcDbMText
 10
23.4631814337
 20
22.5541122178
 30
0.0
 40
0.4375
 41
0.0
 71
     1
 72
     1
  1
±.030" [±0.6mm]
  7
SLDTEXTSTYLE0
 73
     1
 44
1.0
  0
MTEXT
  5
255
330
1F
100
AcDbEntity
  8
DIMENSION
 62
     7
100
AcDbMText
 10
17.5100964216
 20
24.1454600576
 30
0.0
 40
0.4375
 41
0.0
 71
     1
 72
     1
  1
905-N_NANUK
  7
SLDTEXTSTYLE0
 73
     1
 44
1.0
  0
MTEXT
  5
256
330
1F
100
AcDbEntity
  8
DIMENSION
 62
     7
100
AcDbMText
 10
20.7406935621
 20
2.0194479355
 30
0.0
 40
0.21875
 41
0.0
 71
     2
 72
     1
  1
Benjamin Coley
  7
SLDTEXTSTYLE0
 73
     1
 44
1.0
  0
MTEXT
  5
257
330
1F
100
AcDbEntity
  8
DIMENSION
 62
     7
100
AcDbMText
 10
8.9286021818
 20
21.8661064039
 30
0.0
 40
0.1875
 41
0.0
 71
     1
 72
     1
  1
MATÉRIEL_MATERIAL
  7
SLDTEXTSTYLE0
 73
     1
 44
1.0
  0
MTEXT
  5
258
330
1F
100
AcDbEntity
  8
DIMENSION
 62
     7
100
AcDbMText
 10
8.9286021818
 20
22.5541122178
 30
0.0
 40
0.4375
 41
0.0
 71
     1
 72
     1
  1
LEXAN TRANSPARENT_CLEAR LEXAN 1/8"
  7
SLDTEXTSTYLE0
 73
     1
 44
1.0
  0
CIRCLE
  5
259
330
1F
100
AcDbEntity
  8
0
  6
Continuous
 62
     7
370
     0
100
AcDbCircle
 10
10.9382221765
 20
11.8085884051
 30
0.0
 40
0.0847499999999979
  0
CIRCLE
  5
25A
330
1F
100
AcDbEntity
  8
0
  6
Continuous
 62
     7
370
     0
100
AcDbCircle
 10
10.9382221765
 20
15.5317079583
 30
0.0
 40
0.0847500000000014
  0
CIRCLE
  5
25B
330
1F
100
AcDbEntity
  8
0
  6
Continuous
 62
     7
370
     0
100
AcDbCircle
 10
12.3379779867
 20
17.3654129571
 30
0.0
 40
0.0847499999999997
  0
CIRCLE
  5
25C
330
1F
100
AcDbEntity
  8
0
  6
Continuous
 62
     7
370
     0
100
AcDbCircle
 10
15.6334869518
 20
17.3654129571
 30
0.0
 40
0.0847500000000032
  0
CIRCLE
  5
25D
330
1F
100
AcDbEntity
  8
0
  6
Continuous
 62
     7
370
     0
100
AcDbCircle
 10
18.928995917
 20
17.3654129571
 30
0.0
 40
0.0847499999999997
  0
CIRCLE
  5
25E
330
1F
100
AcDbEntity
  8
0
  6
Continuous
 62
     7
370
     0
100
AcDbCircle
 10
20.3287517272
 20
15.5317079583
 30
0.0
 40
0.0847500000000014
  0
CIRCLE
  5
25F
330
1F
100
AcDbEntity
  8
0
  6
Continuous
 62
     7
370
     0
100
AcDbCircle
 10
20.3287517272
 20
11.8085884051
 30
0.0
 40
0.0847499999999979
  0
CIRCLE
  5
260
330
1F
100
AcDbEntity
  8
0
  6
Continuous
 62
     7
370
     0
100
AcDbCircle
 10
18.928995917
 20
9.9748834063
 30
0.0
 40
0.0847499999999997
  0
CIRCLE
  5
261
330
1F
100
AcDbEntity
  8
0
  6
Continuous
 62
     7
370
     0
100
AcDbCircle
 10
12.3379779867
 20
9.9748834063
 30
0.0
 40
0.0847499999999997
  0
CIRCLE
  5
262
330
1F
100
AcDbEntity
  8
0
  6
Continuous
 62
     7
370
     0
100
AcDbCircle
 10
15.6334869518
 20
9.9748834063
 30
0.0
 40
0.0847499999999997
  0
LINE
  5
263
330
1F
100
AcDbEntity
  8
0
  6
Continuous
 62
     7
370
     0
100
AcDbLine
 10
20.5546822618
 20
16.9201480508
 30
0.0
 11
20.5546822618
 21
10.4201483126
 31
0.0
  0
ARC
  5
264
330
1F
100
AcDbEntity
  8
0
  6
Continuous
 62
     7
370
     0
100
AcDbCircle
 10
19.8834869518
 20
16.9201481817
 30
0.0
 40
0.6711951896711739
100
AcDbArc
 50
0.0
 51
90.0
  0
LINE
  5
265
330
1F
100
AcDbEntity
  8
0
  6
Continuous
 62
     7
370
     0
100
AcDbLine
 10
11.3834868749
 20
17.5913432837
 30
0.0
 11
19.8834870288
 21
17.5913432837
 31
0.0
  0
ARC
  5
266
330
1F
100
AcDbEntity
  8
0
  6
Continuous
 62
     7
370
     0
100
AcDbCircle
 10
11.3834869518
 20
16.9201481817
 30
0.0
 40
0.6711951896711685
100
AcDbArc
 50
90.0
 51
180.0
  0
LINE
  5
267
330
1F
100
AcDbEntity
  8
0
  6
Continuous
 62
     7
370
     0
100
AcDbLine
 10
10.7122916419
 20
10.4201483126
 30
0.0
 11
10.7122916419
 21
16.9201480508
 31
0.0
  0
ARC
  5
268
330
1F
100
AcDbEntity
  8
0
  6
Continuous
 62
     7
370
     0
100
AcDbCircle
 10
11.3834869518
 20
10.4201481817
 30
0.0
 40
0.6711951896711721
100
AcDbArc
 50
180.0
 51
270.0
  0
LINE
  5
269
330
1F
100
AcDbEntity
  8
0
  6
Continuous
 62
     7
370
     0
100
AcDbLine
 10
19.8834870288
 20
9.7489530797
 30
0.0
 11
11.3834868749
 21
9.7489530797
 31
0.0
  0
ARC
  5
26A
330
1F
100
AcDbEntity
  8
0
  6
Continuous
 62
     7
370
     0
100
AcDbCircle
 10
19.8834869518
 20
10.4201481817
 30
0.0
 40
0.6711951896711739
100
AcDbArc
 50
270.0
 51
0.0
  0
LINE
  5
26B
330
1F
100
AcDbEntity
  8
DIMENSION
100
AcDbLine
 10
10.7122917622
 20
13.6701481817
 30
0.0
 11
20.5546821415
 21
13.6701481817
 31
0.0
  0
LINE
  5
26C
330
1F
100
AcDbEntity
  8
DIMENSION
100
AcDbLine
 10
15.6334869518
 20
9.748952992
 30
0.0
 11
15.6334869518
 21
17.5913433714
 31
0.0
  0
DIMENSION
  5
26D
330
1F
100
AcDbEntity
  8
DIMENSION
100
AcDbDimension
  2
_D
 10
5.279220896
 20
13.6701481817
 30
0.0
 11
5.279220896
 21
11.8484558995
 31
0.0
 70
   160
  1
{\fGDT;q}<>
 71
     2
 42
-1.0
  3
SLDDIMSTYLE0
100
AcDbAlignedDimension
 13
11.3834869518
 23
9.748952992
 33
0.0
 14
10.7122917622
 24
13.6701481817
 34
0.0
 50
90.0
100
AcDbRotatedDimension
  0
DIMENSION
  5
287
330
1F
100
AcDbEntity
  8
DIMENSION
100
AcDbDimension
  2
_D_1
 10
3.628635161
 20
9.748952992
 30
0.0
 11
3.628635161
 21
12.7577593282
 31
0.0
 70
   160
  1
<>
 71
     2
 42
-1.0
  3
SLDDIMSTYLE0
100
AcDbAlignedDimension
 13
11.3834869518
 23
17.5913433714
 33
0.0
 14
11.3834869518
 24
9.748952992
 34
0.0
 50
90.0
100
AcDbRotatedDimension
  0
DIMENSION
  5
29B
330
1F
100
AcDbEntity
  8
DIMENSION
100
AcDbDimension
  2
_D_2
 10
20.5546821415
 20
5.5167549639
 30
0.0
 11
15.6334869518
 21
5.5167549639
 31
0.0
 70
   160
  1
<>
 71
     2
 42
-1.0
  3
SLDDIMSTYLE0
100
AcDbAlignedDimension
 13
10.7122917622
 23
10.4201481817
 33
0.0
 14
20.5546821415
 24
10.4201481817
 34
0.0
100
AcDbRotatedDimension
  0
DIMENSION
  5
2AF
330
1F
100
AcDbEntity
  8
DIMENSION
100
AcDbDimension
  2
_D_3
 10
12.3379779867
 20
7.7242985362
 30
0.0
 11
11.5406074202
 21
7.7242985362
 31
0.0
 70
   160
  1
<>
 71
     2
 42
-1.0
  3
SLDDIMSTYLE1
100
AcDbAlignedDimension
 13
10.7122917622
 23
10.4201481817
 33
0.0
 14
12.3379779867
 24
9.7901334063
 34
0.0
100
AcDbRotatedDimension
  0
DIMENSION
  5
2C4
330
1F
100
AcDbEntity
  8
DIMENSION
100
AcDbDimension
  2
_D_4
 10
15.6334869518
 20
6.814361656
 30
0.0
 11
13.2789128094
 21
6.814361656
 31
0.0
 70
   160
  1
{\fGDT;q}<>
 71
     2
 42
-1.0
  3
SLDDIMSTYLE0
100
AcDbAlignedDimension
 13
10.7122917622
 23
10.4201481817
 33
0.0
 14
15.6334869518
 24
9.7901334063
 34
0.0
 50
0.0
100
AcDbRotatedDimension
  0
DIMENSION
  5
2D7
330
1F
100
AcDbEntity
  8
DIMENSION
100
AcDbDimension
  2
_D_5
 10
10.9382221765
 20
8.8664839885
 30
0.0
 11
8.8225279826
 21
8.8664839885
 31
0.0
 70
   160
  1
<>
 71
     2
 42
-1.0
  3
SLDDIMSTYLE1
100
AcDbAlignedDimension
 13
10.7122917622
 23
10.4201481817
 33
0.0
 14
10.9382221765
 24
11.6238384051
 34
0.0
100
AcDbRotatedDimension
  0
DIMENSION
  5
2EB
330
1F
100
AcDbEntity
  8
DIMENSION
100
AcDbDimension
  2
_D_6
 10
9.8541608069
 20
9.9748834063
 30
0.0
 11
9.8541608069
 21
11.090119761
 31
0.0
 70
   160
  1
<>
 71
     2
 42
-1.0
  3
SLDDIMSTYLE1
100
AcDbAlignedDimension
 13
11.3834869518
 23
9.748952992
 33
0.0
 14
12.1532279867
 24
9.9748834063
 34
0.0
 50
90.0
100
AcDbRotatedDimension
  0
DIMENSION
  5
300
330
1F
100
AcDbEntity
  8
DIMENSION
100
AcDbDimension
  2
_D_7
 10
6.6965437307
 20
11.8085884051
 30
0.0
 11
6.6965437307
 21
10.8745838213
 31
0.0
 70
   160
  1
<>
 71
     2
 42
-1.0
  3
SLDDIMSTYLE2
100
AcDbAlignedDimension
 13
11.3834869518
 23
9.748952992
 33
0.0
 14
10.7534721765
 24
11.8085884051
 34
0.0
 50
90.0
100
AcDbRotatedDimension
  0
DIMENSION
  5
315
330
1F
100
AcDbEntity
  8
DIMENSION
100
AcDbDimension
  2
_D_8
 10
16.3665695268
 20
9.748952992
 30
0.0
 11
16.3665695268
 21
9.0079896539
 31
0.0
 70
   160
  1
<>
 71
     2
 42
-1.0
  3
SLDDIMSTYLE1
100
AcDbAlignedDimension
 13
15.8182369518
 23
9.9748834063
 33
0.0
 14
19.8834869518
 24
9.748952992
 34
0.0
 50
90.0
100
AcDbRotatedDimension
  0
DIMENSION
  5
329
330
1F
100
AcDbEntity
  8
DIMENSION
100
AcDbDimension
  2
_D_9
 10
19.8834869518
 20
16.9201481817
 30
0.0
 11
22.7203531786
 21
18.1698435923
 31
0.0
 70
   164
  1
<>
 71
     1
 42
-1.0
  3
SLDDIMSTYLE3
100
AcDbRadialDimension
 15
20.4171624573
 25
17.3272027696
 35
0.0
 40
0.0
  0
INSERT
  5
344
330
1F
100
AcDbEntity
  8
DIMENSION
100
AcDbBlockReference
  2
SW_CENTERMARKSYMBOL_0
 10
10.9382221765
 20
11.8085884051
 30
0.0
  0
INSERT
  5
350
330
1F
100
AcDbEntity
  8
DIMENSION
100
AcDbBlockReference
  2
SW_CENTERMARKSYMBOL_1
 10
10.9382221765
 20
15.5317079583
 30
0.0
  0
INSERT
  5
35C
330
1F
100
AcDbEntity
  8
DIMENSION
100
AcDbBlockReference
  2
SW_CENTERMARKSYMBOL_2
 10
12.3379779867
 20
17.3654129571
 30
0.0
  0
INSERT
  5
368
330
1F
100
AcDbEntity
  8
DIMENSION
100
AcDbBlockReference
  2
SW_CENTERMARKSYMBOL_3
 10
15.6334869518
 20
17.3654129571
 30
0.0
  0
INSERT
  5
374
330
1F
100
AcDbEntity
  8
DIMENSION
100
AcDbBlockReference
  2
SW_CENTERMARKSYMBOL_4
 10
18.928995917
 20
17.3654129571
 30
0.0
  0
INSERT
  5
380
330
1F
100
AcDbEntity
  8
DIMENSION
100
AcDbBlockReference
  2
SW_CENTERMARKSYMBOL_5
 10
20.3287517272
 20
15.5317079583
 30
0.0
  0
INSERT
  5
38C
330
1F
100
AcDbEntity
  8
DIMENSION
100
AcDbBlockReference
  2
SW_CENTERMARKSYMBOL_6
 10
20.3287517272
 20
11.8085884051
 30
0.0
  0
INSERT
  5
398
330
1F
100
AcDbEntity
  8
DIMENSION
100
AcDbBlockReference
  2
SW_CENTERMARKSYMBOL_7
 10
18.928995917
 20
9.9748834063
 30
0.0
  0
INSERT
  5
3A4
330
1F
100
AcDbEntity
  8
DIMENSION
100
AcDbBlockReference
  2
SW_CENTERMARKSYMBOL_8
 10
15.6334869518
 20
9.9748834063
 30
0.0
  0
INSERT
  5
3B0
330
1F
100
AcDbEntity
  8
DIMENSION
100
AcDbBlockReference
  2
SW_CENTERMARKSYMBOL_9
 10
12.3379779867
 20
9.9748834063
 30
0.0
  0
LINE
  5
3B1
330
1F
100
AcDbEntity
  8
0
  6
Continuous
 62
     7
370
     0
100
AcDbLine
 10
26.9985642982
 20
10.4201483126
 30
0.0
 11
26.8735642905
 21
10.4201483126
 31
0.0
  0
LINE
  5
3B2
330
1F
100
AcDbEntity
  8
0
  6
Continuous
 62
     7
370
     0
100
AcDbLine
 10
26.9985642982
 20
10.4201483126
 30
0.0
 11
26.9985642982
 21
9.7489530797
 31
0.0
  0
LINE
  5
3B3
330
1F
100
AcDbEntity
  8
0
  6
Continuous
 62
     7
370
     0
100
AcDbLine
 10
26.9985642982
 20
9.7489530797
 30
0.0
 11
26.8735642905
 21
9.7489530797
 31
0.0
  0
LINE
  5
3B4
330
1F
100
AcDbEntity
  8
0
  6
Continuous
 62
     7
370
     0
100
AcDbLine
 10
26.8735642905
 20
10.4201483126
 30
0.0
 11
26.8735642905
 21
9.7489530797
 31
0.0
  0
LINE
  5
3B5
330
1F
100
AcDbEntity
  8
0
  6
Continuous
 62
     7
370
     0
100
AcDbLine
 10
26.9985642982
 20
17.5913432837
 30
0.0
 11
26.8735642905
 21
17.5913432837
 31
0.0
  0
LINE
  5
3B6
330
1F
100
AcDbEntity
  8
0
  6
Continuous
 62
     7
370
     0
100
AcDbLine
 10
26.9985642982
 20
17.5913432837
 30
0.0
 11
26.9985642982
 21
16.9201480508
 31
0.0
  0
LINE
  5
3B7
330
1F
100
AcDbEntity
  8
0
  6
Continuous
 62
     7
370
     0
100
AcDbLine
 10
26.9985642982
 20
16.9201480508
 30
0.0
 11
26.8735642905
 21
16.9201480508
 31
0.0
  0
LINE
  5
3B8
330
1F
100
AcDbEntity
  8
0
  6
Continuous
 62
     7
370
     0
100
AcDbLine
 10
26.8735642905
 20
17.5913432837
 30
0.0
 11
26.8735642905
 21
16.9201480508
 31
0.0
  0
LINE
  5
3B9
330
1F
100
AcDbEntity
  8
0
  6
Continuous
 62
     7
370
     0
100
AcDbLine
 10
26.9985642982
 20
16.9201480508
 30
0.0
 11
26.9985642982
 21
10.4201483126
 31
0.0
  0
LINE
  5
3BA
330
1F
100
AcDbEntity
  8
0
  6
Continuous
 62
     7
370
     0
100
AcDbLine
 10
26.8735642905
 20
16.9201480508
 30
0.0
 11
26.8735642905
 21
10.4201483126
 31
0.0
  0
DIMENSION
  5
3BB
330
1F
100
AcDbEntity
  8
DIMENSION
100
AcDbDimension
  2
_D_10
 10
26.8735643051
 20
8.3027753397
 30
0.0
 11
28.1796666673
 21
8.3027753397
 31
0.0
 70
   160
  1
<>
 71
     2
 42
-1.0
  3
SLDDIMSTYLE1
100
AcDbAlignedDimension
 13
26.9985643051
 23
9.748952992
 33
0.0
 14
26.8735643051
 24
9.748952992
 34
0.0
100
AcDbRotatedDimension
  0
ENDSEC
  0
SECTION
  2
OBJECTS
  0
DICTIONARY
  5
C
330
0
100
AcDbDictionary
281
     1
  3
ACAD_GROUP
350
D
  3
ACAD_LAYOUT
350
1A
  3
ACAD_MLINESTYLE
350
17
  3
ACAD_PLOTSETTINGS
350
19
  3
ACAD_PLOTSTYLENAME
350
E
  3
ACAD_SCALELIST
350
47
  0
DICTIONARY
  5
D
102
{ACAD_REACTORS
330
C
102
}
330
C
100
AcDbDictionary
281
     1
  0
DICTIONARY
  5
1A
102
{ACAD_REACTORS
330
C
102
}
330
C
100
AcDbDictionary
281
     1
  3
Layout1
350
1E
  3
Layout2
350
26
  3
Model
350
22
  0
DICTIONARY
  5
17
102
{ACAD_REACTORS
330
C
102
}
330
C
100
AcDbDictionary
281
     1
  3
Standard
350
18
  0
DICTIONARY
  5
19
102
{ACAD_REACTORS
330
C
102
}
330
C
100
AcDbDictionary
281
     1
  0
ACDBDICTIONARYWDFLT
  5
E
102
{ACAD_REACTORS
330
C
102
}
330
C
100
AcDbDictionary
281
     1
  3
Normal
350
F
100
AcDbDictionaryWithDefault
340
F
  0
DICTIONARY
  5
47
102
{ACAD_REACTORS
330
C
102
}
330
C
100
AcDbDictionary
281
     1
  3
A0
350
48
  3
A1
350
49
  3
A2
350
4A
  3
A3
350
4B
  3
A4
350
4C
  3
A5
350
4D
  3
A6
350
4E
  3
A7
350
4F
  3
A8
350
50
  3
A9
350
51
  3
B0
350
52
  3
B1
350
53
  3
B2
350
54
  3
B3
350
55
  3
B4
350
56
  3
B5
350
57
  3
B6
350
58
  3
B7
350
59
  3
B8
350
5A
  3
B9
350
5B
  3
C0
350
5C
  3
C1
350
5D
  3
C2
350
5E
  3
C3
350
5F
  3
C4
350
60
  3
C5
350
61
  3
C6
350
62
  3
C7
350
63
  3
C8
350
64
  3
C9
350
65
  3
D0
350
66
  3
D1
350
67
  3
D2
350
68
  0
LAYOUT
  5
1E
102
{ACAD_REACTORS
330
1A
102
}
330
1A
100
AcDbPlotSettings
  1

  2
none_device
  4

  6

 40
0.0
 41
0.0
 42
0.0
 43
0.0
 44
0.0
 45
0.0
 46
0.0
 47
0.0
 48
0.0
 49
0.0
140
0.0
141
0.0
142
1.0
143
1.0
 70
   688
 72
     0
 73
     0
 74
     5
  7

 75
    16
147
1.0
148
0.0
149
0.0
100
AcDbLayout
  1
Layout1
 70
     1
 71
     1
 10
0.0
 20
0.0
 11
12.0
 21
9.0
 12
0.0
 22
0.0
 32
0.0
 14
1.0000000000E+20
 24
1.0000000000E+20
 34
1.0000000000E+20
 15
-1.0000000000E+20
 25
-1.0000000000E+20
 35
-1.0000000000E+20
146
0.0
 13
0.0
 23
0.0
 33
0.0
 16
1.0
 26
0.0
 36
0.0
 17
0.0
 27
1.0
 37
0.0
 76
     0
330
1B
  0
LAYOUT
  5
26
102
{ACAD_REACTORS
330
1A
102
}
330
1A
100
AcDbPlotSettings
  1

  2
none_device
  4

  6

 40
0.0
 41
0.0
 42
0.0
 43
0.0
 44
0.0
 45
0.0
 46
0.0
 47
0.0
 48
0.0
 49
0.0
140
0.0
141
0.0
142
1.0
143
1.0
 70
   688
 72
     0
 73
     0
 74
     5
  7

 75
    16
147
1.0
148
0.0
149
0.0
100
AcDbLayout
  1
Layout2
 70
     1
 71
     2
 10
0.0
 20
0.0
 11
0.0
 21
0.0
 12
0.0
 22
0.0
 32
0.0
 14
0.0
 24
0.0
 34
0.0
 15
0.0
 25
0.0
 35
0.0
146
0.0
 13
0.0
 23
0.0
 33
0.0
 16
1.0
 26
0.0
 36
0.0
 17
0.0
 27
1.0
 37
0.0
 76
     0
330
23
  0
LAYOUT
  5
22
102
{ACAD_REACTORS
330
1A
102
}
330
1A
100
AcDbPlotSettings
  1

  2
none_device
  4
Letter_(8.50_x_11.00_Inches)
  6

 40
6.35
 41
6.35
 42
6.35000508
 43
6.35000508
 44
215.9
 45
279.4
 46
0.0
 47
0.0
 48
0.0
 49
0.0
140
0.0
141
0.0
142
1.0
143
1.0
 70
  1712
 72
     0
 73
     0
 74
     0
  7

 75
     0
147
1.0
148
0.0
149
0.0
100
AcDbLayout
  1
Model
 70
     1
 71
     0
 10
0.0
 20
0.0
 11
33.0
 21
25.5
 12
0.0
 22
0.0
 32
0.0
 14
0.0
 24
0.0
 34
0.0
 15
33.0
 25
25.5
 35
0.0
146
0.0
 13
0.0
 23
0.0
 33
0.0
 16
1.0
 26
0.0
 36
0.0
 17
0.0
 27
1.0
 37
0.0
 76
     0
330
1F
331
29
  0
MLINESTYLE
  5
18
102
{ACAD_REACTORS
330
17
102
}
330
17
100
AcDbMlineStyle
  2
Standard
 70
     0
  3

 62
   256
 51
90.0
 52
90.0
 71
     2
 49
0.5
 62
   256
  6
BYLAYER
 49
-0.5
 62
   256
  6
BYLAYER
  0
ACDBPLACEHOLDER
  5
F
102
{ACAD_REACTORS
330
E
102
}
330
E
  0
SCALE
  5
48
102
{ACAD_REACTORS
330
47
102
}
330
47
100
AcDbScale
 70
     0
300
1:1
140
1.0
141
1.0
290
     1
  0
SCALE
  5
49
102
{ACAD_REACTORS
330
47
102
}
330
47
100
AcDbScale
 70
     0
300
1:2
140
1.0
141
2.0
290
     0
  0
SCALE
  5
4A
102
{ACAD_REACTORS
330
47
102
}
330
47
100
AcDbScale
 70
     0
300
1:4
140
1.0
141
4.0
290
     0
  0
SCALE
  5
4B
102
{ACAD_REACTORS
330
47
102
}
330
47
100
AcDbScale
 70
     0
300
1:5
140
1.0
141
5.0
290
     0
  0
SCALE
  5
4C
102
{ACAD_REACTORS
330
47
102
}
330
47
100
AcDbScale
 70
     0
300
1:8
140
1.0
141
8.0
290
     0
  0
SCALE
  5
4D
102
{ACAD_REACTORS
330
47
102
}
330
47
100
AcDbScale
 70
     0
300
1:10
140
1.0
141
10.0
290
     0
  0
SCALE
  5
4E
102
{ACAD_REACTORS
330
47
102
}
330
47
100
AcDbScale
 70
     0
300
1:16
140
1.0
141
16.0
290
     0
  0
SCALE
  5
4F
102
{ACAD_REACTORS
330
47
102
}
330
47
100
AcDbScale
 70
     0
300
1:20
140
1.0
141
20.0
290
     0
  0
SCALE
  5
50
102
{ACAD_REACTORS
330
47
102
}
330
47
100
AcDbScale
 70
     0
300
1:30
140
1.0
141
30.0
290
     0
  0
SCALE
  5
51
102
{ACAD_REACTORS
330
47
102
}
330
47
100
AcDbScale
 70
     0
300
1:40
140
1.0
141
40.0
290
     0
  0
SCALE
  5
52
102
{ACAD_REACTORS
330
47
102
}
330
47
100
AcDbScale
 70
     0
300
1:50
140
1.0
141
50.0
290
     0
  0
SCALE
  5
53
102
{ACAD_REACTORS
330
47
102
}
330
47
100
AcDbScale
 70
     0
300
1:100
140
1.0
141
100.0
290
     0
  0
SCALE
  5
54
102
{ACAD_REACTORS
330
47
102
}
330
47
100
AcDbScale
 70
     0
300
2:1
140
2.0
141
1.0
290
     0
  0
SCALE
  5
55
102
{ACAD_REACTORS
330
47
102
}
330
47
100
AcDbScale
 70
     0
300
4:1
140
4.0
141
1.0
290
     0
  0
SCALE
  5
56
102
{ACAD_REACTORS
330
47
102
}
330
47
100
AcDbScale
 70
     0
300
8:1
140
8.0
141
1.0
290
     0
  0
SCALE
  5
57
102
{ACAD_REACTORS
330
47
102
}
330
47
100
AcDbScale
 70
     0
300
10:1
140
10.0
141
1.0
290
     0
  0
SCALE
  5
58
102
{ACAD_REACTORS
330
47
102
}
330
47
100
AcDbScale
 70
     0
300
100:1
140
100.0
141
1.0
290
     0
  0
SCALE
  5
59
102
{ACAD_REACTORS
330
47
102
}
330
47
100
AcDbScale
 70
     0
300
1/128" = 1'-0"
140
0.0078125
141
12.0
290
     0
  0
SCALE
  5
5A
102
{ACAD_REACTORS
330
47
102
}
330
47
100
AcDbScale
 70
     0
300
1/64" = 1'-0"
140
0.015625
141
12.0
290
     0
  0
SCALE
  5
5B
102
{ACAD_REACTORS
330
47
102
}
330
47
100
AcDbScale
 70
     0
300
1/32" = 1'-0"
140
0.03125
141
12.0
290
     0
  0
SCALE
  5
5C
102
{ACAD_REACTORS
330
47
102
}
330
47
100
AcDbScale
 70
     0
300
1/16" = 1'-0"
140
0.0625
141
12.0
290
     0
  0
SCALE
  5
5D
102
{ACAD_REACTORS
330
47
102
}
330
47
100
AcDbScale
 70
     0
300
3/32" = 1'-0"
140
0.09375
141
12.0
290
     0
  0
SCALE
  5
5E
102
{ACAD_REACTORS
330
47
102
}
330
47
100
AcDbScale
 70
     0
300
1/8" = 1'-0"
140
0.125
141
12.0
290
     0
  0
SCALE
  5
5F
102
{ACAD_REACTORS
330
47
102
}
330
47
100
AcDbScale
 70
     0
300
3/16" = 1'-0"
140
0.1875
141
12.0
290
     0
  0
SCALE
  5
60
102
{ACAD_REACTORS
330
47
102
}
330
47
100
AcDbScale
 70
     0
300
1/4" = 1'-0"
140
0.25
141
12.0
290
     0
  0
SCALE
  5
61
102
{ACAD_REACTORS
330
47
102
}
330
47
100
AcDbScale
 70
     0
300
3/8" = 1'-0"
140
0.375
141
12.0
290
     0
  0
SCALE
  5
62
102
{ACAD_REACTORS
330
47
102
}
330
47
100
AcDbScale
 70
     0
300
1/2" = 1'-0"
140
0.5
141
12.0
290
     0
  0
SCALE
  5
63
102
{ACAD_REACTORS
330
47
102
}
330
47
100
AcDbScale
 70
     0
300
3/4" = 1'-0"
140
0.75
141
12.0
290
     0
  0
SCALE
  5
64
102
{ACAD_REACTORS
330
47
102
}
330
47
100
AcDbScale
 70
     0
300
1" = 1'-0"
140
1.0
141
12.0
290
     0
  0
SCALE
  5
65
102
{ACAD_REACTORS
330
47
102
}
330
47
100
AcDbScale
 70
     0
300
1-1/2" = 1'-0"
140
1.5
141
12.0
290
     0
  0
SCALE
  5
66
102
{ACAD_REACTORS
330
47
102
}
330
47
100
AcDbScale
 70
     0
300
3" = 1'-0"
140
3.0
141
12.0
290
     0
  0
SCALE
  5
67
102
{ACAD_REACTORS
330
47
102
}
330
47
100
AcDbScale
 70
     0
300
6" = 1'-0"
140
6.0
141
12.0
290
     0
  0
SCALE
  5
68
102
{ACAD_REACTORS
330
47
102
}
330
47
100
AcDbScale
 70
     0
300
1'-0" = 1'-0"
140
12.0
141
12.0
290
     0
  0
ENDSEC
  0
EOF
