  0
SECTION
  2
HEADER
  9
$ACADVER
  1
AC1015
  9
$ACADMAINTVER
 70
     6
  9
$DWGCODEPAGE
  3
ANSI_1252
  9
$INSBASE
 10
0.0
 20
0.0
 30
0.0
  9
$EXTMIN
 10
0.0
 20
0.0
 30
0.0
  9
$EXTMAX
 10
44.0
 20
34.0
 30
0.0
  9
$LIMMIN
 10
0.0
 20
0.0
  9
$LIMMAX
 10
44.0
 20
34.0
  9
$ORTHOMODE
 70
     0
  9
$REGENMODE
 70
     1
  9
$FILLMODE
 70
     1
  9
$QTEXTMODE
 70
     0
  9
$MIRRTEXT
 70
     1
  9
$LTSCALE
 40
4.0
  9
$ATTMODE
 70
     1
  9
$TEXTSIZE
 40
0.4444444444
  9
$TRACEWID
 40
0.05
  9
$TEXTSTYLE
  7
Standard
  9
$CLAYER
  8
0
  9
$CELTYPE
  6
ByLayer
  9
$CECOLOR
 62
   256
  9
$CELTSCALE
 40
1.0
  9
$DISPSILH
 70
     0
  9
$DIMSCALE
 40
1.0
  9
$DIMASZ
 40
0.3333333333
  9
$DIMEXO
 40
0.2
  9
$DIMDLI
 40
0.38
  9
$DIMRND
 40
0.0
  9
$DIMDLE
 40
0.0
  9
$DIMEXE
 40
0.5
  9
$DIMTP
 40
0.0
  9
$DIMTM
 40
0.0
  9
$DIMTXT
 40
0.4444444444
  9
$DIMCEN
 40
0.09
  9
$DIMTSZ
 40
0.0
  9
$DIMTOL
 70
     0
  9
$DIMLIM
 70
     0
  9
$DIMTIH
 70
     1
  9
$DIMTOH
 70
     1
  9
$DIMSE1
 70
     0
  9
$DIMSE2
 70
     0
  9
$DIMTAD
 70
     0
  9
$DIMZIN
 70
     0
  9
$DIMBLK
  1

  9
$DIMASO
 70
     1
  9
$DIMSHO
 70
     1
  9
$DIMPOST
  1

  9
$DIMAPOST
  1

  9
$DIMALT
 70
     0
  9
$DIMALTD
 70
     2
  9
$DIMALTF
 40
25.4
  9
$DIMLFAC
 40
1.0
  9
$DIMTOFL
 70
     0
  9
$DIMTVP
 40
0.0
  9
$DIMTIX
 70
     0
  9
$DIMSOXD
 70
     0
  9
$DIMSAH
 70
     0
  9
$DIMBLK1
  1

  9
$DIMBLK2
  1

  9
$DIMSTYLE
  2
Standard
  9
$DIMCLRD
 70
     0
  9
$DIMCLRE
 70
     0
  9
$DIMCLRT
 70
     0
  9
$DIMTFAC
 40
1.0
  9
$DIMGAP
 40
0.24
  9
$DIMJUST
 70
     0
  9
$DIMSD1
 70
     0
  9
$DIMSD2
 70
     0
  9
$DIMTOLJ
 70
     1
  9
$DIMTZIN
 70
     0
  9
$DIMALTZ
 70
     0
  9
$DIMALTTZ
 70
     0
  9
$DIMUPT
 70
     0
  9
$DIMDEC
 70
     3
  9
$DIMTDEC
 70
     3
  9
$DIMALTU
 70
     2
  9
$DIMALTTD
 70
     2
  9
$DIMTXSTY
  7
Standard
  9
$DIMAUNIT
 70
     0
  9
$DIMADEC
 70
     2
  9
$DIMALTRND
 40
0.0
  9
$DIMAZIN
 70
     0
  9
$DIMDSEP
 70
    46
  9
$DIMATFIT
 70
     3
  9
$DIMFRAC
 70
     0
  9
$DIMLDRBLK
  1

  9
$DIMLUNIT
 70
     2
  9
$DIMLWD
 70
    -2
  9
$DIMLWE
 70
    -2
  9
$DIMTMOVE
 70
     0
  9
$LUNITS
 70
     2
  9
$LUPREC
 70
     3
  9
$SKETCHINC
 40
0.1
  9
$FILLETRAD
 40
0.5
  9
$AUNITS
 70
     0
  9
$AUPREC
 70
     2
  9
$MENU
  1
.
  9
$ELEVATION
 40
0.0
  9
$PELEVATION
 40
0.0
  9
$THICKNESS
 40
0.0
  9
$LIMCHECK
 70
     0
  9
$CHAMFERA
 40
0.0
  9
$CHAMFERB
 40
0.0
  9
$CHAMFERC
 40
0.0
  9
$CHAMFERD
 40
0.0
  9
$SKPOLY
 70
     0
  9
$TDCREATE
 40
2458662.676648854
  9
$TDUCREATE
 40
2458662.843315521
  9
$TDUPDATE
 40
2458662.676652639
  9
$TDUUPDATE
 40
2458662.843319306
  9
$TDINDWG
 40
0.0000000116
  9
$TDUSRTIMER
 40
0.0000000116
  9
$USRTIMER
 70
     1
  9
$ANGBASE
 50
0.0
  9
$ANGDIR
 70
     0
  9
$PDMODE
 70
     0
  9
$PDSIZE
 40
-1.0
  9
$PLINEWID
 40
0.0
  9
$SPLFRAME
 70
     0
  9
$SPLINETYPE
 70
     6
  9
$SPLINESEGS
 70
     8
  9
$HANDSEED
  5
371
  9
$SURFTAB1
 70
     6
  9
$SURFTAB2
 70
     6
  9
$SURFTYPE
 70
     6
  9
$SURFU
 70
     6
  9
$SURFV
 70
     6
  9
$UCSBASE
  2

  9
$UCSNAME
  2

  9
$UCSORG
 10
0.0
 20
0.0
 30
0.0
  9
$UCSXDIR
 10
1.0
 20
0.0
 30
0.0
  9
$UCSYDIR
 10
0.0
 20
1.0
 30
0.0
  9
$UCSORTHOREF
  2

  9
$UCSORTHOVIEW
 70
     0
  9
$UCSORGTOP
 10
0.0
 20
0.0
 30
0.0
  9
$UCSORGBOTTOM
 10
0.0
 20
0.0
 30
0.0
  9
$UCSORGLEFT
 10
0.0
 20
0.0
 30
0.0
  9
$UCSORGRIGHT
 10
0.0
 20
0.0
 30
0.0
  9
$UCSORGFRONT
 10
0.0
 20
0.0
 30
0.0
  9
$UCSORGBACK
 10
0.0
 20
0.0
 30
0.0
  9
$PUCSBASE
  2

  9
$PUCSNAME
  2

  9
$PUCSORG
 10
0.0
 20
0.0
 30
0.0
  9
$PUCSXDIR
 10
1.0
 20
0.0
 30
0.0
  9
$PUCSYDIR
 10
0.0
 20
1.0
 30
0.0
  9
$PUCSORTHOREF
  2

  9
$PUCSORTHOVIEW
 70
     0
  9
$PUCSORGTOP
 10
0.0
 20
0.0
 30
0.0
  9
$PUCSORGBOTTOM
 10
0.0
 20
0.0
 30
0.0
  9
$PUCSORGLEFT
 10
0.0
 20
0.0
 30
0.0
  9
$PUCSORGRIGHT
 10
0.0
 20
0.0
 30
0.0
  9
$PUCSORGFRONT
 10
0.0
 20
0.0
 30
0.0
  9
$PUCSORGBACK
 10
0.0
 20
0.0
 30
0.0
  9
$USERI1
 70
     0
  9
$USERI2
 70
     0
  9
$USERI3
 70
     0
  9
$USERI4
 70
     0
  9
$USERI5
 70
     0
  9
$USERR1
 40
0.0
  9
$USERR2
 40
0.0
  9
$USERR3
 40
0.0
  9
$USERR4
 40
0.0
  9
$USERR5
 40
0.0
  9
$WORLDVIEW
 70
     1
  9
$SHADEDGE
 70
     3
  9
$SHADEDIF
 70
    70
  9
$TILEMODE
 70
     1
  9
$MAXACTVP
 70
    64
  9
$PINSBASE
 10
0.0
 20
0.0
 30
0.0
  9
$PLIMCHECK
 70
     0
  9
$PEXTMIN
 10
1.0000000000E+20
 20
1.0000000000E+20
 30
1.0000000000E+20
  9
$PEXTMAX
 10
-1.0000000000E+20
 20
-1.0000000000E+20
 30
-1.0000000000E+20
  9
$PLIMMIN
 10
0.0
 20
0.0
  9
$PLIMMAX
 10
12.0
 20
9.0
  9
$UNITMODE
 70
     0
  9
$VISRETAIN
 70
     1
  9
$PLINEGEN
 70
     0
  9
$PSLTSCALE
 70
     1
  9
$TREEDEPTH
 70
  3020
  9
$CMLSTYLE
  2
Standard
  9
$CMLJUST
 70
     0
  9
$CMLSCALE
 40
1.0
  9
$PROXYGRAPHICS
 70
     1
  9
$MEASUREMENT
 70
     0
  9
$CELWEIGHT
370
    -1
  9
$ENDCAPS
280
     0
  9
$JOINSTYLE
280
     0
  9
$LWDISPLAY
290
     1
  9
$INSUNITS
 70
     1
  9
$HYPERLINKBASE
  1

  9
$STYLESHEET
  1

  9
$XEDIT
290
     1
  9
$CEPSNTYPE
380
     0
  9
$PSTYLEMODE
290
     1
  9
$FINGERPRINTGUID
  2
{8A25D8F7-34F5-4E97-BEA6-EDAEC2510F78}
  9
$VERSIONGUID
  2
{FAEB1C32-E019-11D5-929B-00C0DF256EC4}
  9
$EXTNAMES
290
     1
  9
$PSVPSCALE
 40
0.0
  9
$OLESTARTUP
290
     0
  0
ENDSEC
  0
SECTION
  2
CLASSES
  0
CLASS
  1
ACDBDICTIONARYWDFLT
  2
AcDbDictionaryWithDefault
  3
ObjectDBX Classes
 90
        0
280
     0
281
     0
  0
CLASS
  1
VISUALSTYLE
  2
AcDbVisualStyle
  3
ObjectDBX Classes
 90
     4095
280
     0
281
     0
  0
CLASS
  1
MATERIAL
  2
AcDbMaterial
  3
ObjectDBX Classes
 90
     1153
280
     0
281
     0
  0
CLASS
  1
SCALE
  2
AcDbScale
  3
ObjectDBX Classes
 90
     1153
280
     0
281
     0
  0
CLASS
  1
TABLESTYLE
  2
AcDbTableStyle
  3
ObjectDBX Classes
 90
     4095
280
     0
281
     0
  0
CLASS
  1
MLEADERSTYLE
  2
AcDbMLeaderStyle
  3
ACDB_MLEADERSTYLE_CLASS
 90
     4095
280
     0
281
     0
  0
CLASS
  1
SUN
  2
AcDbSun
  3
SCENEOE
 90
     1153
280
     0
281
     0
  0
CLASS
  1
ACDBPLACEHOLDER
  2
AcDbPlaceHolder
  3
ObjectDBX Classes
 90
        0
280
     0
281
     0
  0
CLASS
  1
LAYOUT
  2
AcDbLayout
  3
ObjectDBX Classes
 90
        0
280
     0
281
     0
  0
ENDSEC
  0
SECTION
  2
TABLES
  0
TABLE
  2
VPORT
  5
8
330
0
100
AcDbSymbolTable
 70
     1
  0
VPORT
  5
29
330
8
100
AcDbSymbolTableRecord
100
AcDbViewportTableRecord
  2
*Active
 70
     0
 10
0.0
 20
0.0
 11
1.0
 21
1.0
 12
22.0
 22
17.0
 13
0.0
 23
0.0
 14
0.5
 24
0.5
 15
0.5
 25
0.5
 16
0.0
 26
0.0
 36
1.0
 17
0.0
 27
0.0
 37
0.0
 40
34.0
 41
1.2941176471
 42
50.0
 43
0.0
 44
0.0
 50
0.0
 51
0.0
 71
     0
 72
  2000
 73
     1
 74
     3
 75
     0
 76
     0
 77
     0
 78
     0
281
     0
 65
     1
110
0.0
120
0.0
130
0.0
111
1.0
121
0.0
131
0.0
112
0.0
122
1.0
132
0.0
 79
     0
146
0.0
  0
ENDTAB
  0
TABLE
  2
LTYPE
  5
5
330
0
100
AcDbSymbolTable
 70
     6
  0
LTYPE
  5
14
330
5
100
AcDbSymbolTableRecord
100
AcDbLinetypeTableRecord
  2
ByBlock
 70
     0
  3

 72
    65
 73
     0
 40
0.0
  0
LTYPE
  5
15
330
5
100
AcDbSymbolTableRecord
100
AcDbLinetypeTableRecord
  2
ByLayer
 70
     0
  3

 72
    65
 73
     0
 40
0.0
  0
LTYPE
  5
16
330
5
100
AcDbSymbolTableRecord
100
AcDbLinetypeTableRecord
  2
Continuous
 70
     0
  3
Solid line
 72
    65
 73
     0
 40
0.0
  0
LTYPE
  5
6E
330
5
100
AcDbSymbolTableRecord
100
AcDbLinetypeTableRecord
  2
HIDDEN
 70
     0
  3
Hidden __ __ __ __ __ __ __ __ __ __ __ __ __ __
 72
    65
 73
     2
 40
0.075
 49
0.05
 74
     0
 49
-0.025
 74
     0
  0
LTYPE
  5
6F
330
5
100
AcDbSymbolTableRecord
100
AcDbLinetypeTableRecord
  2
PHANTOM
 70
     0
  3
Phantom ______  __  __  ______  __  __  ______
 72
    65
 73
     6
 40
0.5
 49
0.25
 74
     0
 49
-0.05
 74
     0
 49
0.05
 74
     0
 49
-0.05
 74
     0
 49
0.05
 74
     0
 49
-0.05
 74
     0
  0
LTYPE
  5
70
330
5
100
AcDbSymbolTableRecord
100
AcDbLinetypeTableRecord
  2
CENTER
 70
     0
  3
Center ____ _ ____ _ ____ _ ____ _ ____ _ ____
 72
    65
 73
     4
 40
0.4
 49
0.25
 74
     0
 49
-0.05
 74
     0
 49
0.05
 74
     0
 49
-0.05
 74
     0
  0
LTYPE
  5
71
330
5
100
AcDbSymbolTableRecord
100
AcDbLinetypeTableRecord
  2
CENTERX2
 70
     0
  3
Center (2x) ________  __  ________  __  _____
 72
    65
 73
     4
 40
0.8
 49
0.5
 74
     0
 49
-0.1
 74
     0
 49
0.1
 74
     0
 49
-0.1
 74
     0
  0
LTYPE
  5
72
330
5
100
AcDbSymbolTableRecord
100
AcDbLinetypeTableRecord
  2
DOT2
 70
     0
  3
Dot (.5x) ........................................
 72
    65
 73
     2
 40
0.025
 49
0.0
 74
     0
 49
-0.025
 74
     0
  0
ENDTAB
  0
TABLE
  2
LAYER
  5
2
330
0
100
AcDbSymbolTable
 70
     9
  0
LAYER
  5
10
330
2
100
AcDbSymbolTableRecord
100
AcDbLayerTableRecord
  2
0
 70
     0
 62
     7
  6
Continuous
370
    -3
390
F
  0
LAYER
  5
73
330
2
100
AcDbSymbolTableRecord
100
AcDbLayerTableRecord
  2
FORMAT
 70
     0
 62
     7
  6
Continuous
370
    -3
390
F
  0
LAYER
  5
74
330
2
100
AcDbSymbolTableRecord
100
AcDbLayerTableRecord
  2
SLD-0
 70
     0
 62
   179
  6
Continuous
370
    -3
390
F
  0
LAYER
  5
75
330
2
100
AcDbSymbolTableRecord
100
AcDbLayerTableRecord
  2
LAYER1
 70
     0
 62
   179
  6
Continuous
370
    -3
390
F
  0
LAYER
  5
76
330
2
100
AcDbSymbolTableRecord
100
AcDbLayerTableRecord
  2
UNASSIGNED
 70
     0
 62
   179
  6
Continuous
370
    -3
390
F
  0
LAYER
  5
77
330
2
100
AcDbSymbolTableRecord
100
AcDbLayerTableRecord
  2
DIMENSION
 70
     0
 62
     5
  6
Continuous
370
    -3
390
F
  0
LAYER
  5
78
330
2
100
AcDbSymbolTableRecord
100
AcDbLayerTableRecord
  2
FRAME
 70
     0
 62
     8
  6
PHANTOM
370
    35
390
F
  0
LAYER
  5
79
330
2
100
AcDbSymbolTableRecord
100
AcDbLayerTableRecord
  2
ALERT
 70
     0
 62
     1
  6
Continuous
370
   100
390
F
  0
LAYER
  5
7A
330
2
100
AcDbSymbolTableRecord
100
AcDbLayerTableRecord
  2
NOTE
 70
     0
 62
     7
  6
Continuous
370
    -3
390
F
  0
ENDTAB
  0
TABLE
  2
STYLE
  5
3
330
0
100
AcDbSymbolTable
 70
     3
  0
STYLE
  5
11
330
3
100
AcDbSymbolTableRecord
100
AcDbTextStyleTableRecord
  2
Standard
 70
     0
 40
0.0
 41
1.0
 50
0.0
 71
     0
 42
0.4444444444
  3
txt
  4

  0
STYLE
  5
172
330
3
100
AcDbSymbolTableRecord
100
AcDbTextStyleTableRecord
  2
SLDTEXTSTYLE0
 70
     0
 40
0.0
 41
0.605
 50
0.0
 71
     0
 42
0.4444444444
  3
TXT
  4

  0
STYLE
  5
1B4
330
3
100
AcDbSymbolTableRecord
100
AcDbTextStyleTableRecord
  2
SLDTEXTSTYLE1
 70
     0
 40
0.0
 41
0.75
 50
0.0
 71
     0
 42
0.4444444444
  3
TXT
  4

  0
ENDTAB
  0
TABLE
  2
VIEW
  5
6
330
0
100
AcDbSymbolTable
 70
     0
  0
ENDTAB
  0
TABLE
  2
UCS
  5
7
330
0
100
AcDbSymbolTable
 70
     0
  0
ENDTAB
  0
TABLE
  2
APPID
  5
9
330
0
100
AcDbSymbolTable
 70
     1
  0
APPID
  5
12
330
9
100
AcDbSymbolTableRecord
100
AcDbRegAppTableRecord
  2
ACAD
 70
     0
  0
ENDTAB
  0
TABLE
  2
DIMSTYLE
  5
A
330
0
100
AcDbSymbolTable
 70
     6
100
AcDbDimStyleTable
  0
DIMSTYLE
105
27
330
A
100
AcDbSymbolTableRecord
100
AcDbDimStyleTableRecord
  2
Standard
 70
     0
178
     0
340
11
  0
DIMSTYLE
105
1B5
102
{ACAD_REACTORS
330
1B3
330
21A
330
22F
330
26B
330
35D
102
}
330
A
100
AcDbSymbolTableRecord
100
AcDbDimStyleTableRecord
  2
SLDDIMSTYLE0
 70
     0
 41
0.3333333333
 44
0.0
 45
0.000000001
 78
    12
 79
     3
140
0.3333333333
147
0.0833333333
148
0.000000001
170
     1
172
     1
173
     1
178
     0
271
     3
272
     3
276
     2
284
    12
289
     0
340
1B4
  0
DIMSTYLE
105
1CA
102
{ACAD_REACTORS
330
1C9
330
1DE
330
1F2
330
206
330
243
330
257
330
27F
330
293
102
}
330
A
100
AcDbSymbolTableRecord
100
AcDbDimStyleTableRecord
  2
SLDDIMSTYLE1
 70
     0
 41
0.3333333333
 44
0.0
 45
0.000000001
 78
    12
 79
     3
140
0.3333333333
147
0.0833333333
148
0.000000001
170
     1
173
     1
178
     0
271
     3
272
     3
276
     2
284
    12
340
1B4
  0
DIMSTYLE
105
2A8
102
{ACAD_REACTORS
330
2A7
102
}
330
A
100
AcDbSymbolTableRecord
100
AcDbDimStyleTableRecord
  2
SLDDIMSTYLE2
 70
     0
 41
0.3333333333
 44
0.0
 45
0.000000001
 78
     4
 79
     1
140
0.3333333333
147
0.0833333333
148
0.000000001
170
     1
173
     1
178
     0
271
     3
272
     3
276
     2
284
    12
340
1B4
  0
DIMSTYLE
105
2BD
102
{ACAD_REACTORS
330
2BC
102
}
330
A
100
AcDbSymbolTableRecord
100
AcDbDimStyleTableRecord
  2
SLDDIMSTYLE3
 70
     0
 41
0.3333333333
 44
0.0
 45
0.000000001
 78
    12
 79
     3
140
0.3333333333
141
0.0
147
0.0833333333
148
0.000000001
170
     1
173
     1
178
     0
271
     3
272
     3
276
     2
284
    12
340
1B4
  0
DIMSTYLE
105
2CD
102
{ACAD_REACTORS
330
2CC
102
}
330
A
100
AcDbSymbolTableRecord
100
AcDbDimStyleTableRecord
  2
SLDDIMSTYLE4
 70
     0
 41
0.3333333333
 44
0.0
 45
0.000000001
 78
    12
 79
     3
140
0.3333333333
141
0.0
147
0.0833333333
148
0.000000001
170
     1
173
     1
178
     0
271
     3
272
     3
276
     2
284
    12
340
1B4
  0
ENDTAB
  0
TABLE
  2
BLOCK_RECORD
  5
1
330
0
100
AcDbSymbolTable
 70
    26
  0
BLOCK_RECORD
  5
1F
330
1
100
AcDbSymbolTableRecord
100
AcDbBlockTableRecord
  2
*Model_Space
340
22
  0
BLOCK_RECORD
  5
1B
330
1
100
AcDbSymbolTableRecord
100
AcDbBlockTableRecord
  2
*Paper_Space
340
1E
  0
BLOCK_RECORD
  5
23
330
1
100
AcDbSymbolTableRecord
100
AcDbBlockTableRecord
  2
*Paper_Space0
340
26
  0
BLOCK_RECORD
  5
7B
330
1
100
AcDbSymbolTableRecord
100
AcDbBlockTableRecord
  2
Block16_1
340
0
102
{BLKREFS
331
162
102
}
  0
BLOCK_RECORD
  5
A7
330
1
100
AcDbSymbolTableRecord
100
AcDbBlockTableRecord
  2
Block17_1_1_1_1
340
0
102
{BLKREFS
331
171
102
}
  0
BLOCK_RECORD
  5
174
330
1
100
AcDbSymbolTableRecord
100
AcDbBlockTableRecord
  2
SW_NOTE_0
340
0
102
{BLKREFS
331
17B
102
}
  0
BLOCK_RECORD
  5
184
330
1
100
AcDbSymbolTableRecord
100
AcDbBlockTableRecord
  2
SW_NOTE_1
340
0
102
{BLKREFS
331
18C
102
}
  0
BLOCK_RECORD
  5
18D
330
1
100
AcDbSymbolTableRecord
100
AcDbBlockTableRecord
  2
SW_NOTE_2
340
0
102
{BLKREFS
331
192
102
}
  0
BLOCK_RECORD
  5
1B6
330
1
100
AcDbSymbolTableRecord
100
AcDbBlockTableRecord
  2
_D
340
0
  0
BLOCK_RECORD
  5
1CB
330
1
100
AcDbSymbolTableRecord
100
AcDbBlockTableRecord
  2
_D_1
340
0
  0
BLOCK_RECORD
  5
1DF
330
1
100
AcDbSymbolTableRecord
100
AcDbBlockTableRecord
  2
_D_2
340
0
  0
BLOCK_RECORD
  5
1F3
330
1
100
AcDbSymbolTableRecord
100
AcDbBlockTableRecord
  2
_D_3
340
0
  0
BLOCK_RECORD
  5
207
330
1
100
AcDbSymbolTableRecord
100
AcDbBlockTableRecord
  2
_D_4
340
0
  0
BLOCK_RECORD
  5
21B
330
1
100
AcDbSymbolTableRecord
100
AcDbBlockTableRecord
  2
_D_5
340
0
  0
BLOCK_RECORD
  5
230
330
1
100
AcDbSymbolTableRecord
100
AcDbBlockTableRecord
  2
_D_6
340
0
  0
BLOCK_RECORD
  5
244
330
1
100
AcDbSymbolTableRecord
100
AcDbBlockTableRecord
  2
_D_7
340
0
  0
BLOCK_RECORD
  5
258
330
1
100
AcDbSymbolTableRecord
100
AcDbBlockTableRecord
  2
_D_8
340
0
  0
BLOCK_RECORD
  5
26C
330
1
100
AcDbSymbolTableRecord
100
AcDbBlockTableRecord
  2
_D_9
340
0
  0
BLOCK_RECORD
  5
280
330
1
100
AcDbSymbolTableRecord
100
AcDbBlockTableRecord
  2
_D_10
340
0
  0
BLOCK_RECORD
  5
294
330
1
100
AcDbSymbolTableRecord
100
AcDbBlockTableRecord
  2
_D_11
340
0
  0
BLOCK_RECORD
  5
2A9
330
1
100
AcDbSymbolTableRecord
100
AcDbBlockTableRecord
  2
_D_12
340
0
  0
BLOCK_RECORD
  5
2BE
330
1
100
AcDbSymbolTableRecord
100
AcDbBlockTableRecord
  2
_D_13
340
0
  0
BLOCK_RECORD
  5
2CE
330
1
100
AcDbSymbolTableRecord
100
AcDbBlockTableRecord
  2
_D_14
340
0
  0
BLOCK_RECORD
  5
2DD
330
1
100
AcDbSymbolTableRecord
100
AcDbBlockTableRecord
  2
SW_CENTERMARKSYMBOL_0
340
0
102
{BLKREFS
331
2F6
102
}
  0
BLOCK_RECORD
  5
2F7
330
1
100
AcDbSymbolTableRecord
100
AcDbBlockTableRecord
  2
SW_CENTERMARKSYMBOL_1
340
0
102
{BLKREFS
331
317
102
}
  0
BLOCK_RECORD
  5
318
330
1
100
AcDbSymbolTableRecord
100
AcDbBlockTableRecord
  2
SW_CENTERMARKSYMBOL_2
340
0
102
{BLKREFS
331
331
102
}
  0
BLOCK_RECORD
  5
332
330
1
100
AcDbSymbolTableRecord
100
AcDbBlockTableRecord
  2
SW_CENTERMARKSYMBOL_3
340
0
102
{BLKREFS
331
352
102
}
  0
BLOCK_RECORD
  5
35E
330
1
100
AcDbSymbolTableRecord
100
AcDbBlockTableRecord
  2
_D_15
340
0
  0
ENDTAB
  0
ENDSEC
  0
SECTION
  2
BLOCKS
  0
BLOCK
  5
20
330
1F
100
AcDbEntity
  8
0
100
AcDbBlockBegin
  2
*Model_Space
 70
     0
 10
0.0
 20
0.0
 30
0.0
  3
*Model_Space
  1

  0
ENDBLK
  5
21
330
1F
100
AcDbEntity
  8
0
100
AcDbBlockEnd
  0
BLOCK
  5
1C
330
1B
100
AcDbEntity
 67
     1
  8
0
100
AcDbBlockBegin
  2
*Paper_Space
 70
     0
 10
0.0
 20
0.0
 30
0.0
  3
*Paper_Space
  1

  0
ENDBLK
  5
1D
330
1B
100
AcDbEntity
 67
     1
  8
0
100
AcDbBlockEnd
  0
BLOCK
  5
24
330
23
100
AcDbEntity
  8
0
100
AcDbBlockBegin
  2
*Paper_Space0
 70
     0
 10
0.0
 20
0.0
 30
0.0
  3
*Paper_Space0
  1

  0
ENDBLK
  5
25
330
23
100
AcDbEntity
  8
0
100
AcDbBlockEnd
  0
BLOCK
  5
7C
330
7B
100
AcDbEntity
  8
0
100
AcDbBlockBegin
  2
Block16_1
 70
     0
 10
0.0
 20
0.0
 30
0.0
  3
Block16_1
  1

  0
ARC
  5
7E
330
7B
100
AcDbEntity
  8
0
  6
Continuous
 62
     7
370
    18
100
AcDbCircle
 10
0.1923488935
 20
0.715987386
 30
0.0
 40
0.1923488934534852
100
AcDbArc
 50
150.0
 51
240.0
  0
ARC
  5
7F
330
7B
100
AcDbEntity
  8
0
  6
Continuous
 62
     7
370
    18
100
AcDbCircle
 10
1.0993173673
 20
0.1923488935
 30
0.0
 40
0.1923488934534843
100
AcDbArc
 50
240.0
 51
330.0
  0
ARC
  5
80
330
7B
100
AcDbEntity
  8
0
  6
Continuous
 62
     7
370
    18
100
AcDbCircle
 10
1.4311876167
 20
0.767165027
 30
0.0
 40
0.1923488934534887
100
AcDbArc
 50
330.0
 51
60.0
  0
ARC
  5
81
330
7B
100
AcDbEntity
  8
0
  6
Continuous
 62
     7
370
    18
100
AcDbCircle
 10
1.0273607592
 20
1.0876959503
 30
0.0
 40
0.396857282737496
100
AcDbArc
 50
347.0973347856
 51
132.9026652144
  0
ARC
  5
82
330
7B
100
AcDbEntity
  8
0
  6
Continuous
 62
     7
370
    18
100
AcDbCircle
 10
0.5242191429
 20
1.2908035195
 30
0.0
 40
0.1923488934534809
100
AcDbArc
 50
60.0
 51
150.0
  0
ARC
  5
83
330
7B
100
AcDbEntity
  8
0
  6
Continuous
 62
     7
370
    18
100
AcDbCircle
 10
1.0225647817
 20
1.0853093308
 30
0.0
 40
0.2430493568526658
100
AcDbArc
 50
359.895142647
 51
120.104857353
  0
ARC
  5
84
330
7B
100
AcDbEntity
  8
0
  6
Continuous
 62
     7
370
    18
100
AcDbCircle
 10
0.5241708403
 20
1.2893488733
 30
0.0
 40
0.0395084534925075
100
AcDbArc
 50
60.0
 51
150.0
  0
ARC
  5
85
330
7B
100
AcDbEntity
  8
0
  6
Continuous
 62
     7
370
    18
100
AcDbCircle
 10
1.4305750016
 20
0.7660361868
 30
0.0
 40
0.0395084534924882
100
AcDbArc
 50
330.0
 51
60.0
  0
ARC
  5
86
330
7B
100
AcDbEntity
  8
0
  6
Continuous
 62
     7
370
    18
100
AcDbCircle
 10
1.0987047522
 20
0.1912200533
 30
0.0
 40
0.0395084534924849
100
AcDbArc
 50
240.0
 51
330.0
  0
ARC
  5
87
330
7B
100
AcDbEntity
  8
0
  6
Continuous
 62
     7
370
    18
100
AcDbCircle
 10
0.1923005909
 20
0.7145327398
 30
0.0
 40
0.0395084534924863
100
AcDbArc
 50
150.0
 51
240.0
  0
ARC
  5
88
330
7B
100
AcDbEntity
  8
SLD-0
  6
Continuous
 62
   179
370
    25
100
AcDbCircle
 10
1.0225647817
 20
1.0853093308
 30
0.0
 40
0.2430493568526658
100
AcDbArc
 50
359.895142647
 51
120.104857353
  0
ARC
  5
89
330
7B
100
AcDbEntity
  8
SLD-0
  6
Continuous
 62
   179
370
    25
100
AcDbCircle
 10
0.5242191429
 20
1.2908035195
 30
0.0
 40
0.1923488934534809
100
AcDbArc
 50
60.0
 51
150.0
  0
ARC
  5
8A
330
7B
100
AcDbEntity
  8
SLD-0
  6
Continuous
 62
   179
370
    25
100
AcDbCircle
 10
0.5241708403
 20
1.2893488733
 30
0.0
 40
0.0395084534925075
100
AcDbArc
 50
60.0
 51
150.0
  0
ARC
  5
8B
330
7B
100
AcDbEntity
  8
SLD-0
  6
Continuous
 62
   179
370
    25
100
AcDbCircle
 10
1.0273607592
 20
1.0876959503
 30
0.0
 40
0.396857282737496
100
AcDbArc
 50
347.0973347856
 51
132.9026652144
  0
ARC
  5
8C
330
7B
100
AcDbEntity
  8
SLD-0
  6
Continuous
 62
   179
370
    25
100
AcDbCircle
 10
1.4311876167
 20
0.767165027
 30
0.0
 40
0.1923488934534887
100
AcDbArc
 50
330.0
 51
60.0
  0
ARC
  5
8D
330
7B
100
AcDbEntity
  8
SLD-0
  6
Continuous
 62
   179
370
    25
100
AcDbCircle
 10
1.0993173673
 20
0.1923488935
 30
0.0
 40
0.1923488934534843
100
AcDbArc
 50
240.0
 51
330.0
  0
ARC
  5
8E
330
7B
100
AcDbEntity
  8
SLD-0
  6
Continuous
 62
   179
370
    25
100
AcDbCircle
 10
0.1923488935
 20
0.715987386
 30
0.0
 40
0.1923488934534852
100
AcDbArc
 50
150.0
 51
240.0
  0
ARC
  5
8F
330
7B
100
AcDbEntity
  8
SLD-0
  6
Continuous
 62
   179
370
    25
100
AcDbCircle
 10
0.1923005909
 20
0.7145327398
 30
0.0
 40
0.0395084534924863
100
AcDbArc
 50
150.0
 51
240.0
  0
ARC
  5
90
330
7B
100
AcDbEntity
  8
SLD-0
  6
Continuous
 62
   179
370
    25
100
AcDbCircle
 10
1.0987047522
 20
0.1912200533
 30
0.0
 40
0.0395084534924849
100
AcDbArc
 50
240.0
 51
330.0
  0
ARC
  5
91
330
7B
100
AcDbEntity
  8
SLD-0
  6
Continuous
 62
   179
370
    25
100
AcDbCircle
 10
1.4305750016
 20
0.7660361868
 30
0.0
 40
0.0395084534924882
100
AcDbArc
 50
330.0
 51
60.0
  0
LINE
  5
92
330
7B
100
AcDbEntity
  8
0
  6
Continuous
 62
     7
370
    18
100
AcDbLine
 10
0.3576401147
 20
1.3869779662
 30
0.0
 11
0.0257698653
 21
0.8121618327
 31
0.0
  0
LINE
  5
93
330
7B
100
AcDbEntity
  8
0
  6
Continuous
 62
     7
370
    18
100
AcDbLine
 10
0.0961744467
 20
0.5494083578
 30
0.0
 11
1.0031429205
 21
0.0257698653
 31
0.0
  0
LINE
  5
94
330
7B
100
AcDbEntity
  8
0
  6
Continuous
 62
     7
370
    18
100
AcDbLine
 10
1.2658963954
 20
0.0961744467
 30
0.0
 11
1.5977666448
 21
0.6709905802
 31
0.0
  0
LINE
  5
95
330
7B
100
AcDbEntity
  8
0
  6
Continuous
 62
     7
370
    18
100
AcDbLine
 10
1.5273620634
 20
0.9337440551
 30
0.0
 11
1.4141977163
 21
0.9990795213
 31
0.0
  0
LINE
  5
96
330
7B
100
AcDbEntity
  8
0
  6
Continuous
 62
     7
370
    18
100
AcDbLine
 10
0.757198202
 20
1.3783983678
 30
0.0
 11
0.6203935896
 21
1.4573825476
 31
0.0
  0
LINE
  5
97
330
7B
100
AcDbEntity
  8
0
  6
Continuous
 62
     7
370
    18
100
AcDbLine
 10
1.2656137315
 20
1.0848645249
 30
0.0
 11
0.9006550936
 21
1.2955734928
 31
0.0
  0
LINE
  5
98
330
7B
100
AcDbEntity
  8
0
  6
Continuous
 62
     7
370
    18
100
AcDbLine
 10
0.543925067
 20
1.3235641977
 30
0.0
 11
1.4503292283
 21
0.8002515112
 31
0.0
  0
LINE
  5
99
330
7B
100
AcDbEntity
  8
0
  6
Continuous
 62
     7
370
    18
100
AcDbLine
 10
1.464790326
 20
0.74628196
 30
0.0
 11
1.1329200765
 21
0.1714658265
 31
0.0
  0
LINE
  5
9A
330
7B
100
AcDbEntity
  8
0
  6
Continuous
 62
     7
370
    18
100
AcDbLine
 10
1.0789505254
 20
0.1570047289
 30
0.0
 11
0.1725463641
 21
0.6803174154
 31
0.0
  0
LINE
  5
9B
330
7B
100
AcDbEntity
  8
0
  6
Continuous
 62
     7
370
    18
100
AcDbLine
 10
0.1580852665
 20
0.7342869665
 30
0.0
 11
0.4899555159
 21
1.3091031
 31
0.0
  0
LINE
  5
9C
330
7B
100
AcDbEntity
  8
SLD-0
  6
Continuous
 62
   179
370
    25
100
AcDbLine
 10
0.6203935896
 20
1.4573825476
 30
0.0
 11
0.757198202
 21
1.3783983678
 31
0.0
  0
LINE
  5
9D
330
7B
100
AcDbEntity
  8
SLD-0
  6
Continuous
 62
   179
370
    25
100
AcDbLine
 10
1.4141977163
 20
0.9990795213
 30
0.0
 11
1.5273620634
 21
0.9337440551
 31
0.0
  0
LINE
  5
9E
330
7B
100
AcDbEntity
  8
SLD-0
  6
Continuous
 62
   179
370
    25
100
AcDbLine
 10
1.2658963954
 20
0.0961744467
 30
0.0
 11
1.5977666448
 21
0.6709905802
 31
0.0
  0
LINE
  5
9F
330
7B
100
AcDbEntity
  8
SLD-0
  6
Continuous
 62
   179
370
    25
100
AcDbLine
 10
0.0961744467
 20
0.5494083578
 30
0.0
 11
1.0031429205
 21
0.0257698653
 31
0.0
  0
LINE
  5
A0
330
7B
100
AcDbEntity
  8
SLD-0
  6
Continuous
 62
   179
370
    25
100
AcDbLine
 10
0.0257698653
 20
0.8121618327
 30
0.0
 11
0.3576401147
 21
1.3869779662
 31
0.0
  0
LINE
  5
A1
330
7B
100
AcDbEntity
  8
SLD-0
  6
Continuous
 62
   179
370
    25
100
AcDbLine
 10
0.1580852665
 20
0.7342869665
 30
0.0
 11
0.4899555159
 21
1.3091031
 31
0.0
  0
LINE
  5
A2
330
7B
100
AcDbEntity
  8
SLD-0
  6
Continuous
 62
   179
370
    25
100
AcDbLine
 10
0.1725463641
 20
0.6803174154
 30
0.0
 11
1.0789505254
 21
0.1570047289
 31
0.0
  0
LINE
  5
A3
330
7B
100
AcDbEntity
  8
SLD-0
  6
Continuous
 62
   179
370
    25
100
AcDbLine
 10
1.1329200765
 20
0.1714658265
 30
0.0
 11
1.464790326
 21
0.74628196
 31
0.0
  0
LINE
  5
A4
330
7B
100
AcDbEntity
  8
SLD-0
  6
Continuous
 62
   179
370
    25
100
AcDbLine
 10
0.543925067
 20
1.3235641977
 30
0.0
 11
1.4503292283
 21
0.8002515112
 31
0.0
  0
LINE
  5
A5
330
7B
100
AcDbEntity
  8
SLD-0
  6
Continuous
 62
   179
370
    25
100
AcDbLine
 10
0.9006550936
 20
1.2955734928
 30
0.0
 11
1.2656137315
 21
1.0848645249
 31
0.0
  0
HATCH
  5
A6
330
7B
100
AcDbEntity
  8
0
  6
Continuous
 62
   179
100
AcDbHatch
 10
0.0
 20
0.0
 30
0.0
210
0.0
220
0.0
230
1.0
  2
SOLID
 70
     1
 71
     0
 91
        3
 92
        0
 93
       10
 72
     1
 10
0.757198201982832
 20
1.378398367786078
 11
0.6203935895933597
 21
1.457382547575515
 72
     2
 10
0.5242191428666213
 20
1.290803519454974
 40
0.1923488934534795
 50
60.00000000000058
 51
150.0000000000006
 73
     1
 72
     1
 10
0.3576401147460804
 20
1.386977966181712
 11
0.0257698653329423
 21
0.812161832677589
 72
     2
 10
0.1923488934534854
 20
0.7159873859508441
 40
0.1923488934534793
 50
149.9999999999992
 51
239.9999999999992
 73
     1
 72
     1
 10
0.0961744467267449
 20
0.549408357830314
 11
1.003142920530964
 21
0.0257698653329401
 72
     2
 10
1.099317367257703
 20
0.1923488934534854
 40
0.1923488934534837
 50
240.0000000000017
 51
330.0000000000004
 73
     1
 72
     1
 10
1.265896395378245
 20
0.0961744467267427
 11
1.597766644791387
 21
0.6709905802308769
 72
     2
 10
1.431187616670838
 20
0.7671650269576173
 40
0.1923488934534878
 50
330.0000000000021
 51
420.0000000000029
 73
     1
 72
     1
 10
1.527362063397575
 20
0.933744055078167
 11
1.414197716282749
 21
0.9990795213475787
 72
     2
 10
1.027360759169241
 20
1.087695950258652
 40
0.3968572827374954
 50
347.0973347856244
 51
492.9026652143788
 73
     1
 97
        0
 92
        0
 93
        2
 72
     1
 10
1.265613731539442
 20
1.08486452493639
 11
0.9006550936249221
 21
1.295573492779405
 72
     2
 10
1.022564781707831
 20
1.085309330787837
 40
0.2430493568526597
 50
239.8951426469622
 51
360.1048573530384
 73
     0
 97
        0
 92
        0
 93
        8
 72
     1
 10
1.078950525412881
 20
0.157004728871926
 11
0.1725463641195935
 21
0.6803174153892028
 72
     2
 10
0.1923005908658329
 20
0.7145327397779341
 40
0.0395084534924797
 50
119.9999999999938
 51
210.0000000000092
 73
     0
 72
     1
 10
0.158085266477118
 20
0.7342869665241757
 11
0.4899555158902452
 21
1.309103100028294
 72
     2
 10
0.5241708402789895
 20
1.289348873282035
 40
0.0395084534925002
 50
210.0000000000099
 51
300.0000000000127
 73
     0
 72
     1
 10
0.5439250670252421
 20
1.323564197670764
 11
1.450329228318513
 21
0.8002515111534987
 72
     2
 10
1.430575001572256
 20
0.7660361867647892
 40
0.0395084534924831
 50
300.0000000000324
 51
389.999999999993
 73
     0
 72
     1
 10
1.464790325960989
 20
0.7462819600185499
 11
1.132920076547847
 21
0.1714658265144157
 72
     2
 10
1.098704752159121
 20
0.1912200532606573
 40
0.0395084534924838
 50
30.00000000000056
 51
119.9999999999952
 73
     0
 97
        0
 75
     0
 76
     1
 98
        1
 10
0.0
 20
0.0
  0
ENDBLK
  5
7D
330
7B
100
AcDbEntity
  8
0
100
AcDbBlockEnd
  0
BLOCK
  5
A8
330
A7
100
AcDbEntity
  8
0
100
AcDbBlockBegin
  2
Block17_1_1_1_1
 70
     0
 10
0.0
 20
0.0
 30
0.0
  3
Block17_1_1_1_1
  1

  0
LINE
  5
AA
330
A7
100
AcDbEntity
  8
0
  6
Continuous
 62
     1
370
    18
100
AcDbLine
 10
6.5948949255
 20
0.4777696918
 30
0.0
 11
6.7933879161
 21
0.4844134058
 31
0.0
  0
LINE
  5
AB
330
A7
100
AcDbEntity
  8
0
  6
Continuous
 62
     1
370
    18
100
AcDbLine
 10
6.9074383393
 20
0.3654042685
 30
0.0
 11
6.9074383393
 21
0.2098065616
 31
0.0
  0
LINE
  5
AC
330
A7
100
AcDbEntity
  8
0
  6
Continuous
 62
     1
370
    18
100
AcDbLine
 10
6.9059459108
 20
0.9781665254
 30
0.0
 11
6.9059459108
 21
0.8268053897
 31
0.0
  0
LINE
  5
AD
330
A7
100
AcDbEntity
  8
0
  6
Continuous
 62
     1
370
    18
100
AcDbLine
 10
6.9059459108
 20
0.7051002525
 30
0.0
 11
7.0135451915
 21
0.6812213965
 31
0.0
  0
LINE
  5
AE
330
A7
100
AcDbEntity
  8
0
  6
Continuous
 62
     1
370
    18
100
AcDbLine
 10
6.9436417662
 20
0.2098065616
 30
0.0
 11
6.9436417662
 21
0.3628045544
 31
0.0
  0
LINE
  5
AF
330
A7
100
AcDbEntity
  8
0
  6
Continuous
 62
     1
370
    18
100
AcDbLine
 10
6.9584697655
 20
0.501937405
 30
0.0
 11
6.8228513433
 21
0.5353485462
 31
0.0
  0
LINE
  5
B0
330
A7
100
AcDbEntity
  8
0
  6
Continuous
 62
     1
370
    18
100
AcDbLine
 10
6.9434491948
 20
0.8254573897
 30
0.0
 11
6.9434491948
 21
0.9781665254
 31
0.0
  0
LINE
  5
B1
330
A7
100
AcDbEntity
  8
0
  6
Continuous
 62
     1
370
    18
100
AcDbLine
 10
7.2411164665
 20
0.7317713941
 30
0.0
 11
7.04522319
 21
0.7211799661
 31
0.0
  0
LINE
  5
B2
330
A7
100
AcDbEntity
  8
0
  6
Continuous
 62
     1
370
    18
100
AcDbLine
 10
5.6529799698
 20
0.5101216903
 30
0.0
 11
5.8568649602
 21
0.5004931193
 31
0.0
  0
LINE
  5
B3
330
A7
100
AcDbEntity
  8
0
  6
Continuous
 62
     1
370
    18
100
AcDbLine
 10
5.5349818325
 20
0.2096139901
 30
0.0
 11
5.5349818325
 21
0.3862019818
 31
0.0
  0
LINE
  5
B4
330
A7
100
AcDbEntity
  8
0
  6
Continuous
 62
     1
370
    18
100
AcDbLine
 10
5.5349818325
 20
0.810436819
 30
0.0
 11
5.5349818325
 21
0.9781665254
 31
0.0
  0
LINE
  5
B5
330
A7
100
AcDbEntity
  8
0
  6
Continuous
 62
     1
370
    18
100
AcDbLine
 10
5.8515692462
 20
0.7064482525
 30
0.0
 11
5.6489841129
 21
0.695664253
 31
0.0
  0
LINE
  5
B6
330
A7
100
AcDbEntity
  8
0
  6
Continuous
 62
     1
370
    18
100
AcDbLine
 10
6.2946760825
 20
0.7007673956
 30
0.0
 11
6.2946760825
 21
0.5588422594
 31
0.0
  0
LINE
  5
B7
330
A7
100
AcDbEntity
  8
0
  6
Continuous
 62
     1
370
    18
100
AcDbLine
 10
6.5347644997
 20
0.6854579677
 30
0.0
 11
6.5347644997
 21
0.3720479825
 31
0.0
  0
LINE
  5
B8
330
A7
100
AcDbEntity
  8
0
  6
Continuous
 62
     1
370
    18
100
AcDbLine
 10
6.5616763556
 20
0.2292562749
 30
0.0
 11
6.3416635088
 21
0.2292562749
 31
0.0
  0
LINE
  5
B9
330
A7
100
AcDbEntity
  8
0
  6
Continuous
 62
     1
370
    18
100
AcDbLine
 10
6.3254875096
 20
0.3369036984
 30
0.0
 11
6.3254875096
 21
0.7087591095
 31
0.0
  0
LINE
  5
BA
330
A7
100
AcDbEntity
  8
0
  6
Continuous
 62
     1
370
    18
100
AcDbLine
 10
6.0962312347
 20
0.7222391089
 30
0.0
 11
5.9057781008
 21
0.7217576803
 31
0.0
  0
LINE
  5
BB
330
A7
100
AcDbEntity
  8
0
  6
Continuous
 62
     1
370
    18
100
AcDbLine
 10
5.5000301199
 20
0.9781665254
 30
0.0
 11
5.5000301199
 21
0.8109182475
 31
0.0
  0
LINE
  5
BC
330
A7
100
AcDbEntity
  8
0
  6
Continuous
 62
     1
370
    18
100
AcDbLine
 10
5.5000301199
 20
0.3862019818
 30
0.0
 11
5.5000301199
 21
0.2096139901
 31
0.0
  0
LINE
  5
BD
330
A7
100
AcDbEntity
  8
0
  6
Continuous
 62
     1
370
    18
100
AcDbLine
 10
8.0190568584
 20
0.5318822607
 30
0.0
 11
7.5441757379
 21
0.5318822607
 31
0.0
  0
LINE
  5
BE
330
A7
100
AcDbEntity
  8
0
  6
Continuous
 62
     1
370
    18
100
AcDbLine
 10
7.5441757379
 20
0.6888279676
 30
0.0
 11
7.8016918686
 21
0.6888279676
 31
0.0
  0
LINE
  5
BF
330
A7
100
AcDbEntity
  8
0
  6
Continuous
 62
     1
370
    18
100
AcDbLine
 10
7.8016918686
 20
0.4556239786
 30
0.0
 11
8.0109688588
 21
0.4407959793
 31
0.0
  0
LINE
  5
C0
330
A7
100
AcDbEntity
  8
0
  6
Continuous
 62
   179
370
    18
100
AcDbLine
 10
2.7501102494
 20
0.2289674178
 30
0.0
 11
2.7501102494
 21
1.1761780875
 31
0.0
  0
LINE
  5
C1
330
A7
100
AcDbEntity
  8
0
  6
Continuous
 62
   179
370
    18
100
AcDbLine
 10
2.9558728112
 20
0.2289674178
 30
0.0
 11
2.7501102494
 21
0.2289674178
 31
0.0
  0
LINE
  5
C2
330
A7
100
AcDbEntity
  8
0
  6
Continuous
 62
   179
370
    18
100
AcDbLine
 10
2.9558728112
 20
1.1761780875
 30
0.0
 11
2.9558728112
 21
0.2289674178
 31
0.0
  0
LINE
  5
C3
330
A7
100
AcDbEntity
  8
0
  6
Continuous
 62
   179
370
    18
100
AcDbLine
 10
2.7501102494
 20
1.1761780875
 30
0.0
 11
2.9558728112
 21
1.1761780875
 31
0.0
  0
LINE
  5
C4
330
A7
100
AcDbEntity
  8
0
  6
Continuous
 62
   179
370
    18
100
AcDbLine
 10
2.2059274893
 20
0.0
 30
0.0
 11
1.9982632848
 21
0.0
 31
0.0
  0
LINE
  5
C5
330
A7
100
AcDbEntity
  8
0
  6
Continuous
 62
   179
370
    18
100
AcDbLine
 10
1.9982632848
 20
0.9548653836
 30
0.0
 11
2.2059274893
 21
0.9548653836
 31
0.0
  0
LINE
  5
C6
330
A7
100
AcDbEntity
  8
0
  6
Continuous
 62
   179
370
    18
100
AcDbLine
 10
1.9982632848
 20
0.0
 30
0.0
 11
1.9982632848
 21
0.9548653836
 31
0.0
  0
LINE
  5
C7
330
A7
100
AcDbEntity
  8
0
  6
Continuous
 62
   179
370
    18
100
AcDbLine
 10
2.2059274893
 20
0.9548653836
 30
0.0
 11
2.2059274893
 21
0.0
 31
0.0
  0
LINE
  5
C8
330
A7
100
AcDbEntity
  8
0
  6
Continuous
 62
   179
370
    18
100
AcDbLine
 10
2.2406384877
 20
0.2468765598
 30
0.0
 11
2.2406384877
 21
0.4210574088
 31
0.0
  0
LINE
  5
C9
330
A7
100
AcDbEntity
  8
0
  6
Continuous
 62
   179
370
    18
100
AcDbLine
 10
2.2406384877
 20
0.7688413924
 30
0.0
 11
2.2406384877
 21
0.9309865276
 31
0.0
  0
LINE
  5
CA
330
A7
100
AcDbEntity
  8
0
  6
Continuous
 62
   179
370
    18
100
AcDbLine
 10
3.6800135628
 20
0.6854579677
 30
0.0
 11
3.6800135628
 21
0.3720479825
 31
0.0
  0
LINE
  5
CB
330
A7
100
AcDbEntity
  8
0
  6
Continuous
 62
   179
370
    18
100
AcDbLine
 10
3.7068532044
 20
0.2292562749
 30
0.0
 11
3.4868885004
 21
0.2292562749
 31
0.0
  0
LINE
  5
CC
330
A7
100
AcDbEntity
  8
0
  6
Continuous
 62
   179
370
    18
100
AcDbLine
 10
3.4707847155
 20
0.3369036984
 30
0.0
 11
3.4707847155
 21
0.7087591095
 31
0.0
  0
LINE
  5
CD
330
A7
100
AcDbEntity
  8
0
  6
Continuous
 62
   179
370
    18
100
AcDbLine
 10
3.2415043691
 20
0.7222391089
 30
0.0
 11
3.0510271638
 21
0.7217576803
 31
0.0
  0
LINE
  5
CE
330
A7
100
AcDbEntity
  8
0
  6
Continuous
 62
   179
370
    18
100
AcDbLine
 10
4.0511227596
 20
0.9781665254
 30
0.0
 11
4.0511227596
 21
0.8268053897
 31
0.0
  0
LINE
  5
CF
330
A7
100
AcDbEntity
  8
0
  6
Continuous
 62
   179
370
    18
100
AcDbLine
 10
4.0511227596
 20
0.7051002525
 30
0.0
 11
4.1587220402
 21
0.6812213965
 31
0.0
  0
LINE
  5
D0
330
A7
100
AcDbEntity
  8
0
  6
Continuous
 62
   179
370
    18
100
AcDbLine
 10
4.0888426864
 20
0.2098065616
 30
0.0
 11
4.0888426864
 21
0.3628045544
 31
0.0
  0
LINE
  5
D1
330
A7
100
AcDbEntity
  8
0
  6
Continuous
 62
   179
370
    18
100
AcDbLine
 10
4.1036947571
 20
0.501937405
 30
0.0
 11
3.9680281921
 21
0.5353485462
 31
0.0
  0
LINE
  5
D2
330
A7
100
AcDbEntity
  8
0
  6
Continuous
 62
   179
370
    18
100
AcDbLine
 10
4.0886019721
 20
0.8254573897
 30
0.0
 11
4.0886019721
 21
0.9781665254
 31
0.0
  0
LINE
  5
D3
330
A7
100
AcDbEntity
  8
0
  6
Continuous
 62
   179
370
    18
100
AcDbLine
 10
4.3862933152
 20
0.7317713941
 30
0.0
 11
4.1905444673
 21
0.7211799661
 31
0.0
  0
LINE
  5
D4
330
A7
100
AcDbEntity
  8
0
  6
Continuous
 62
   179
370
    18
100
AcDbLine
 10
5.0888901393
 20
0.2289674178
 30
0.0
 11
4.8812500062
 21
0.2289674178
 31
0.0
  0
LINE
  5
D5
330
A7
100
AcDbEntity
  8
0
  6
Continuous
 62
   179
370
    18
100
AcDbLine
 10
5.0888901393
 20
0.9548653836
 30
0.0
 11
5.0888901393
 21
0.2289674178
 31
0.0
  0
LINE
  5
D6
330
A7
100
AcDbEntity
  8
0
  6
Continuous
 62
   179
370
    18
100
AcDbLine
 10
4.8812500062
 20
0.9548653836
 30
0.0
 11
5.0888901393
 21
0.9548653836
 31
0.0
  0
LINE
  5
D7
330
A7
100
AcDbEntity
  8
0
  6
Continuous
 62
   179
370
    18
100
AcDbLine
 10
4.8812500062
 20
0.2289674178
 30
0.0
 11
4.8812500062
 21
0.9548653836
 31
0.0
  0
LINE
  5
D8
330
A7
100
AcDbEntity
  8
0
  6
Continuous
 62
   179
370
    18
100
AcDbLine
 10
5.0888901393
 20
0.9920316675
 30
0.0
 11
4.8812500062
 21
0.9920316675
 31
0.0
  0
LINE
  5
D9
330
A7
100
AcDbEntity
  8
0
  6
Continuous
 62
   179
370
    18
100
AcDbLine
 10
5.0888901393
 20
1.175985516
 30
0.0
 11
5.0888901393
 21
0.9920316675
 31
0.0
  0
LINE
  5
DA
330
A7
100
AcDbEntity
  8
0
  6
Continuous
 62
   179
370
    18
100
AcDbLine
 10
4.8812500062
 20
1.175985516
 30
0.0
 11
5.0888901393
 21
1.175985516
 31
0.0
  0
LINE
  5
DB
330
A7
100
AcDbEntity
  8
0
  6
Continuous
 62
   179
370
    18
100
AcDbLine
 10
4.8812500062
 20
0.9920316675
 30
0.0
 11
4.8812500062
 21
1.175985516
 31
0.0
  0
LINE
  5
DC
330
A7
100
AcDbEntity
  8
0
  6
Continuous
 62
   179
370
    18
100
AcDbLine
 10
4.402950743
 20
0.7996528195
 30
0.0
 11
4.402950743
 21
0.9548653836
 31
0.0
  0
LINE
  5
DD
330
A7
100
AcDbEntity
  8
0
  6
Continuous
 62
   179
370
    18
100
AcDbLine
 10
4.402950743
 20
0.9548653836
 30
0.0
 11
4.5035693097
 21
0.9548653836
 31
0.0
  0
LINE
  5
DE
330
A7
100
AcDbEntity
  8
0
  6
Continuous
 62
   179
370
    18
100
AcDbLine
 10
4.5035693097
 20
0.9548653836
 30
0.0
 11
4.5035693097
 21
1.0863916631
 31
0.0
  0
LINE
  5
DF
330
A7
100
AcDbEntity
  8
0
  6
Continuous
 62
   179
370
    18
100
AcDbLine
 10
4.5035693097
 20
1.0863916631
 30
0.0
 11
4.7112575856
 21
1.0863916631
 31
0.0
  0
LINE
  5
E0
330
A7
100
AcDbEntity
  8
0
  6
Continuous
 62
   179
370
    18
100
AcDbLine
 10
4.7112575856
 20
1.0863916631
 30
0.0
 11
4.7112575856
 21
0.9548653836
 31
0.0
  0
LINE
  5
E1
330
A7
100
AcDbEntity
  8
0
  6
Continuous
 62
   179
370
    18
100
AcDbLine
 10
4.7112575856
 20
0.9548653836
 30
0.0
 11
4.8480795792
 21
0.9548653836
 31
0.0
  0
LINE
  5
E2
330
A7
100
AcDbEntity
  8
0
  6
Continuous
 62
   179
370
    18
100
AcDbLine
 10
4.8480795792
 20
0.9548653836
 30
0.0
 11
4.8480795792
 21
0.7996528195
 31
0.0
  0
LINE
  5
E3
330
A7
100
AcDbEntity
  8
0
  6
Continuous
 62
   179
370
    18
100
AcDbLine
 10
4.8480795792
 20
0.7996528195
 30
0.0
 11
4.7112575856
 21
0.7996528195
 31
0.0
  0
LINE
  5
E4
330
A7
100
AcDbEntity
  8
0
  6
Continuous
 62
   179
370
    18
100
AcDbLine
 10
4.7112575856
 20
0.7996528195
 30
0.0
 11
4.7112575856
 21
0.4985674051
 31
0.0
  0
LINE
  5
E5
330
A7
100
AcDbEntity
  8
0
  6
Continuous
 62
   179
370
    18
100
AcDbLine
 10
4.8480795792
 20
0.3927494101
 30
0.0
 11
4.8480795792
 21
0.2325299891
 31
0.0
  0
LINE
  5
E6
330
A7
100
AcDbEntity
  8
0
  6
Continuous
 62
   179
370
    18
100
AcDbLine
 10
4.5035693097
 20
0.4249088372
 30
0.0
 11
4.5035693097
 21
0.7996528195
 31
0.0
  0
LINE
  5
E7
330
A7
100
AcDbEntity
  8
0
  6
Continuous
 62
   179
370
    18
100
AcDbLine
 10
4.5035693097
 20
0.7996528195
 30
0.0
 11
4.402950743
 21
0.7996528195
 31
0.0
  0
LINE
  5
E8
330
A7
100
AcDbEntity
  8
0
  6
Continuous
 62
   179
370
    18
100
AcDbLine
 10
3.7401199171
 20
0.4777696918
 30
0.0
 11
3.9385647649
 21
0.4844134058
 31
0.0
  0
LINE
  5
E9
330
A7
100
AcDbEntity
  8
0
  6
Continuous
 62
   179
370
    18
100
AcDbLine
 10
4.0525911167
 20
0.3654042685
 30
0.0
 11
4.0525911167
 21
0.2098065616
 31
0.0
  0
LINE
  5
EA
330
A7
100
AcDbEntity
  8
0
  6
Continuous
 62
   179
370
    18
100
AcDbLine
 10
3.4399251455
 20
0.7007673956
 30
0.0
 11
3.4399251455
 21
0.5588422594
 31
0.0
  0
SPLINE
  5
EB
330
A7
100
AcDbEntity
  8
0
  6
Continuous
 62
     1
370
    18
100
AcDbSpline
210
0.0
220
0.0
230
1.0
 70
     8
 71
     3
 72
     8
 73
     4
 74
     0
 42
0.000000001
 43
0.00000001
 40
0.0
 40
0.0
 40
0.0
 40
0.0
 40
0.25
 40
0.25
 40
0.25
 40
0.25
 10
6.907438339331763
 20
0.2098065615677268
 30
0.0
 10
6.685981206905113
 20
0.227137989322857
 30
0.0
 10
6.60558263926322
 20
0.3224608419760863
 30
0.0
 10
6.594894925480909
 20
0.4777696918039455
 30
0.0
  0
SPLINE
  5
EC
330
A7
100
AcDbEntity
  8
0
  6
Continuous
 62
     1
370
    18
100
AcDbSpline
210
0.0
220
0.0
230
1.0
 70
     8
 71
     3
 72
     8
 73
     4
 74
     0
 42
0.000000001
 43
0.00000001
 40
0.5
 40
0.5
 40
0.5
 40
0.5
 40
0.75
 40
0.75
 40
0.75
 40
0.75
 10
6.793387916132026
 20
0.4844134057767685
 30
0.0
 10
6.804075629914355
 20
0.4216351230193242
 30
0.0
 10
6.817507486424575
 20
0.3828319819897545
 30
0.0
 10
6.907438339331763
 20
0.365404268524904
 30
0.0
  0
SPLINE
  5
ED
330
A7
100
AcDbEntity
  8
0
  6
Continuous
 62
     1
370
    18
100
AcDbSpline
210
0.0
220
0.0
230
1.0
 70
     8
 71
     3
 72
     8
 73
     4
 74
     0
 42
0.000000001
 43
0.00000001
 40
0.0
 40
0.0
 40
0.0
 40
0.0
 40
0.0714285714285714
 40
0.0714285714285714
 40
0.0714285714285714
 40
0.0714285714285714
 10
6.82285134331574
 20
0.535348546234904
 30
0.0
 10
6.739901204365499
 20
0.5579756880263015
 30
0.0
 10
6.618196067240602
 20
0.5914831150195777
 30
0.0
 10
6.618196067240602
 20
0.7465993934279875
 30
0.0
  0
SPLINE
  5
EE
330
A7
100
AcDbEntity
  8
0
  6
Continuous
 62
     1
370
    18
100
AcDbSpline
210
0.0
220
0.0
230
1.0
 70
     8
 71
     3
 72
     8
 73
     4
 74
     0
 42
0.000000001
 43
0.00000001
 40
0.0714285714285714
 40
0.0714285714285714
 40
0.0714285714285714
 40
0.0714285714285714
 40
0.1428571428571428
 40
0.1428571428571428
 40
0.1428571428571428
 40
0.1428571428571428
 10
6.618196067240602
 20
0.7465993934279875
 30
0.0
 10
6.618196067240602
 20
0.7839582488112549
 30
0.0
 10
6.624887924068294
 20
0.8428851031786818
 30
0.0
 10
6.671730921862004
 20
0.8937721007819354
 30
0.0
  0
SPLINE
  5
EF
330
A7
100
AcDbEntity
  8
0
  6
Continuous
 62
     1
370
    18
100
AcDbSpline
210
0.0
220
0.0
230
1.0
 70
     8
 71
     3
 72
     8
 73
     4
 74
     0
 42
0.000000001
 43
0.00000001
 40
0.1428571428571428
 40
0.1428571428571428
 40
0.1428571428571428
 40
0.1428571428571428
 40
0.2142857142857144
 40
0.2142857142857144
 40
0.2142857142857144
 40
0.2142857142857144
 10
6.671730921862004
 20
0.8937721007819354
 30
0.0
 10
6.742597204238528
 20
0.9688268115326002
 30
0.0
 10
6.845671056526685
 20
0.9741706684238106
 30
0.0
 10
6.905945910830614
 20
0.9781665253784826
 30
0.0
  0
SPLINE
  5
F0
330
A7
100
AcDbEntity
  8
0
  6
Continuous
 62
     1
370
    18
100
AcDbSpline
210
0.0
220
0.0
230
1.0
 70
     8
 71
     3
 72
     8
 73
     4
 74
     0
 42
0.000000001
 43
0.00000001
 40
0.2857142857142856
 40
0.2857142857142856
 40
0.2857142857142856
 40
0.2857142857142856
 40
0.3571428571428568
 40
0.3571428571428568
 40
0.3571428571428568
 40
0.3571428571428568
 10
6.905945910830614
 20
0.826805389650326
 30
0.0
 10
6.861702627200165
 20
0.8241093897773104
 30
0.0
 10
6.816207629342965
 20
0.8120736760584562
 30
0.0
 10
6.816207629342965
 20
0.7666268210561421
 30
0.0
  0
SPLINE
  5
F1
330
A7
100
AcDbEntity
  8
0
  6
Continuous
 62
     1
370
    18
100
AcDbSpline
210
0.0
220
0.0
230
1.0
 70
     8
 71
     3
 72
     8
 73
     4
 74
     0
 42
0.000000001
 43
0.00000001
 40
0.3571428571428568
 40
0.3571428571428568
 40
0.3571428571428568
 40
0.3571428571428568
 40
0.4285714285714288
 40
0.4285714285714288
 40
0.4285714285714288
 40
0.4285714285714288
 10
6.816207629342965
 20
0.7666268210561421
 30
0.0
 10
6.816207629342965
 20
0.7304233941898415
 30
0.0
 10
6.84287877094389
 20
0.7224316802805587
 30
0.0
 10
6.905945910830614
 20
0.7051002525254022
 30
0.0
  0
SPLINE
  5
F2
330
A7
100
AcDbEntity
  8
0
  6
Continuous
 62
     1
370
    18
100
AcDbSpline
210
0.0
220
0.0
230
1.0
 70
     8
 71
     3
 72
     8
 73
     4
 74
     0
 42
0.000000001
 43
0.00000001
 40
0.5
 40
0.5
 40
0.5
 40
0.5
 40
0.5714285714285712
 40
0.5714285714285712
 40
0.5714285714285712
 40
0.5714285714285712
 10
7.013545191477045
 20
0.6812213965071955
 30
0.0
 10
7.106364615676735
 20
0.6597496832328347
 30
0.0
 10
7.262347465472876
 20
0.6262422562395846
 30
0.0
 10
7.262347465472876
 20
0.4510985502030203
 30
0.0
  0
SPLINE
  5
F3
330
A7
100
AcDbEntity
  8
0
  6
Continuous
 62
     1
370
    18
100
AcDbSpline
210
0.0
220
0.0
230
1.0
 70
     8
 71
     3
 72
     8
 73
     4
 74
     0
 42
0.000000001
 43
0.00000001
 40
0.5714285714285712
 40
0.5714285714285712
 40
0.5714285714285712
 40
0.5714285714285712
 40
0.6428571428571423
 40
0.6428571428571423
 40
0.6428571428571423
 40
0.6428571428571423
 10
7.262347465472876
 20
0.4510985502030203
 30
0.0
 10
7.262347465472876
 20
0.3601085544886193
 30
0.0
 10
7.216611753341323
 20
0.2862574151098207
 30
0.0
 10
7.125140329078137
 20
0.2446619884974802
 30
0.0
  0
SPLINE
  5
F4
330
A7
100
AcDbEntity
  8
0
  6
Continuous
 62
     1
370
    18
100
AcDbSpline
210
0.0
220
0.0
230
1.0
 70
     8
 71
     3
 72
     8
 73
     4
 74
     0
 42
0.000000001
 43
0.00000001
 40
0.6428571428571423
 40
0.6428571428571423
 40
0.6428571428571423
 40
0.6428571428571423
 40
0.7142857142857135
 40
0.7142857142857135
 40
0.7142857142857135
 40
0.7142857142857135
 10
7.125140329078137
 20
0.2446619884974802
 30
0.0
 10
7.052492761071198
 20
0.2111545615042651
 30
0.0
 10
6.974645764737764
 20
0.2098065615677268
 30
0.0
 10
6.943641766198019
 20
0.2098065615677268
 30
0.0
  0
SPLINE
  5
F5
330
A7
100
AcDbEntity
  8
0
  6
Continuous
 62
     1
370
    18
100
AcDbSpline
210
0.0
220
0.0
230
1.0
 70
     8
 71
     3
 72
     8
 73
     4
 74
     0
 42
0.000000001
 43
0.00000001
 40
0.7857142857142847
 40
0.7857142857142847
 40
0.7857142857142847
 40
0.7857142857142847
 40
0.8571428571428577
 40
0.8571428571428577
 40
0.8571428571428577
 40
0.8571428571428577
 10
6.943641766198019
 20
0.3628045543616087
 30
0.0
 10
6.971853479154984
 20
0.3640562685883831
 30
0.0
 10
7.051192903989574
 20
0.3707962682709178
 30
0.0
 10
7.051192903989574
 20
0.4322265510918936
 30
0.0
  0
SPLINE
  5
F6
330
A7
100
AcDbEntity
  8
0
  6
Continuous
 62
     1
370
    18
100
AcDbSpline
210
0.0
220
0.0
230
1.0
 70
     8
 71
     3
 72
     8
 73
     4
 74
     0
 42
0.000000001
 43
0.00000001
 40
0.8571428571428577
 40
0.8571428571428577
 40
0.8571428571428577
 40
0.8571428571428577
 40
0.9285714285714288
 40
0.9285714285714288
 40
0.9285714285714288
 40
0.9285714285714288
 10
7.051192903989574
 20
0.4322265510918936
 30
0.0
 10
7.051192903989574
 20
0.4764216918674595
 30
0.0
 10
7.005457191857955
 20
0.4898054055228172
 30
0.0
 10
6.958469765499632
 20
0.5019374049514267
 30
0.0
  0
SPLINE
  5
F7
330
A7
100
AcDbEntity
  8
0
  6
Continuous
 62
     1
370
    18
100
AcDbSpline
210
0.0
220
0.0
230
1.0
 70
     8
 71
     3
 72
     8
 73
     4
 74
     0
 42
0.000000001
 43
0.00000001
 40
0.0
 40
0.0
 40
0.0
 40
0.0
 40
0.2
 40
0.2
 40
0.2
 40
0.2
 10
7.045223189985003
 20
0.721179966053793
 30
0.0
 10
7.042527190111987
 20
0.8094739618951958
 30
0.0
 10
6.971564622025699
 20
0.8201616756775292
 30
0.0
 10
6.943449194778522
 20
0.8254573897138489
 30
0.0
  0
SPLINE
  5
F8
330
A7
100
AcDbEntity
  8
0
  6
Continuous
 62
     1
370
    18
100
AcDbSpline
210
0.0
220
0.0
230
1.0
 70
     8
 71
     3
 72
     8
 73
     4
 74
     0
 42
0.000000001
 43
0.00000001
 40
0.3999999999999999
 40
0.3999999999999999
 40
0.3999999999999999
 40
0.3999999999999999
 40
0.5999999999999996
 40
0.5999999999999996
 40
0.5999999999999996
 40
0.5999999999999996
 10
6.943449194778522
 20
0.9781665253784826
 30
0.0
 10
7.026543762293369
 20
0.9741706684238106
 30
0.0
 10
7.106942329935236
 20
0.9540469550858833
 30
0.0
 10
7.166013612867287
 20
0.899067814818255
 30
0.0
  0
SPLINE
  5
F9
330
A7
100
AcDbEntity
  8
0
  6
Continuous
 62
     1
370
    18
100
AcDbSpline
210
0.0
220
0.0
230
1.0
 70
     8
 71
     3
 72
     8
 73
     4
 74
     0
 42
0.000000001
 43
0.00000001
 40
0.5999999999999996
 40
0.5999999999999996
 40
0.5999999999999996
 40
0.5999999999999996
 40
0.7999999999999998
 40
0.7999999999999998
 40
0.7999999999999998
 40
0.7999999999999998
 10
7.166013612867287
 20
0.899067814818255
 30
0.0
 10
7.222292610216589
 20
0.8455811030517236
 30
0.0
 10
7.235772609581695
 20
0.7866542486842967
 30
0.0
 10
7.24111646647286
 20
0.7317713941263799
 30
0.0
  0
SPLINE
  5
FA
330
A7
100
AcDbEntity
  8
0
  6
Continuous
 62
     1
370
    18
100
AcDbSpline
210
0.0
220
0.0
230
1.0
 70
     8
 71
     3
 72
     8
 73
     4
 74
     0
 42
0.000000001
 43
0.00000001
 40
0.0
 40
0.0
 40
0.0
 40
0.0
 40
0.25
 40
0.25
 40
0.25
 40
0.25
 10
5.534981832545015
 20
0.3862019818310743
 30
0.0
 10
5.611384543232218
 20
0.3983339812596314
 30
0.0
 10
5.638296399107554
 20
0.4387739793549352
 30
0.0
 10
5.652979969844537
 20
0.5101216902802025
 30
0.0
  0
SPLINE
  5
FB
330
A7
100
AcDbEntity
  8
0
  6
Continuous
 62
     1
370
    18
100
AcDbSpline
210
0.0
220
0.0
230
1.0
 70
     8
 71
     3
 72
     8
 73
     4
 74
     0
 42
0.000000001
 43
0.00000001
 40
0.5
 40
0.5
 40
0.5
 40
0.5
 40
0.75
 40
0.75
 40
0.75
 40
0.75
 10
5.856864960241682
 20
0.5004931193051506
 30
0.0
 10
5.839437246776818
 20
0.3671374113004022
 30
0.0
 10
5.75234682230729
 20
0.2203979896402787
 30
0.0
 10
5.534981832545015
 20
0.2096139901482338
 30
0.0
  0
SPLINE
  5
FC
330
A7
100
AcDbEntity
  8
0
  6
Continuous
 62
     1
370
    18
100
AcDbSpline
210
0.0
220
0.0
230
1.0
 70
     8
 71
     3
 72
     8
 73
     4
 74
     0
 42
0.000000001
 43
0.00000001
 40
0.0
 40
0.0
 40
0.0
 40
0.0
 40
0.2
 40
0.2
 40
0.2
 40
0.2
 10
5.648984112889892
 20
0.6956642529698696
 30
0.0
 10
5.631508256570117
 20
0.7823695346003764
 30
0.0
 10
5.588612972876201
 20
0.7997491052103799
 30
0.0
 10
5.534981832545015
 20
0.8104368189927132
 30
0.0
  0
SPLINE
  5
FD
330
A7
100
AcDbEntity
  8
0
  6
Continuous
 62
     1
370
    18
100
AcDbSpline
210
0.0
220
0.0
230
1.0
 70
     8
 71
     3
 72
     8
 73
     4
 74
     0
 42
0.000000001
 43
0.00000001
 40
0.3999999999999999
 40
0.3999999999999999
 40
0.3999999999999999
 40
0.3999999999999999
 40
0.5999999999999996
 40
0.5999999999999996
 40
0.5999999999999996
 40
0.5999999999999996
 10
5.534981832545015
 20
0.9781665253784826
 30
0.0
 10
5.650332112826404
 20
0.975518668360314
 30
0.0
 10
5.717395109667764
 20
0.9316123847139701
 30
0.0
 10
5.753646679388914
 20
0.8995973862218695
 30
0.0
  0
SPLINE
  5
FE
330
A7
100
AcDbEntity
  8
0
  6
Continuous
 62
     1
370
    18
100
AcDbSpline
210
0.0
220
0.0
230
1.0
 70
     8
 71
     3
 72
     8
 73
     4
 74
     0
 42
0.000000001
 43
0.00000001
 40
0.5999999999999996
 40
0.5999999999999996
 40
0.5999999999999996
 40
0.5999999999999996
 40
0.7999999999999998
 40
0.7999999999999998
 40
0.7999999999999998
 40
0.7999999999999998
 10
5.753646679388914
 20
0.8995973862218695
 30
0.0
 10
5.831445532867494
 20
0.8302716752013574
 30
0.0
 10
5.843529389441216
 20
0.7530505359812477
 30
0.0
 10
5.851569246205375
 20
0.7064482524619319
 30
0.0
  0
SPLINE
  5
FF
330
A7
100
AcDbEntity
  8
0
  6
Continuous
 62
     1
370
    18
100
AcDbSpline
210
0.0
220
0.0
230
1.0
 70
     8
 71
     3
 72
     8
 73
     4
 74
     0
 42
0.000000001
 43
0.00000001
 40
0.0
 40
0.0
 40
0.0
 40
0.0
 40
0.0909090909090909
 40
0.0909090909090909
 40
0.0909090909090909
 40
0.0909090909090909
 10
6.294676082478175
 20
0.5588422594140724
 30
0.0
 10
6.275900369076782
 20
0.5533539739583209
 30
0.0
 10
6.184814087652626
 20
0.5360225462031557
 30
0.0
 10
6.163342374378209
 20
0.5306305464570983
 30
0.0
  0
SPLINE
  5
100
330
A7
100
AcDbEntity
  8
0
  6
Continuous
 62
     1
370
    18
100
AcDbSpline
210
0.0
220
0.0
230
1.0
 70
     8
 71
     3
 72
     8
 73
     4
 74
     0
 42
0.000000001
 43
0.00000001
 40
0.0909090909090909
 40
0.0909090909090909
 40
0.0909090909090909
 40
0.0909090909090909
 40
0.1818181818181819
 40
0.1818181818181819
 40
0.1818181818181819
 40
0.1818181818181819
 10
6.163342374378209
 20
0.5306305464570983
 30
0.0
 10
6.105667234237525
 20
0.5145508329287513
 30
0.0
 10
6.074759521407562
 20
0.4917311197178346
 30
0.0
 10
6.074759521407562
 20
0.4462842647154768
 30
0.0
  0
SPLINE
  5
101
330
A7
100
AcDbEntity
  8
0
  6
Continuous
 62
     1
370
    18
100
AcDbSpline
210
0.0
220
0.0
230
1.0
 70
     8
 71
     3
 72
     8
 73
     4
 74
     0
 42
0.000000001
 43
0.00000001
 40
0.1818181818181819
 40
0.1818181818181819
 40
0.1818181818181819
 40
0.1818181818181819
 40
0.2727272727272729
 40
0.2727272727272729
 40
0.2727272727272729
 40
0.2727272727272729
 10
6.074759521407562
 20
0.4462842647154768
 30
0.0
 10
6.074759521407562
 20
0.4007411240033987
 30
0.0
 10
6.111011091128705
 20
0.3685816969466958
 30
0.0
 10
6.171334088287522
 20
0.3685816969466958
 30
0.0
  0
SPLINE
  5
102
330
A7
100
AcDbEntity
  8
0
  6
Continuous
 62
     1
370
    18
100
AcDbSpline
210
0.0
220
0.0
230
1.0
 70
     8
 71
     3
 72
     8
 73
     4
 74
     0
 42
0.000000001
 43
0.00000001
 40
0.2727272727272729
 40
0.2727272727272729
 40
0.2727272727272729
 40
0.2727272727272729
 40
0.3636363636363638
 40
0.3636363636363638
 40
0.3636363636363638
 40
0.3636363636363638
 10
6.171334088287522
 20
0.3685816969466958
 30
0.0
 10
6.198101515598215
 20
0.3685816969466958
 30
0.0
 10
6.24778494182959
 20
0.3739736966927095
 30
0.0
 10
6.294676082478175
 20
0.4087328379127165
 30
0.0
  0
SPLINE
  5
103
330
A7
100
AcDbEntity
  8
0
  6
Continuous
 62
     1
370
    18
100
AcDbSpline
210
0.0
220
0.0
230
1.0
 70
     8
 71
     3
 72
     8
 73
     4
 74
     0
 42
0.000000001
 43
0.00000001
 40
0.3636363636363638
 40
0.3636363636363638
 40
0.3636363636363638
 40
0.3636363636363638
 40
0.454545454545455
 40
0.454545454545455
 40
0.454545454545455
 40
0.454545454545455
 10
6.294676082478175
 20
0.4087328379127165
 30
0.0
 10
6.292028225460042
 20
0.3845651247652964
 30
0.0
 10
6.290728368378403
 20
0.3618416972641088
 30
0.0
 10
6.290728368378403
 20
0.3390219840531921
 30
0.0
  0
SPLINE
  5
104
330
A7
100
AcDbEntity
  8
0
  6
Continuous
 62
     1
370
    18
100
AcDbSpline
210
0.0
220
0.0
230
1.0
 70
     8
 71
     3
 72
     8
 73
     4
 74
     0
 42
0.000000001
 43
0.00000001
 40
0.454545454545455
 40
0.454545454545455
 40
0.454545454545455
 40
0.454545454545455
 40
0.5454545454545459
 40
0.5454545454545459
 40
0.5454545454545459
 40
0.5454545454545459
 10
6.290728368378403
 20
0.3390219840531921
 30
0.0
 10
6.290728368378403
 20
0.3268899846246263
 30
0.0
 10
6.294676082478175
 20
0.269118558774166
 30
0.0
 10
6.294676082478175
 20
0.2569865593455565
 30
0.0
  0
SPLINE
  5
105
330
A7
100
AcDbEntity
  8
0
  6
Continuous
 62
     1
370
    18
100
AcDbSpline
210
0.0
220
0.0
230
1.0
 70
     8
 71
     3
 72
     8
 73
     4
 74
     0
 42
0.000000001
 43
0.00000001
 40
0.5454545454545459
 40
0.5454545454545459
 40
0.5454545454545459
 40
0.5454545454545459
 40
0.6363636363636367
 40
0.6363636363636367
 40
0.6363636363636367
 40
0.6363636363636367
 10
6.294676082478175
 20
0.2569865593455565
 30
0.0
 10
6.231705228301225
 20
0.2059551331777095
 30
0.0
 10
6.136478661357786
 20
0.2059551331777095
 30
0.0
 10
6.116354948019858
 20
0.2059551331777095
 30
0.0
  0
SPLINE
  5
106
330
A7
100
AcDbEntity
  8
0
  6
Continuous
 62
     1
370
    18
100
AcDbSpline
210
0.0
220
0.0
230
1.0
 70
     8
 71
     3
 72
     8
 73
     4
 74
     0
 42
0.000000001
 43
0.00000001
 40
0.6363636363636367
 40
0.6363636363636367
 40
0.6363636363636367
 40
0.6363636363636367
 40
0.7272727272727275
 40
0.7272727272727275
 40
0.7272727272727275
 40
0.7272727272727275
 10
6.116354948019858
 20
0.2059551331777095
 30
0.0
 10
5.979532954464105
 20
0.2059551331777095
 30
0.0
 10
5.865530674119255
 20
0.2905902720485792
 30
0.0
 10
5.865530674119255
 20
0.4395442650329597
 30
0.0
  0
SPLINE
  5
107
330
A7
100
AcDbEntity
  8
0
  6
Continuous
 62
     1
370
    18
100
AcDbSpline
210
0.0
220
0.0
230
1.0
 70
     8
 71
     3
 72
     8
 73
     4
 74
     0
 42
0.000000001
 43
0.00000001
 40
0.7272727272727275
 40
0.7272727272727275
 40
0.7272727272727275
 40
0.7272727272727275
 40
0.8181818181818183
 40
0.8181818181818183
 40
0.8181818181818183
 40
0.8181818181818183
 10
5.865530674119255
 20
0.4395442650329597
 30
0.0
 10
5.865530674119255
 20
0.6109328283892096
 30
0.0
 10
6.009140810212432
 20
0.6457882553189892
 30
0.0
 10
6.077551806990335
 20
0.6606162546205794
 30
0.0
  0
SPLINE
  5
108
330
A7
100
AcDbEntity
  8
0
  6
Continuous
 62
     1
370
    18
100
AcDbSpline
210
0.0
220
0.0
230
1.0
 70
     8
 71
     3
 72
     8
 73
     4
 74
     0
 42
0.000000001
 43
0.00000001
 40
0.8181818181818183
 40
0.8181818181818183
 40
0.8181818181818183
 40
0.8181818181818183
 40
0.9090909090909101
 40
0.9090909090909101
 40
0.9090909090909101
 40
0.9090909090909101
 10
6.077551806990335
 20
0.6606162546205794
 30
0.0
 10
6.107015234174019
 20
0.6672599685933762
 30
0.0
 10
6.259868798403302
 20
0.6927756816772997
 30
0.0
 10
6.294676082478175
 20
0.7007673955866263
 30
0.0
  0
SPLINE
  5
109
330
A7
100
AcDbEntity
  8
0
  6
Continuous
 62
     1
370
    18
100
AcDbSpline
210
0.0
220
0.0
230
1.0
 70
     8
 71
     3
 72
     8
 73
     4
 74
     0
 42
0.000000001
 43
0.00000001
 40
0.0
 40
0.0
 40
0.0
 40
0.0
 40
0.0909090909090909
 40
0.0909090909090909
 40
0.0909090909090909
 40
0.0909090909090909
 10
5.90577810079504
 20
0.7217576803123332
 30
0.0
 10
5.916562100287135
 20
0.8884282438907687
 30
0.0
 10
6.027820237904089
 20
0.9743150969884391
 30
0.0
 10
6.216973514709368
 20
0.9743150969884391
 30
0.0
  0
SPLINE
  5
10A
330
A7
100
AcDbEntity
  8
0
  6
Continuous
 62
     1
370
    18
100
AcDbSpline
210
0.0
220
0.0
230
1.0
 70
     8
 71
     3
 72
     8
 73
     4
 74
     0
 42
0.000000001
 43
0.00000001
 40
0.0909090909090909
 40
0.0909090909090909
 40
0.0909090909090909
 40
0.0909090909090909
 40
0.1818181818181819
 40
0.1818181818181819
 40
0.1818181818181819
 40
0.1818181818181819
 10
6.216973514709368
 20
0.9743150969884391
 30
0.0
 10
6.294676082478175
 20
0.9743150969884391
 30
0.0
 10
6.376422650056563
 20
0.9635310974963767
 30
0.0
 10
6.439537932798185
 20
0.9178916710745259
 30
0.0
  0
SPLINE
  5
10B
330
A7
100
AcDbEntity
  8
0
  6
Continuous
 62
     1
370
    18
100
AcDbSpline
210
0.0
220
0.0
230
1.0
 70
     8
 71
     3
 72
     8
 73
     4
 74
     0
 42
0.000000001
 43
0.00000001
 40
0.1818181818181819
 40
0.1818181818181819
 40
0.1818181818181819
 40
0.1818181818181819
 40
0.2727272727272729
 40
0.2727272727272729
 40
0.2727272727272729
 40
0.2727272727272729
 10
6.439537932798185
 20
0.9178916710745259
 30
0.0
 10
6.529420642850423
 20
0.8548245311877547
 30
0.0
 10
6.532116642723465
 20
0.7661453925074009
 30
0.0
 10
6.534764499741589
 20
0.6854579677362774
 30
0.0
  0
SPLINE
  5
10C
330
A7
100
AcDbEntity
  8
0
  6
Continuous
 62
     1
370
    18
100
AcDbSpline
210
0.0
220
0.0
230
1.0
 70
     8
 71
     3
 72
     8
 73
     4
 74
     0
 42
0.000000001
 43
0.00000001
 40
0.3636363636363638
 40
0.3636363636363638
 40
0.3636363636363638
 40
0.3636363636363638
 40
0.454545454545455
 40
0.454545454545455
 40
0.454545454545455
 40
0.454545454545455
 10
6.534764499741589
 20
0.3720479824977097
 30
0.0
 10
6.534764499741589
 20
0.3033962714454405
 30
0.0
 10
6.537556785324358
 20
0.2722959871959578
 30
0.0
 10
6.561676355616938
 20
0.2292562749373761
 30
0.0
  0
SPLINE
  5
10D
330
A7
100
AcDbEntity
  8
0
  6
Continuous
 62
     1
370
    18
100
AcDbSpline
210
0.0
220
0.0
230
1.0
 70
     8
 71
     3
 72
     8
 73
     4
 74
     0
 42
0.000000001
 43
0.00000001
 40
0.5454545454545459
 40
0.5454545454545459
 40
0.5454545454545459
 40
0.5454545454545459
 40
0.6363636363636367
 40
0.6363636363636367
 40
0.6363636363636367
 40
0.6363636363636367
 10
6.341663508836551
 20
0.2292562749373761
 30
0.0
 10
6.330831366489585
 20
0.2548682737310811
 30
0.0
 10
6.326835509534935
 20
0.2722959871959578
 30
0.0
 10
6.325487509598418
 20
0.3369036984386817
 30
0.0
  0
SPLINE
  5
10E
330
A7
100
AcDbEntity
  8
0
  6
Continuous
 62
     1
370
    18
100
AcDbSpline
210
0.0
220
0.0
230
1.0
 70
     8
 71
     3
 72
     8
 73
     4
 74
     0
 42
0.000000001
 43
0.00000001
 40
0.7272727272727275
 40
0.7272727272727275
 40
0.7272727272727275
 40
0.7272727272727275
 40
0.8181818181818183
 40
0.8181818181818183
 40
0.8181818181818183
 40
0.8181818181818183
 10
6.325487509598418
 20
0.7087591094959528
 30
0.0
 10
6.326835509534935
 20
0.7476585362352515
 30
0.0
 10
6.328183509471452
 20
0.8133253902852305
 30
0.0
 10
6.216973514709368
 20
0.8133253902852305
 30
0.0
  0
SPLINE
  5
10F
330
A7
100
AcDbEntity
  8
0
  6
Continuous
 62
     1
370
    18
100
AcDbSpline
210
0.0
220
0.0
230
1.0
 70
     8
 71
     3
 72
     8
 73
     4
 74
     0
 42
0.000000001
 43
0.00000001
 40
0.8181818181818183
 40
0.8181818181818183
 40
0.8181818181818183
 40
0.8181818181818183
 40
0.9090909090909101
 40
0.9090909090909101
 40
0.9090909090909101
 40
0.9090909090909101
 10
6.216973514709368
 20
0.8133253902852305
 30
0.0
 10
6.194105658643565
 20
0.8133253902852305
 30
0.0
 10
6.098927234554962
 20
0.8105331047024598
 30
0.0
 10
6.096231234681961
 20
0.7222391088610395
 30
0.0
  0
SPLINE
  5
110
330
A7
100
AcDbEntity
  8
0
  6
Continuous
 62
     1
370
    18
100
AcDbSpline
210
0.0
220
0.0
230
1.0
 70
     8
 71
     3
 72
     8
 73
     4
 74
     0
 42
0.000000001
 43
0.00000001
 40
0.0
 40
0.0
 40
0.0
 40
0.0
 40
0.1428571428571429
 40
0.1428571428571429
 40
0.1428571428571429
 40
0.1428571428571429
 10
5.500030119905541
 20
0.2096139901482338
 30
0.0
 10
5.239577275029806
 20
0.2176057040575428
 30
0.0
 10
5.153545993367556
 20
0.4130656948515012
 30
0.0
 10
5.153545993367556
 20
0.5907128293415708
 30
0.0
  0
SPLINE
  5
111
330
A7
100
AcDbEntity
  8
0
  6
Continuous
 62
     1
370
    18
100
AcDbSpline
210
0.0
220
0.0
230
1.0
 70
     8
 71
     3
 72
     8
 73
     4
 74
     0
 42
0.000000001
 43
0.00000001
 40
0.1428571428571429
 40
0.1428571428571429
 40
0.1428571428571429
 40
0.1428571428571429
 40
0.2857142857142858
 40
0.2857142857142858
 40
0.2857142857142858
 40
0.2857142857142858
 10
5.153545993367556
 20
0.5907128293415708
 30
0.0
 10
5.153545993367556
 20
0.864356816453095
 30
0.0
 10
5.334996413392792
 20
0.9728708113421629
 30
0.0
 10
5.500030119905541
 20
0.9781665253784826
 30
0.0
  0
SPLINE
  5
112
330
A7
100
AcDbEntity
  8
0
  6
Continuous
 62
     1
370
    18
100
AcDbSpline
210
0.0
220
0.0
230
1.0
 70
     8
 71
     3
 72
     8
 73
     4
 74
     0
 42
0.000000001
 43
0.00000001
 40
0.4285714285714288
 40
0.4285714285714288
 40
0.4285714285714288
 40
0.4285714285714288
 40
0.5714285714285716
 40
0.5714285714285716
 40
0.5714285714285716
 40
0.5714285714285716
 10
5.500030119905541
 20
0.8109182475414632
 30
0.0
 10
5.381983839751144
 20
0.7920943912851749
 30
0.0
 10
5.368648268950644
 20
0.6673562543031751
 30
0.0
 10
5.368648268950644
 20
0.5962011147973659
 30
0.0
  0
SPLINE
  5
113
330
A7
100
AcDbEntity
  8
0
  6
Continuous
 62
     1
370
    18
100
AcDbSpline
210
0.0
220
0.0
230
1.0
 70
     8
 71
     3
 72
     8
 73
     4
 74
     0
 42
0.000000001
 43
0.00000001
 40
0.5714285714285716
 40
0.5714285714285716
 40
0.5714285714285716
 40
0.5714285714285716
 40
0.7142857142857144
 40
0.7142857142857144
 40
0.7142857142857144
 40
0.7142857142857144
 10
5.368648268950644
 20
0.5962011147973659
 30
0.0
 10
5.368648268950644
 20
0.5637528306113274
 30
0.0
 10
5.369948126032288
 20
0.4911534054593381
 30
0.0
 10
5.408751267061798
 20
0.4400256935817009
 30
0.0
  0
SPLINE
  5
114
330
A7
100
AcDbEntity
  8
0
  6
Continuous
 62
     1
370
    18
100
AcDbSpline
210
0.0
220
0.0
230
1.0
 70
     8
 71
     3
 72
     8
 73
     4
 74
     0
 42
0.000000001
 43
0.00000001
 40
0.7142857142857144
 40
0.7142857142857144
 40
0.7142857142857144
 40
0.7142857142857144
 40
0.8571428571428577
 40
0.8571428571428577
 40
0.8571428571428577
 40
0.8571428571428577
 10
5.408751267061798
 20
0.4400256935817009
 30
0.0
 10
5.439755265601581
 20
0.3996819811961348
 30
0.0
 10
5.477210406694607
 20
0.3902459816405583
 30
0.0
 10
5.500030119905541
 20
0.3862019818310743
 30
0.0
  0
SPLINE
  5
115
330
A7
100
AcDbEntity
  8
0
  6
Continuous
 62
     1
370
    18
100
AcDbSpline
210
0.0
220
0.0
230
1.0
 70
     8
 71
     3
 72
     8
 73
     4
 74
     0
 42
0.000000001
 43
0.00000001
 40
0.0
 40
0.0
 40
0.0
 40
0.0
 40
0.0625
 40
0.0625
 40
0.0625
 40
0.0625
 10
8.010968858784707
 20
0.4407959792597166
 30
0.0
 10
8.001629144938908
 20
0.4167245518220255
 30
0.0
 10
7.985453145700778
 20
0.3752254109194315
 30
0.0
 10
7.947853576043117
 20
0.3297785559171087
 30
0.0
  0
SPLINE
  5
116
330
A7
100
AcDbEntity
  8
0
  6
Continuous
 62
     1
370
    18
100
AcDbSpline
210
0.0
220
0.0
230
1.0
 70
     8
 71
     3
 72
     8
 73
     4
 74
     0
 42
0.000000001
 43
0.00000001
 40
0.0625
 40
0.0625
 40
0.0625
 40
0.0625
 40
0.125
 40
0.125
 40
0.125
 40
0.125
 10
7.947853576043117
 20
0.3297785559171087
 30
0.0
 10
7.878094579328725
 20
0.246876559821772
 30
0.0
 10
7.770832298666425
 20
0.2096139901482338
 30
0.0
 10
7.662222018067589
 20
0.2096139901482338
 30
0.0
  0
SPLINE
  5
117
330
A7
100
AcDbEntity
  8
0
  6
Continuous
 62
     1
370
    18
100
AcDbSpline
210
0.0
220
0.0
230
1.0
 70
     8
 71
     3
 72
     8
 73
     4
 74
     0
 42
0.000000001
 43
0.00000001
 40
0.125
 40
0.125
 40
0.125
 40
0.125
 40
0.1875
 40
0.1875
 40
0.1875
 40
0.1875
 10
7.662222018067589
 20
0.2096139901482338
 30
0.0
 10
7.415345458266789
 20
0.2096139901482338
 30
0.0
 10
7.29060732128471
 20
0.3844688390555587
 30
0.0
 10
7.29060732128471
 20
0.5896536865342893
 30
0.0
  0
SPLINE
  5
118
330
A7
100
AcDbEntity
  8
0
  6
Continuous
 62
     1
370
    18
100
AcDbSpline
210
0.0
220
0.0
230
1.0
 70
     8
 71
     3
 72
     8
 73
     4
 74
     0
 42
0.000000001
 43
0.00000001
 40
0.1875
 40
0.1875
 40
0.1875
 40
0.1875
 40
0.25
 40
0.25
 40
0.25
 40
0.25
 10
7.29060732128471
 20
0.5896536865342893
 30
0.0
 10
7.29060732128471
 20
0.8153473901899683
 30
0.0
 10
7.44211288557746
 20
0.9780702396687273
 30
0.0
 10
7.664821732230889
 20
0.9780702396687273
 30
0.0
  0
SPLINE
  5
119
330
A7
100
AcDbEntity
  8
0
  6
Continuous
 62
     1
370
    18
100
AcDbSpline
210
0.0
220
0.0
230
1.0
 70
     8
 71
     3
 72
     8
 73
     4
 74
     0
 42
0.000000001
 43
0.00000001
 40
0.25
 40
0.25
 40
0.25
 40
0.25
 40
0.3125
 40
0.3125
 40
0.3125
 40
0.3125
 10
7.664821732230889
 20
0.9780702396687273
 30
0.0
 10
7.792352154795712
 20
0.9780702396687273
 30
0.0
 10
7.882234864848028
 20
0.9215505280450239
 30
0.0
 10
7.934518005242658
 20
0.8502991028295119
 30
0.0
  0
SPLINE
  5
11A
330
A7
100
AcDbEntity
  8
0
  6
Continuous
 62
     1
370
    18
100
AcDbSpline
210
0.0
220
0.0
230
1.0
 70
     8
 71
     3
 72
     8
 73
     4
 74
     0
 42
0.000000001
 43
0.00000001
 40
0.3125
 40
0.3125
 40
0.3125
 40
0.3125
 40
0.375
 40
0.375
 40
0.375
 40
0.375
 10
7.934518005242658
 20
0.8502991028295119
 30
0.0
 10
7.998933145065885
 20
0.7654713925391317
 30
0.0
 10
8.019056858403786
 20
0.6472325409652392
 30
0.0
 10
8.019056858403786
 20
0.5318822606838727
 30
0.0
  0
SPLINE
  5
11B
330
A7
100
AcDbEntity
  8
0
  6
Continuous
 62
     1
370
    18
100
AcDbSpline
210
0.0
220
0.0
230
1.0
 70
     8
 71
     3
 72
     8
 73
     4
 74
     0
 42
0.000000001
 43
0.00000001
 40
0.4375
 40
0.4375
 40
0.4375
 40
0.4375
 40
0.5
 40
0.5
 40
0.5
 40
0.5
 10
7.544175737913259
 20
0.5318822606838727
 30
0.0
 10
7.53868745245742
 20
0.5559536881215725
 30
0.0
 10
7.537339452520906
 20
0.5761736871692026
 30
0.0
 10
7.535991452584448
 20
0.6069851142894632
 30
0.0
  0
SPLINE
  5
11C
330
A7
100
AcDbEntity
  8
0
  6
Continuous
 62
     1
370
    18
100
AcDbSpline
210
0.0
220
0.0
230
1.0
 70
     8
 71
     3
 72
     8
 73
     4
 74
     0
 42
0.000000001
 43
0.00000001
 40
0.5
 40
0.5
 40
0.5
 40
0.5
 40
0.5625
 40
0.5625
 40
0.5625
 40
0.5625
 10
7.535991452584448
 20
0.6069851142894632
 30
0.0
 10
7.535991452584448
 20
0.6366411128926522
 30
0.0
 10
7.537339452520906
 20
0.6607125403303259
 30
0.0
 10
7.544175737913259
 20
0.688827967577536
 30
0.0
  0
SPLINE
  5
11D
330
A7
100
AcDbEntity
  8
0
  6
Continuous
 62
     1
370
    18
100
AcDbSpline
210
0.0
220
0.0
230
1.0
 70
     8
 71
     3
 72
     8
 73
     4
 74
     0
 42
0.000000001
 43
0.00000001
 40
0.625
 40
0.625
 40
0.625
 40
0.625
 40
0.6875
 40
0.6875
 40
0.6875
 40
0.6875
 10
7.801691868641542
 20
0.688827967577536
 30
0.0
 10
7.795000011813845
 20
0.7265719657998154
 30
0.0
 10
7.781520012448738
 20
0.7507396789472792
 30
0.0
 10
7.772180298602922
 20
0.7641233926025758
 30
0.0
  0
SPLINE
  5
11E
330
A7
100
AcDbEntity
  8
0
  6
Continuous
 62
     1
370
    18
100
AcDbSpline
210
0.0
220
0.0
230
1.0
 70
     8
 71
     3
 72
     8
 73
     4
 74
     0
 42
0.000000001
 43
0.00000001
 40
0.6875
 40
0.6875
 40
0.6875
 40
0.6875
 40
0.75
 40
0.75
 40
0.75
 40
0.75
 10
7.772180298602922
 20
0.7641233926025758
 30
0.0
 10
7.748060728310382
 20
0.7964753910788678
 30
0.0
 10
7.706465301698064
 20
0.8153473901899683
 30
0.0
 10
7.662222018067589
 20
0.8153473901899683
 30
0.0
  0
SPLINE
  5
11F
330
A7
100
AcDbEntity
  8
0
  6
Continuous
 62
     1
370
    18
100
AcDbSpline
210
0.0
220
0.0
230
1.0
 70
     8
 71
     3
 72
     8
 73
     4
 74
     0
 42
0.000000001
 43
0.00000001
 40
0.75
 40
0.75
 40
0.75
 40
0.75
 40
0.8125
 40
0.8125
 40
0.8125
 40
0.8125
 10
7.662222018067589
 20
0.8153473901899683
 30
0.0
 10
7.585771164525543
 20
0.8153473901899683
 30
0.0
 10
7.499884311427905
 20
0.7668193924756351
 30
0.0
 10
7.499884311427905
 20
0.6015931145433971
 30
0.0
  0
SPLINE
  5
120
330
A7
100
AcDbEntity
  8
0
  6
Continuous
 62
     1
370
    18
100
AcDbSpline
210
0.0
220
0.0
230
1.0
 70
     8
 71
     3
 72
     8
 73
     4
 74
     0
 42
0.000000001
 43
0.00000001
 40
0.8125
 40
0.8125
 40
0.8125
 40
0.8125
 40
0.875
 40
0.875
 40
0.875
 40
0.875
 10
7.499884311427905
 20
0.6015931145433971
 30
0.0
 10
7.499884311427905
 20
0.4983748336906402
 30
0.0
 10
7.537339452520906
 20
0.3765734108559786
 30
0.0
 10
7.667517732103913
 20
0.3765734108559786
 30
0.0
  0
SPLINE
  5
121
330
A7
100
AcDbEntity
  8
0
  6
Continuous
 62
     1
370
    18
100
AcDbSpline
210
0.0
220
0.0
230
1.0
 70
     8
 71
     3
 72
     8
 73
     4
 74
     0
 42
0.000000001
 43
0.00000001
 40
0.875
 40
0.875
 40
0.875
 40
0.875
 40
0.9375
 40
0.9375
 40
0.9375
 40
0.9375
 10
7.667517732103913
 20
0.3765734108559786
 30
0.0
 10
7.761396299110836
 20
0.3765734108559786
 30
0.0
 10
7.792352154795712
 20
0.4367519794501714
 30
0.0
 10
7.801691868641542
 20
0.4556239785613242
 30
0.0
  0
SPLINE
  5
122
330
A7
100
AcDbEntity
  8
0
  6
Continuous
 62
   179
370
    18
100
AcDbSpline
210
0.0
220
0.0
230
1.0
 70
     8
 71
     3
 72
     8
 73
     4
 74
     0
 42
0.000000001
 43
0.00000001
 40
0.0
 40
0.0
 40
0.0
 40
0.0
 40
0.1
 40
0.1
 40
0.1
 40
0.1
 10
2.240638487706609
 20
0.9309865276006004
 30
0.0
 10
2.28208948575428
 20
0.9645902403035707
 30
0.0
 10
2.335552126093347
 20
0.9780702396687273
 30
0.0
 10
2.388942552150137
 20
0.9780702396687273
 30
0.0
  0
SPLINE
  5
123
330
A7
100
AcDbEntity
  8
0
  6
Continuous
 62
   179
370
    18
100
AcDbSpline
210
0.0
220
0.0
230
1.0
 70
     8
 71
     3
 72
     8
 73
     4
 74
     0
 42
0.000000001
 43
0.00000001
 40
0.1
 40
0.1
 40
0.1
 40
0.1
 40
0.2
 40
0.2
 40
0.2
 40
0.2
 10
2.388942552150137
 20
0.9780702396687273
 30
0.0
 10
2.572631614927047
 20
0.9780702396687273
 30
0.0
 10
2.69096675221068
 20
0.8236279612285604
 30
0.0
 10
2.69096675221068
 20
0.5948531148608363
 30
0.0
  0
SPLINE
  5
124
330
A7
100
AcDbEntity
  8
0
  6
Continuous
 62
   179
370
    18
100
AcDbSpline
210
0.0
220
0.0
230
1.0
 70
     8
 71
     3
 72
     8
 73
     4
 74
     0
 42
0.000000001
 43
0.00000001
 40
0.2
 40
0.2
 40
0.2
 40
0.2
 40
0.2999999999999998
 40
0.2999999999999998
 40
0.2999999999999998
 40
0.2999999999999998
 10
2.69096675221068
 20
0.5948531148608363
 30
0.0
 10
2.69096675221068
 20
0.3487468407380255
 30
0.0
 10
2.544347687687798
 20
0.213465418538251
 30
0.0
 10
2.379578766876868
 20
0.213465418538251
 30
0.0
  0
SPLINE
  5
125
330
A7
100
AcDbEntity
  8
0
  6
Continuous
 62
   179
370
    18
100
AcDbSpline
210
0.0
220
0.0
230
1.0
 70
     8
 71
     3
 72
     8
 73
     4
 74
     0
 42
0.000000001
 43
0.00000001
 40
0.2999999999999998
 40
0.2999999999999998
 40
0.2999999999999998
 40
0.2999999999999998
 40
0.3999999999999999
 40
0.3999999999999999
 40
0.3999999999999999
 40
0.3999999999999999
 10
2.379578766876868
 20
0.213465418538251
 30
0.0
 10
2.30880877021007
 20
0.213465418538251
 30
0.0
 10
2.262037986698689
 20
0.2362851317491677
 30
0.0
 10
2.240638487706609
 20
0.246876559821772
 30
0.0
  0
SPLINE
  5
126
330
A7
100
AcDbEntity
  8
0
  6
Continuous
 62
   179
370
    18
100
AcDbSpline
210
0.0
220
0.0
230
1.0
 70
     8
 71
     3
 72
     8
 73
     4
 74
     0
 42
0.000000001
 43
0.00000001
 40
0.5
 40
0.5
 40
0.5
 40
0.5
 40
0.5999999999999996
 40
0.5999999999999996
 40
0.5999999999999996
 40
0.5999999999999996
 10
2.240638487706609
 20
0.4210574087608103
 30
0.0
 10
2.256718201234963
 20
0.4063256951689579
 30
0.0
 10
2.278117700227043
 20
0.3862019818310743
 30
0.0
 10
2.330184197774757
 20
0.3862019818310743
 30
0.0
  0
SPLINE
  5
127
330
A7
100
AcDbEntity
  8
0
  6
Continuous
 62
   179
370
    18
100
AcDbSpline
210
0.0
220
0.0
230
1.0
 70
     8
 71
     3
 72
     8
 73
     4
 74
     0
 42
0.000000001
 43
0.00000001
 40
0.5999999999999996
 40
0.5999999999999996
 40
0.5999999999999996
 40
0.5999999999999996
 40
0.7000000000000002
 40
0.7000000000000002
 40
0.7000000000000002
 40
0.7000000000000002
 10
2.330184197774757
 20
0.3862019818310743
 30
0.0
 10
2.422353693433628
 20
0.3862019818310743
 30
0.0
 10
2.479788119299929
 20
0.4705482635726608
 30
0.0
 10
2.479788119299929
 20
0.6001488288971297
 30
0.0
  0
SPLINE
  5
128
330
A7
100
AcDbEntity
  8
0
  6
Continuous
 62
   179
370
    18
100
AcDbSpline
210
0.0
220
0.0
230
1.0
 70
     8
 71
     3
 72
     8
 73
     4
 74
     0
 42
0.000000001
 43
0.00000001
 40
0.7000000000000002
 40
0.7000000000000002
 40
0.7000000000000002
 40
0.7000000000000002
 40
0.7999999999999998
 40
0.7999999999999998
 40
0.7999999999999998
 40
0.7999999999999998
 10
2.479788119299929
 20
0.6001488288971297
 30
0.0
 10
2.479788119299929
 20
0.7259942515413365
 30
0.0
 10
2.430369478770382
 20
0.8076445334099337
 30
0.0
 10
2.339547983048018
 20
0.8076445334099337
 30
0.0
  0
SPLINE
  5
129
330
A7
100
AcDbEntity
  8
0
  6
Continuous
 62
   179
370
    18
100
AcDbSpline
210
0.0
220
0.0
230
1.0
 70
     8
 71
     3
 72
     8
 73
     4
 74
     0
 42
0.000000001
 43
0.00000001
 40
0.7999999999999998
 40
0.7999999999999998
 40
0.7999999999999998
 40
0.7999999999999998
 40
0.9000000000000004
 40
0.9000000000000004
 40
0.9000000000000004
 40
0.9000000000000004
 10
2.339547983048018
 20
0.8076445334099337
 30
0.0
 10
2.28208948575428
 20
0.8076445334099337
 30
0.0
 10
2.251350272916366
 20
0.7795291061626973
 30
0.0
 10
2.240638487706609
 20
0.7688413923804077
 30
0.0
  0
SPLINE
  5
12A
330
A7
100
AcDbEntity
  8
0
  6
Continuous
 62
   179
370
    18
100
AcDbSpline
210
0.0
220
0.0
230
1.0
 70
     8
 71
     3
 72
     8
 73
     4
 74
     0
 42
0.000000001
 43
0.00000001
 40
0.0
 40
0.0
 40
0.0
 40
0.0
 40
0.0909090909090909
 40
0.0909090909090909
 40
0.0909090909090909
 40
0.0909090909090909
 10
3.051027163823481
 20
0.7217576803123332
 30
0.0
 10
3.061763020460714
 20
0.8884282438907687
 30
0.0
 10
3.173093372359949
 20
0.9743150969884391
 30
0.0
 10
3.36217443488294
 20
0.9743150969884391
 30
0.0
  0
SPLINE
  5
12B
330
A7
100
AcDbEntity
  8
0
  6
Continuous
 62
   179
370
    18
100
AcDbSpline
210
0.0
220
0.0
230
1.0
 70
     8
 71
     3
 72
     8
 73
     4
 74
     0
 42
0.000000001
 43
0.00000001
 40
0.0909090909090909
 40
0.0909090909090909
 40
0.0909090909090909
 40
0.0909090909090909
 40
0.1818181818181819
 40
0.1818181818181819
 40
0.1818181818181819
 40
0.1818181818181819
 10
3.36217443488294
 20
0.9743150969884391
 30
0.0
 10
3.439925145506636
 20
0.9743150969884391
 30
0.0
 10
3.521719855939828
 20
0.9635310974963767
 30
0.0
 10
3.58478699582656
 20
0.9178916710745259
 30
0.0
  0
SPLINE
  5
12C
330
A7
100
AcDbEntity
  8
0
  6
Continuous
 62
   179
370
    18
100
AcDbSpline
210
0.0
220
0.0
230
1.0
 70
     8
 71
     3
 72
     8
 73
     4
 74
     0
 42
0.000000001
 43
0.00000001
 40
0.1818181818181819
 40
0.1818181818181819
 40
0.1818181818181819
 40
0.1818181818181819
 40
0.2727272727272729
 40
0.2727272727272729
 40
0.2727272727272729
 40
0.2727272727272729
 10
3.58478699582656
 20
0.9178916710745259
 30
0.0
 10
3.674669705878864
 20
0.8548245311877547
 30
0.0
 10
3.677341634324455
 20
0.7661453925074009
 30
0.0
 10
3.680013562770048
 20
0.6854579677362774
 30
0.0
  0
SPLINE
  5
12D
330
A7
100
AcDbEntity
  8
0
  6
Continuous
 62
   179
370
    18
100
AcDbSpline
210
0.0
220
0.0
230
1.0
 70
     8
 71
     3
 72
     8
 73
     4
 74
     0
 42
0.000000001
 43
0.00000001
 40
0.3636363636363638
 40
0.3636363636363638
 40
0.3636363636363638
 40
0.3636363636363638
 40
0.454545454545455
 40
0.454545454545455
 40
0.454545454545455
 40
0.454545454545455
 10
3.680013562770048
 20
0.3720479824977097
 30
0.0
 10
3.680013562770048
 20
0.3033962714454405
 30
0.0
 10
3.682733634070478
 20
0.2722959871959578
 30
0.0
 10
3.706853204363047
 20
0.2292562749373761
 30
0.0
  0
SPLINE
  5
12E
330
A7
100
AcDbEntity
  8
0
  6
Continuous
 62
   179
370
    18
100
AcDbSpline
210
0.0
220
0.0
230
1.0
 70
     8
 71
     3
 72
     8
 73
     4
 74
     0
 42
0.000000001
 43
0.00000001
 40
0.5454545454545459
 40
0.5454545454545459
 40
0.5454545454545459
 40
0.5454545454545459
 40
0.6363636363636367
 40
0.6363636363636367
 40
0.6363636363636367
 40
0.6363636363636367
 10
3.486888500437525
 20
0.2292562749373761
 30
0.0
 10
3.476152643800366
 20
0.2548682737310811
 30
0.0
 10
3.472108643990812
 20
0.2722959871959578
 30
0.0
 10
3.470784715481758
 20
0.3369036984386817
 30
0.0
  0
SPLINE
  5
12F
330
A7
100
AcDbEntity
  8
0
  6
Continuous
 62
   179
370
    18
100
AcDbSpline
210
0.0
220
0.0
230
1.0
 70
     8
 71
     3
 72
     8
 73
     4
 74
     0
 42
0.000000001
 43
0.00000001
 40
0.7272727272727275
 40
0.7272727272727275
 40
0.7272727272727275
 40
0.7272727272727275
 40
0.8181818181818183
 40
0.8181818181818183
 40
0.8181818181818183
 40
0.8181818181818183
 10
3.470784715481758
 20
0.7087591094959528
 30
0.0
 10
3.472108643990812
 20
0.7476585362352515
 30
0.0
 10
3.473432572499883
 20
0.8133253902852305
 30
0.0
 10
3.36217443488294
 20
0.8133253902852305
 30
0.0
  0
SPLINE
  5
130
330
A7
100
AcDbEntity
  8
0
  6
Continuous
 62
   179
370
    18
100
AcDbSpline
210
0.0
220
0.0
230
1.0
 70
     8
 71
     3
 72
     8
 73
     4
 74
     0
 42
0.000000001
 43
0.00000001
 40
0.8181818181818183
 40
0.8181818181818183
 40
0.8181818181818183
 40
0.8181818181818183
 40
0.9090909090909101
 40
0.9090909090909101
 40
0.9090909090909101
 40
0.9090909090909101
 10
3.36217443488294
 20
0.8133253902852305
 30
0.0
 10
3.339378793099482
 20
0.8133253902852305
 30
0.0
 10
3.244152226156012
 20
0.8105331047024598
 30
0.0
 10
3.241504369137822
 20
0.7222391088610395
 30
0.0
  0
SPLINE
  5
131
330
A7
100
AcDbEntity
  8
0
  6
Continuous
 62
   179
370
    18
100
AcDbSpline
210
0.0
220
0.0
230
1.0
 70
     8
 71
     3
 72
     8
 73
     4
 74
     0
 42
0.000000001
 43
0.00000001
 40
0.0
 40
0.0
 40
0.0
 40
0.0
 40
0.0714285714285714
 40
0.0714285714285714
 40
0.0714285714285714
 40
0.0714285714285714
 10
3.968028192061888
 20
0.535348546234904
 30
0.0
 10
3.885126195966521
 20
0.5579756880263015
 30
0.0
 10
3.76339698741416
 20
0.5914831150195777
 30
0.0
 10
3.76339698741416
 20
0.7465993934279875
 30
0.0
  0
SPLINE
  5
132
330
A7
100
AcDbEntity
  8
0
  6
Continuous
 62
   179
370
    18
100
AcDbSpline
210
0.0
220
0.0
230
1.0
 70
     8
 71
     3
 72
     8
 73
     4
 74
     0
 42
0.000000001
 43
0.00000001
 40
0.0714285714285714
 40
0.0714285714285714
 40
0.0714285714285714
 40
0.0714285714285714
 40
0.1428571428571428
 40
0.1428571428571428
 40
0.1428571428571428
 40
0.1428571428571428
 10
3.76339698741416
 20
0.7465993934279875
 30
0.0
 10
3.76339698741416
 20
0.7839582488112549
 30
0.0
 10
3.770088844241839
 20
0.8428851031786818
 30
0.0
 10
3.8168836991807
 20
0.8937721007819354
 30
0.0
  0
SPLINE
  5
133
330
A7
100
AcDbEntity
  8
0
  6
Continuous
 62
   179
370
    18
100
AcDbSpline
210
0.0
220
0.0
230
1.0
 70
     8
 71
     3
 72
     8
 73
     4
 74
     0
 42
0.000000001
 43
0.00000001
 40
0.1428571428571428
 40
0.1428571428571428
 40
0.1428571428571428
 40
0.1428571428571428
 40
0.2142857142857144
 40
0.2142857142857144
 40
0.2142857142857144
 40
0.2142857142857144
 10
3.8168836991807
 20
0.8937721007819354
 30
0.0
 10
3.887798124412074
 20
0.9688268115326002
 30
0.0
 10
3.990847905272779
 20
0.9741706684238106
 30
0.0
 10
4.051122759576731
 20
0.9781665253784826
 30
0.0
  0
SPLINE
  5
134
330
A7
100
AcDbEntity
  8
0
  6
Continuous
 62
   179
370
    18
100
AcDbSpline
210
0.0
220
0.0
230
1.0
 70
     8
 71
     3
 72
     8
 73
     4
 74
     0
 42
0.000000001
 43
0.00000001
 40
0.2857142857142856
 40
0.2857142857142856
 40
0.2857142857142856
 40
0.2857142857142856
 40
0.3571428571428568
 40
0.3571428571428568
 40
0.3571428571428568
 40
0.3571428571428568
 10
4.051122759576731
 20
0.826805389650326
 30
0.0
 10
4.006903547373719
 20
0.8241093897773104
 30
0.0
 10
3.961336335234205
 20
0.8120736760584562
 30
0.0
 10
3.961336335234205
 20
0.7666268210561421
 30
0.0
  0
SPLINE
  5
135
330
A7
100
AcDbEntity
  8
0
  6
Continuous
 62
   179
370
    18
100
AcDbSpline
210
0.0
220
0.0
230
1.0
 70
     8
 71
     3
 72
     8
 73
     4
 74
     0
 42
0.000000001
 43
0.00000001
 40
0.3571428571428568
 40
0.3571428571428568
 40
0.3571428571428568
 40
0.3571428571428568
 40
0.4285714285714288
 40
0.4285714285714288
 40
0.4285714285714288
 40
0.4285714285714288
 10
3.961336335234205
 20
0.7666268210561421
 30
0.0
 10
3.961336335234205
 20
0.7304233941898415
 30
0.0
 10
3.988175976827221
 20
0.7224316802805587
 30
0.0
 10
4.051122759576731
 20
0.7051002525254022
 30
0.0
  0
SPLINE
  5
136
330
A7
100
AcDbEntity
  8
0
  6
Continuous
 62
   179
370
    18
100
AcDbSpline
210
0.0
220
0.0
230
1.0
 70
     8
 71
     3
 72
     8
 73
     4
 74
     0
 42
0.000000001
 43
0.00000001
 40
0.5
 40
0.5
 40
0.5
 40
0.5
 40
0.5714285714285712
 40
0.5714285714285712
 40
0.5714285714285712
 40
0.5714285714285712
 10
4.158722040223165
 20
0.6812213965071955
 30
0.0
 10
4.251493321567969
 20
0.6597496832328347
 30
0.0
 10
4.407668742783666
 20
0.6262422562395846
 30
0.0
 10
4.407668742783666
 20
0.4510985502030203
 30
0.0
  0
SPLINE
  5
137
330
A7
100
AcDbEntity
  8
0
  6
Continuous
 62
   179
370
    18
100
AcDbSpline
210
0.0
220
0.0
230
1.0
 70
     8
 71
     3
 72
     8
 73
     4
 74
     0
 42
0.000000001
 43
0.00000001
 40
0.5714285714285712
 40
0.5714285714285712
 40
0.5714285714285712
 40
0.5714285714285712
 40
0.6428571428571423
 40
0.6428571428571423
 40
0.6428571428571423
 40
0.6428571428571423
 10
4.407668742783666
 20
0.4510985502030203
 30
0.0
 10
4.407668742783666
 20
0.3601085544886193
 30
0.0
 10
4.361836744942313
 20
0.2862574151098207
 30
0.0
 10
4.270317177824245
 20
0.2446619884974802
 30
0.0
  0
SPLINE
  5
138
330
A7
100
AcDbEntity
  8
0
  6
Continuous
 62
   179
370
    18
100
AcDbSpline
210
0.0
220
0.0
230
1.0
 70
     8
 71
     3
 72
     8
 73
     4
 74
     0
 42
0.000000001
 43
0.00000001
 40
0.6428571428571423
 40
0.6428571428571423
 40
0.6428571428571423
 40
0.6428571428571423
 40
0.7142857142857135
 40
0.7142857142857135
 40
0.7142857142857135
 40
0.7142857142857135
 10
4.270317177824245
 20
0.2446619884974802
 30
0.0
 10
4.197765895527099
 20
0.2111545615042651
 30
0.0
 10
4.119774470629005
 20
0.2098065615677268
 30
0.0
 10
4.088842686371563
 20
0.2098065615677268
 30
0.0
  0
SPLINE
  5
139
330
A7
100
AcDbEntity
  8
0
  6
Continuous
 62
   179
370
    18
100
AcDbSpline
210
0.0
220
0.0
230
1.0
 70
     8
 71
     3
 72
     8
 73
     4
 74
     0
 42
0.000000001
 43
0.00000001
 40
0.7857142857142847
 40
0.7857142857142847
 40
0.7857142857142847
 40
0.7857142857142847
 40
0.8571428571428577
 40
0.8571428571428577
 40
0.8571428571428577
 40
0.8571428571428577
 10
4.088842686371563
 20
0.3628045543616087
 30
0.0
 10
4.11712661361087
 20
0.3640562685883831
 30
0.0
 10
4.196417895590585
 20
0.3707962682709178
 30
0.0
 10
4.196417895590585
 20
0.4322265510918936
 30
0.0
  0
SPLINE
  5
13A
330
A7
100
AcDbEntity
  8
0
  6
Continuous
 62
   179
370
    18
100
AcDbSpline
210
0.0
220
0.0
230
1.0
 70
     8
 71
     3
 72
     8
 73
     4
 74
     0
 42
0.000000001
 43
0.00000001
 40
0.8571428571428577
 40
0.8571428571428577
 40
0.8571428571428577
 40
0.8571428571428577
 40
0.9285714285714288
 40
0.9285714285714288
 40
0.9285714285714288
 40
0.9285714285714288
 10
4.196417895590585
 20
0.4322265510918936
 30
0.0
 10
4.196417895590585
 20
0.4764216918674595
 30
0.0
 10
4.150730326313863
 20
0.4898054055228172
 30
0.0
 10
4.103694757100635
 20
0.5019374049514267
 30
0.0
  0
SPLINE
  5
13B
330
A7
100
AcDbEntity
  8
0
  6
Continuous
 62
   179
370
    18
100
AcDbSpline
210
0.0
220
0.0
230
1.0
 70
     8
 71
     3
 72
     8
 73
     4
 74
     0
 42
0.000000001
 43
0.00000001
 40
0.0
 40
0.0
 40
0.0
 40
0.0
 40
0.2
 40
0.2
 40
0.2
 40
0.2
 10
4.190544467295799
 20
0.721179966053793
 30
0.0
 10
4.187752181713046
 20
0.8094739618951958
 30
0.0
 10
4.116789613626723
 20
0.8201616756775292
 30
0.0
 10
4.08860197209722
 20
0.8254573897138489
 30
0.0
  0
SPLINE
  5
13C
330
A7
100
AcDbEntity
  8
0
  6
Continuous
 62
   179
370
    18
100
AcDbSpline
210
0.0
220
0.0
230
1.0
 70
     8
 71
     3
 72
     8
 73
     4
 74
     0
 42
0.000000001
 43
0.00000001
 40
0.3999999999999999
 40
0.3999999999999999
 40
0.3999999999999999
 40
0.3999999999999999
 40
0.5999999999999996
 40
0.5999999999999996
 40
0.5999999999999996
 40
0.5999999999999996
 10
4.08860197209722
 20
0.9781665253784826
 30
0.0
 10
4.171672468184657
 20
0.9741706684238106
 30
0.0
 10
4.252167321536253
 20
0.9540469550858833
 30
0.0
 10
4.311190461613418
 20
0.899067814818255
 30
0.0
  0
SPLINE
  5
13D
330
A7
100
AcDbEntity
  8
0
  6
Continuous
 62
   179
370
    18
100
AcDbSpline
210
0.0
220
0.0
230
1.0
 70
     8
 71
     3
 72
     8
 73
     4
 74
     0
 42
0.000000001
 43
0.00000001
 40
0.5999999999999996
 40
0.5999999999999996
 40
0.5999999999999996
 40
0.5999999999999996
 40
0.7999999999999998
 40
0.7999999999999998
 40
0.7999999999999998
 40
0.7999999999999998
 10
4.311190461613418
 20
0.899067814818255
 30
0.0
 10
4.367613887527357
 20
0.8455811030517236
 30
0.0
 10
4.380949458327833
 20
0.7866542486842967
 30
0.0
 10
4.386293315218973
 20
0.7317713941263799
 30
0.0
  0
SPLINE
  5
13E
330
A7
100
AcDbEntity
  8
0
  6
Continuous
 62
   179
370
    18
100
AcDbSpline
210
0.0
220
0.0
230
1.0
 70
     8
 71
     3
 72
     8
 73
     4
 74
     0
 42
0.000000001
 43
0.00000001
 40
0.5625
 40
0.5625
 40
0.5625
 40
0.5625
 40
0.625
 40
0.625
 40
0.625
 40
0.625
 10
4.711257585627664
 20
0.4985674051101419
 30
0.0
 10
4.709957728546022
 20
0.4102734092687216
 30
0.0
 10
4.713953585500669
 20
0.3900534102210916
 30
0.0
 10
4.793052296060882
 20
0.3900534102210916
 30
0.0
  0
SPLINE
  5
13F
330
A7
100
AcDbEntity
  8
0
  6
Continuous
 62
   179
370
    18
100
AcDbSpline
210
0.0
220
0.0
230
1.0
 70
     8
 71
     3
 72
     8
 73
     4
 74
     0
 42
0.000000001
 43
0.00000001
 40
0.625
 40
0.625
 40
0.625
 40
0.625
 40
0.6875
 40
0.6875
 40
0.6875
 40
0.6875
 10
4.793052296060882
 20
0.3900534102210916
 30
0.0
 10
4.807832152507644
 20
0.3900534102210916
 30
0.0
 10
4.815872009271818
 20
0.3900534102210916
 30
0.0
 10
4.848079579183403
 20
0.3927494100941159
 30
0.0
  0
SPLINE
  5
140
330
A7
100
AcDbEntity
  8
0
  6
Continuous
 62
   179
370
    18
100
AcDbSpline
210
0.0
220
0.0
230
1.0
 70
     8
 71
     3
 72
     8
 73
     4
 74
     0
 42
0.000000001
 43
0.00000001
 40
0.75
 40
0.75
 40
0.75
 40
0.75
 40
0.8125
 40
0.8125
 40
0.8125
 40
0.8125
 10
4.848079579183403
 20
0.2325299890688969
 30
0.0
 10
4.772880439868135
 20
0.2258862750961263
 30
0.0
 10
4.750108869512066
 20
0.2231902752230932
 30
0.0
 10
4.709957728546022
 20
0.2231902752230932
 30
0.0
  0
SPLINE
  5
141
330
A7
100
AcDbEntity
  8
0
  6
Continuous
 62
   179
370
    18
100
AcDbSpline
210
0.0
220
0.0
230
1.0
 70
     8
 71
     3
 72
     8
 73
     4
 74
     0
 42
0.000000001
 43
0.00000001
 40
0.8125
 40
0.8125
 40
0.8125
 40
0.8125
 40
0.875
 40
0.875
 40
0.875
 40
0.875
 10
4.709957728546022
 20
0.2231902752230932
 30
0.0
 10
4.514257023477686
 20
0.2231902752230932
 30
0.0
 10
4.506265309568374
 20
0.3273714131733675
 30
0.0
 10
4.503569309695362
 20
0.4249088371508625
 30
0.0
  0
SPLINE
  5
142
330
A7
100
AcDbEntity
  8
0
  6
Continuous
 62
   179
370
    18
100
AcDbSpline
210
0.0
220
0.0
230
1.0
 70
     8
 71
     3
 72
     8
 73
     4
 74
     0
 42
0.000000001
 43
0.00000001
 40
0.0
 40
0.0
 40
0.0
 40
0.0
 40
0.25
 40
0.25
 40
0.25
 40
0.25
 10
4.052591116650461
 20
0.2098065615677268
 30
0.0
 10
3.831278412788427
 20
0.227137989322857
 30
0.0
 10
3.750855773719137
 20
0.3224608419760863
 30
0.0
 10
3.740119917081919
 20
0.4777696918039455
 30
0.0
  0
SPLINE
  5
143
330
A7
100
AcDbEntity
  8
0
  6
Continuous
 62
   179
370
    18
100
AcDbSpline
210
0.0
220
0.0
230
1.0
 70
     8
 71
     3
 72
     8
 73
     4
 74
     0
 42
0.000000001
 43
0.00000001
 40
0.5
 40
0.5
 40
0.5
 40
0.5
 40
0.75
 40
0.75
 40
0.75
 40
0.75
 10
3.938564764878135
 20
0.4844134057767685
 30
0.0
 10
3.949348764370237
 20
0.4216351230193242
 30
0.0
 10
3.962708406598132
 20
0.3828319819897545
 30
0.0
 10
4.052591116650461
 20
0.365404268524904
 30
0.0
  0
SPLINE
  5
144
330
A7
100
AcDbEntity
  8
0
  6
Continuous
 62
   179
370
    18
100
AcDbSpline
210
0.0
220
0.0
230
1.0
 70
     8
 71
     3
 72
     8
 73
     4
 74
     0
 42
0.000000001
 43
0.00000001
 40
0.0
 40
0.0
 40
0.0
 40
0.0
 40
0.0909090909090909
 40
0.0909090909090909
 40
0.0909090909090909
 40
0.0909090909090909
 10
3.439925145506636
 20
0.5588422594140724
 30
0.0
 10
3.42114943210524
 20
0.5533539739583209
 30
0.0
 10
3.329990936398717
 20
0.5360225462031557
 30
0.0
 10
3.308519223124343
 20
0.5306305464570983
 30
0.0
  0
SPLINE
  5
145
330
A7
100
AcDbEntity
  8
0
  6
Continuous
 62
   179
370
    18
100
AcDbSpline
210
0.0
220
0.0
230
1.0
 70
     8
 71
     3
 72
     8
 73
     4
 74
     0
 42
0.000000001
 43
0.00000001
 40
0.0909090909090909
 40
0.0909090909090909
 40
0.0909090909090909
 40
0.0909090909090909
 40
0.1818181818181819
 40
0.1818181818181819
 40
0.1818181818181819
 40
0.1818181818181819
 10
3.308519223124343
 20
0.5306305464570983
 30
0.0
 10
3.250868154411073
 20
0.5145508329287513
 30
0.0
 10
3.220056727290895
 20
0.4917311197178346
 30
0.0
 10
3.220056727290895
 20
0.4462842647154768
 30
0.0
  0
SPLINE
  5
146
330
A7
100
AcDbEntity
  8
0
  6
Continuous
 62
   179
370
    18
100
AcDbSpline
210
0.0
220
0.0
230
1.0
 70
     8
 71
     3
 72
     8
 73
     4
 74
     0
 42
0.000000001
 43
0.00000001
 40
0.1818181818181819
 40
0.1818181818181819
 40
0.1818181818181819
 40
0.1818181818181819
 40
0.2727272727272729
 40
0.2727272727272729
 40
0.2727272727272729
 40
0.2727272727272729
 10
3.220056727290895
 20
0.4462842647154768
 30
0.0
 10
3.220056727290895
 20
0.4007411240033987
 30
0.0
 10
3.256236082729718
 20
0.3685816969466958
 30
0.0
 10
3.316583151315958
 20
0.3685816969466958
 30
0.0
  0
SPLINE
  5
147
330
A7
100
AcDbEntity
  8
0
  6
Continuous
 62
   179
370
    18
100
AcDbSpline
210
0.0
220
0.0
230
1.0
 70
     8
 71
     3
 72
     8
 73
     4
 74
     0
 42
0.000000001
 43
0.00000001
 40
0.2727272727272729
 40
0.2727272727272729
 40
0.2727272727272729
 40
0.2727272727272729
 40
0.3636363636363638
 40
0.3636363636363638
 40
0.3636363636363638
 40
0.3636363636363638
 10
3.316583151315958
 20
0.3685816969466958
 30
0.0
 10
3.343398721481523
 20
0.3685816969466958
 30
0.0
 10
3.39298586200317
 20
0.3739736966927095
 30
0.0
 10
3.439925145506636
 20
0.4087328379127165
 30
0.0
  0
SPLINE
  5
148
330
A7
100
AcDbEntity
  8
0
  6
Continuous
 62
   179
370
    18
100
AcDbSpline
210
0.0
220
0.0
230
1.0
 70
     8
 71
     3
 72
     8
 73
     4
 74
     0
 42
0.000000001
 43
0.00000001
 40
0.3636363636363638
 40
0.3636363636363638
 40
0.3636363636363638
 40
0.3636363636363638
 40
0.454545454545455
 40
0.454545454545455
 40
0.454545454545455
 40
0.454545454545455
 10
3.439925145506636
 20
0.4087328379127165
 30
0.0
 10
3.437229145633618
 20
0.3845651247652964
 30
0.0
 10
3.435905217124536
 20
0.3618416972641088
 30
0.0
 10
3.435905217124536
 20
0.3390219840531921
 30
0.0
  0
SPLINE
  5
149
330
A7
100
AcDbEntity
  8
0
  6
Continuous
 62
   179
370
    18
100
AcDbSpline
210
0.0
220
0.0
230
1.0
 70
     8
 71
     3
 72
     8
 73
     4
 74
     0
 42
0.000000001
 43
0.00000001
 40
0.454545454545455
 40
0.454545454545455
 40
0.454545454545455
 40
0.454545454545455
 40
0.5454545454545459
 40
0.5454545454545459
 40
0.5454545454545459
 40
0.5454545454545459
 10
3.435905217124536
 20
0.3390219840531921
 30
0.0
 10
3.435905217124536
 20
0.3268899846246263
 30
0.0
 10
3.439925145506636
 20
0.269118558774166
 30
0.0
 10
3.439925145506636
 20
0.2569865593455565
 30
0.0
  0
SPLINE
  5
14A
330
A7
100
AcDbEntity
  8
0
  6
Continuous
 62
   179
370
    18
100
AcDbSpline
210
0.0
220
0.0
230
1.0
 70
     8
 71
     3
 72
     8
 73
     4
 74
     0
 42
0.000000001
 43
0.00000001
 40
0.5454545454545459
 40
0.5454545454545459
 40
0.5454545454545459
 40
0.5454545454545459
 40
0.6363636363636367
 40
0.6363636363636367
 40
0.6363636363636367
 40
0.6363636363636367
 10
3.439925145506636
 20
0.2569865593455565
 30
0.0
 10
3.376930219902222
 20
0.2059551331777095
 30
0.0
 10
3.281703652958763
 20
0.2059551331777095
 30
0.0
 10
3.261604011048299
 20
0.2059551331777095
 30
0.0
  0
SPLINE
  5
14B
330
A7
100
AcDbEntity
  8
0
  6
Continuous
 62
   179
370
    18
100
AcDbSpline
210
0.0
220
0.0
230
1.0
 70
     8
 71
     3
 72
     8
 73
     4
 74
     0
 42
0.000000001
 43
0.00000001
 40
0.6363636363636367
 40
0.6363636363636367
 40
0.6363636363636367
 40
0.6363636363636367
 40
0.7272727272727275
 40
0.7272727272727275
 40
0.7272727272727275
 40
0.7272727272727275
 10
3.261604011048299
 20
0.2059551331777095
 30
0.0
 10
3.124806088919995
 20
0.2059551331777095
 30
0.0
 10
3.010755665720245
 20
0.2905902720485792
 30
0.0
 10
3.010755665720245
 20
0.4395442650329597
 30
0.0
  0
SPLINE
  5
14C
330
A7
100
AcDbEntity
  8
0
  6
Continuous
 62
   179
370
    18
100
AcDbSpline
210
0.0
220
0.0
230
1.0
 70
     8
 71
     3
 72
     8
 73
     4
 74
     0
 42
0.000000001
 43
0.00000001
 40
0.7272727272727275
 40
0.7272727272727275
 40
0.7272727272727275
 40
0.7272727272727275
 40
0.8181818181818183
 40
0.8181818181818183
 40
0.8181818181818183
 40
0.8181818181818183
 10
3.010755665720245
 20
0.4395442650329597
 30
0.0
 10
3.010755665720245
 20
0.6109328283892096
 30
0.0
 10
3.154317658958582
 20
0.6457882553189892
 30
0.0
 10
3.222704584309013
 20
0.6606162546205794
 30
0.0
  0
SPLINE
  5
14D
330
A7
100
AcDbEntity
  8
0
  6
Continuous
 62
   179
370
    18
100
AcDbSpline
210
0.0
220
0.0
230
1.0
 70
     8
 71
     3
 72
     8
 73
     4
 74
     0
 42
0.000000001
 43
0.00000001
 40
0.8181818181818183
 40
0.8181818181818183
 40
0.8181818181818183
 40
0.8181818181818183
 40
0.9090909090909101
 40
0.9090909090909101
 40
0.9090909090909101
 40
0.9090909090909101
 10
3.222704584309013
 20
0.6606162546205794
 30
0.0
 10
3.252240225775024
 20
0.6672599685933762
 30
0.0
 10
3.405045647149461
 20
0.6927756816772997
 30
0.0
 10
3.439925145506636
 20
0.7007673955866263
 30
0.0
  0
HATCH
  5
14E
330
A7
100
AcDbEntity
  8
0
  6
Continuous
 62
     1
100
AcDbHatch
 10
0.0
 20
0.0
 30
0.0
210
0.0
220
0.0
230
1.0
  2
SOLID
 70
     1
 71
     0
 91
        1
 92
        0
 93
       16
 72
     4
 94
        3
 73
     1
 74
     0
 95
        8
 96
        4
 40
0.875
 40
0.875
 40
0.875
 40
0.875
 40
0.9375
 40
0.9375
 40
0.9375
 40
0.9375
 10
7.667517732103913
 20
0.3765734108559786
 42
1.0
 10
7.761396299110836
 20
0.3765734108559786
 42
1.0
 10
7.792352154795712
 20
0.4367519794501714
 42
1.0
 10
7.801691868641542
 20
0.4556239785613242
 42
1.0
 72
     1
 10
7.801691868641542
 20
0.4556239785613242
 11
8.010968858784707
 21
0.4407959792597166
 72
     4
 94
        3
 73
     1
 74
     0
 95
        8
 96
        4
 40
0.0
 40
0.0
 40
0.0
 40
0.0
 40
0.0625
 40
0.0625
 40
0.0625
 40
0.0625
 10
8.010968858784707
 20
0.4407959792597166
 42
1.0
 10
8.001629144938908
 20
0.4167245518220255
 42
1.0
 10
7.985453145700778
 20
0.3752254109194315
 42
1.0
 10
7.947853576043117
 20
0.3297785559171087
 42
1.0
 72
     4
 94
        3
 73
     1
 74
     0
 95
        8
 96
        4
 40
0.0625
 40
0.0625
 40
0.0625
 40
0.0625
 40
0.125
 40
0.125
 40
0.125
 40
0.125
 10
7.947853576043117
 20
0.3297785559171087
 42
1.0
 10
7.878094579328725
 20
0.246876559821772
 42
1.0
 10
7.770832298666425
 20
0.2096139901482338
 42
1.0
 10
7.662222018067589
 20
0.2096139901482338
 42
1.0
 72
     4
 94
        3
 73
     1
 74
     0
 95
        8
 96
        4
 40
0.125
 40
0.125
 40
0.125
 40
0.125
 40
0.1875
 40
0.1875
 40
0.1875
 40
0.1875
 10
7.662222018067589
 20
0.2096139901482338
 42
1.0
 10
7.415345458266789
 20
0.2096139901482338
 42
1.0
 10
7.29060732128471
 20
0.3844688390555587
 42
1.0
 10
7.29060732128471
 20
0.5896536865342893
 42
1.0
 72
     4
 94
        3
 73
     1
 74
     0
 95
        8
 96
        4
 40
0.1875
 40
0.1875
 40
0.1875
 40
0.1875
 40
0.25
 40
0.25
 40
0.25
 40
0.25
 10
7.29060732128471
 20
0.5896536865342893
 42
1.0
 10
7.29060732128471
 20
0.8153473901899683
 42
1.0
 10
7.44211288557746
 20
0.9780702396687273
 42
1.0
 10
7.664821732230889
 20
0.9780702396687273
 42
1.0
 72
     4
 94
        3
 73
     1
 74
     0
 95
        8
 96
        4
 40
0.25
 40
0.25
 40
0.25
 40
0.25
 40
0.3125
 40
0.3125
 40
0.3125
 40
0.3125
 10
7.664821732230889
 20
0.9780702396687273
 42
1.0
 10
7.792352154795712
 20
0.9780702396687273
 42
1.0
 10
7.882234864848028
 20
0.9215505280450239
 42
1.0
 10
7.934518005242658
 20
0.8502991028295119
 42
1.0
 72
     4
 94
        3
 73
     1
 74
     0
 95
        8
 96
        4
 40
0.3125
 40
0.3125
 40
0.3125
 40
0.3125
 40
0.375
 40
0.375
 40
0.375
 40
0.375
 10
7.934518005242658
 20
0.8502991028295119
 42
1.0
 10
7.998933145065885
 20
0.7654713925391317
 42
1.0
 10
8.019056858403786
 20
0.6472325409652392
 42
1.0
 10
8.019056858403786
 20
0.5318822606838727
 42
1.0
 72
     1
 10
8.019056858403786
 20
0.5318822606838727
 11
7.544175737913259
 21
0.5318822606838727
 72
     4
 94
        3
 73
     1
 74
     0
 95
        8
 96
        4
 40
0.4375
 40
0.4375
 40
0.4375
 40
0.4375
 40
0.5
 40
0.5
 40
0.5
 40
0.5
 10
7.544175737913259
 20
0.5318822606838727
 42
1.0
 10
7.53868745245742
 20
0.5559536881215725
 42
1.0
 10
7.537339452520906
 20
0.5761736871692026
 42
1.0
 10
7.535991452584448
 20
0.6069851142894632
 42
1.0
 72
     4
 94
        3
 73
     1
 74
     0
 95
        8
 96
        4
 40
0.5
 40
0.5
 40
0.5
 40
0.5
 40
0.5625
 40
0.5625
 40
0.5625
 40
0.5625
 10
7.535991452584448
 20
0.6069851142894632
 42
1.0
 10
7.535991452584448
 20
0.6366411128926522
 42
1.0
 10
7.537339452520906
 20
0.6607125403303259
 42
1.0
 10
7.544175737913259
 20
0.688827967577536
 42
1.0
 72
     1
 10
7.544175737913259
 20
0.688827967577536
 11
7.801691868641542
 21
0.688827967577536
 72
     4
 94
        3
 73
     1
 74
     0
 95
        8
 96
        4
 40
0.625
 40
0.625
 40
0.625
 40
0.625
 40
0.6875
 40
0.6875
 40
0.6875
 40
0.6875
 10
7.801691868641542
 20
0.688827967577536
 42
1.0
 10
7.795000011813845
 20
0.7265719657998154
 42
1.0
 10
7.781520012448738
 20
0.7507396789472792
 42
1.0
 10
7.772180298602922
 20
0.7641233926025758
 42
1.0
 72
     4
 94
        3
 73
     1
 74
     0
 95
        8
 96
        4
 40
0.6875
 40
0.6875
 40
0.6875
 40
0.6875
 40
0.75
 40
0.75
 40
0.75
 40
0.75
 10
7.772180298602922
 20
0.7641233926025758
 42
1.0
 10
7.748060728310382
 20
0.7964753910788678
 42
1.0
 10
7.706465301698064
 20
0.8153473901899683
 42
1.0
 10
7.662222018067589
 20
0.8153473901899683
 42
1.0
 72
     4
 94
        3
 73
     1
 74
     0
 95
        8
 96
        4
 40
0.75
 40
0.75
 40
0.75
 40
0.75
 40
0.8125
 40
0.8125
 40
0.8125
 40
0.8125
 10
7.662222018067589
 20
0.8153473901899683
 42
1.0
 10
7.585771164525543
 20
0.8153473901899683
 42
1.0
 10
7.499884311427905
 20
0.7668193924756351
 42
1.0
 10
7.499884311427905
 20
0.6015931145433971
 42
1.0
 72
     4
 94
        3
 73
     1
 74
     0
 95
        8
 96
        4
 40
0.8125
 40
0.8125
 40
0.8125
 40
0.8125
 40
0.875
 40
0.875
 40
0.875
 40
0.875
 10
7.499884311427905
 20
0.6015931145433971
 42
1.0
 10
7.499884311427905
 20
0.4983748336906402
 42
1.0
 10
7.537339452520906
 20
0.3765734108559786
 42
1.0
 10
7.667517732103913
 20
0.3765734108559786
 42
1.0
 97
        0
 75
     0
 76
     1
 98
        1
 10
0.0
 20
0.0
  0
HATCH
  5
14F
330
A7
100
AcDbEntity
  8
0
  6
Continuous
 62
   179
100
AcDbHatch
 10
0.0
 20
0.0
 30
0.0
210
0.0
220
0.0
230
1.0
  2
SOLID
 70
     1
 71
     0
 91
        1
 92
        0
 93
        4
 72
     1
 10
2.205927489286181
 20
0.9548653836374974
 11
2.205927489286181
 21
0.0
 72
     1
 10
2.205927489286181
 20
0.0
 11
1.998263284786184
 21
0.0
 72
     1
 10
1.998263284786184
 20
0.0
 11
1.998263284786184
 21
0.9548653836374974
 72
     1
 10
1.998263284786184
 20
0.9548653836374974
 11
2.205927489286181
 21
0.9548653836374974
 97
        0
 75
     0
 76
     1
 98
        1
 10
0.0
 20
0.0
  0
HATCH
  5
150
330
A7
100
AcDbEntity
  8
0
  6
Continuous
 62
   179
100
AcDbHatch
 10
0.0
 20
0.0
 30
0.0
210
0.0
220
0.0
230
1.0
  2
SOLID
 70
     1
 71
     0
 91
        1
 92
        0
 93
       10
 72
     4
 94
        3
 73
     1
 74
     0
 95
        8
 96
        4
 40
0.7999999999999998
 40
0.7999999999999998
 40
0.7999999999999998
 40
0.7999999999999998
 40
0.9000000000000004
 40
0.9000000000000004
 40
0.9000000000000004
 40
0.9000000000000004
 10
2.339547983048018
 20
0.8076445334099337
 42
1.0
 10
2.28208948575428
 20
0.8076445334099337
 42
1.0
 10
2.251350272916366
 20
0.7795291061626973
 42
1.0
 10
2.240638487706609
 20
0.7688413923804077
 42
1.0
 72
     1
 10
2.240638487706609
 20
0.7688413923804077
 11
2.240638487706609
 21
0.9309865276006004
 72
     4
 94
        3
 73
     1
 74
     0
 95
        8
 96
        4
 40
0.0
 40
0.0
 40
0.0
 40
0.0
 40
0.1
 40
0.1
 40
0.1
 40
0.1
 10
2.240638487706609
 20
0.9309865276006004
 42
1.0
 10
2.28208948575428
 20
0.9645902403035707
 42
1.0
 10
2.335552126093347
 20
0.9780702396687273
 42
1.0
 10
2.388942552150137
 20
0.9780702396687273
 42
1.0
 72
     4
 94
        3
 73
     1
 74
     0
 95
        8
 96
        4
 40
0.1
 40
0.1
 40
0.1
 40
0.1
 40
0.2
 40
0.2
 40
0.2
 40
0.2
 10
2.388942552150137
 20
0.9780702396687273
 42
1.0
 10
2.572631614927047
 20
0.9780702396687273
 42
1.0
 10
2.69096675221068
 20
0.8236279612285604
 42
1.0
 10
2.69096675221068
 20
0.5948531148608363
 42
1.0
 72
     4
 94
        3
 73
     1
 74
     0
 95
        8
 96
        4
 40
0.2
 40
0.2
 40
0.2
 40
0.2
 40
0.2999999999999998
 40
0.2999999999999998
 40
0.2999999999999998
 40
0.2999999999999998
 10
2.69096675221068
 20
0.5948531148608363
 42
1.0
 10
2.69096675221068
 20
0.3487468407380255
 42
1.0
 10
2.544347687687798
 20
0.213465418538251
 42
1.0
 10
2.379578766876868
 20
0.213465418538251
 42
1.0
 72
     4
 94
        3
 73
     1
 74
     0
 95
        8
 96
        4
 40
0.2999999999999998
 40
0.2999999999999998
 40
0.2999999999999998
 40
0.2999999999999998
 40
0.3999999999999999
 40
0.3999999999999999
 40
0.3999999999999999
 40
0.3999999999999999
 10
2.379578766876868
 20
0.213465418538251
 42
1.0
 10
2.30880877021007
 20
0.213465418538251
 42
1.0
 10
2.262037986698689
 20
0.2362851317491677
 42
1.0
 10
2.240638487706609
 20
0.246876559821772
 42
1.0
 72
     1
 10
2.240638487706609
 20
0.246876559821772
 11
2.240638487706609
 21
0.4210574087608103
 72
     4
 94
        3
 73
     1
 74
     0
 95
        8
 96
        4
 40
0.5
 40
0.5
 40
0.5
 40
0.5
 40
0.5999999999999996
 40
0.5999999999999996
 40
0.5999999999999996
 40
0.5999999999999996
 10
2.240638487706609
 20
0.4210574087608103
 42
1.0
 10
2.256718201234963
 20
0.4063256951689579
 42
1.0
 10
2.278117700227043
 20
0.3862019818310743
 42
1.0
 10
2.330184197774757
 20
0.3862019818310743
 42
1.0
 72
     4
 94
        3
 73
     1
 74
     0
 95
        8
 96
        4
 40
0.5999999999999996
 40
0.5999999999999996
 40
0.5999999999999996
 40
0.5999999999999996
 40
0.7000000000000002
 40
0.7000000000000002
 40
0.7000000000000002
 40
0.7000000000000002
 10
2.330184197774757
 20
0.3862019818310743
 42
1.0
 10
2.422353693433628
 20
0.3862019818310743
 42
1.0
 10
2.479788119299929
 20
0.4705482635726608
 42
1.0
 10
2.479788119299929
 20
0.6001488288971297
 42
1.0
 72
     4
 94
        3
 73
     1
 74
     0
 95
        8
 96
        4
 40
0.7000000000000002
 40
0.7000000000000002
 40
0.7000000000000002
 40
0.7000000000000002
 40
0.7999999999999998
 40
0.7999999999999998
 40
0.7999999999999998
 40
0.7999999999999998
 10
2.479788119299929
 20
0.6001488288971297
 42
1.0
 10
2.479788119299929
 20
0.7259942515413365
 42
1.0
 10
2.430369478770382
 20
0.8076445334099337
 42
1.0
 10
2.339547983048018
 20
0.8076445334099337
 42
1.0
 97
        0
 75
     0
 76
     1
 98
        1
 10
0.0
 20
0.0
  0
HATCH
  5
151
330
A7
100
AcDbEntity
  8
0
  6
Continuous
 62
   179
100
AcDbHatch
 10
0.0
 20
0.0
 30
0.0
210
0.0
220
0.0
230
1.0
  2
SOLID
 70
     1
 71
     0
 91
        1
 92
        0
 93
        4
 72
     1
 10
2.75011024941118
 20
1.176178087462488
 11
2.955872811173675
 21
1.176178087462488
 72
     1
 10
2.955872811173675
 20
1.176178087462488
 11
2.955872811173675
 21
0.2289674177999892
 72
     1
 10
2.955872811173675
 20
0.2289674177999891
 11
2.75011024941118
 21
0.2289674177999891
 72
     1
 10
2.75011024941118
 20
0.2289674177999891
 11
2.75011024941118
 21
1.176178087462488
 97
        0
 75
     0
 76
     1
 98
        1
 10
0.0
 20
0.0
  0
HATCH
  5
152
330
A7
100
AcDbEntity
  8
0
  6
Continuous
 62
   179
100
AcDbHatch
 10
0.0
 20
0.0
 30
0.0
210
0.0
220
0.0
230
1.0
  2
SOLID
 70
     1
 71
     0
 91
        1
 92
        0
 93
       16
 72
     4
 94
        3
 73
     1
 74
     0
 95
        8
 96
        4
 40
0.8125
 40
0.8125
 40
0.8125
 40
0.8125
 40
0.875
 40
0.875
 40
0.875
 40
0.875
 10
4.709957728546022
 20
0.2231902752230932
 42
1.0
 10
4.514257023477686
 20
0.2231902752230932
 42
1.0
 10
4.506265309568374
 20
0.3273714131733675
 42
1.0
 10
4.503569309695362
 20
0.4249088371508625
 42
1.0
 72
     1
 10
4.503569309695362
 20
0.4249088371508625
 11
4.503569309695362
 21
0.7996528195006334
 72
     1
 10
4.503569309695362
 20
0.7996528195006334
 11
4.402950743005851
 21
0.7996528195006334
 72
     1
 10
4.402950743005851
 20
0.7996528195006334
 11
4.402950743005851
 21
0.9548653836187723
 72
     1
 10
4.402950743005851
 20
0.9548653836187723
 11
4.503569309695362
 21
0.9548653836187723
 72
     1
 10
4.503569309695362
 20
0.9548653836187723
 11
4.503569309695362
 21
1.086391663138258
 72
     1
 10
4.503569309695362
 20
1.086391663138258
 11
4.711257585627664
 21
1.086391663138258
 72
     1
 10
4.711257585627664
 20
1.086391663138258
 11
4.711257585627664
 21
0.9548653836187723
 72
     1
 10
4.711257585627664
 20
0.9548653836187723
 11
4.848079579183403
 21
0.9548653836187723
 72
     1
 10
4.848079579183403
 20
0.9548653836187723
 11
4.848079579183403
 21
0.7996528195006334
 72
     1
 10
4.848079579183403
 20
0.7996528195006334
 11
4.711257585627664
 21
0.7996528195006334
 72
     1
 10
4.711257585627664
 20
0.7996528195006334
 11
4.711257585627664
 21
0.4985674051101419
 72
     4
 94
        3
 73
     1
 74
     0
 95
        8
 96
        4
 40
0.5625
 40
0.5625
 40
0.5625
 40
0.5625
 40
0.625
 40
0.625
 40
0.625
 40
0.625
 10
4.711257585627664
 20
0.4985674051101419
 42
1.0
 10
4.709957728546022
 20
0.4102734092687216
 42
1.0
 10
4.713953585500669
 20
0.3900534102210916
 42
1.0
 10
4.793052296060882
 20
0.3900534102210916
 42
1.0
 72
     4
 94
        3
 73
     1
 74
     0
 95
        8
 96
        4
 40
0.625
 40
0.625
 40
0.625
 40
0.625
 40
0.6875
 40
0.6875
 40
0.6875
 40
0.6875
 10
4.793052296060882
 20
0.3900534102210916
 42
1.0
 10
4.807832152507644
 20
0.3900534102210916
 42
1.0
 10
4.815872009271818
 20
0.3900534102210916
 42
1.0
 10
4.848079579183403
 20
0.3927494100941159
 42
1.0
 72
     1
 10
4.848079579183403
 20
0.3927494100941159
 11
4.848079579183403
 21
0.2325299890688969
 72
     4
 94
        3
 73
     1
 74
     0
 95
        8
 96
        4
 40
0.75
 40
0.75
 40
0.75
 40
0.75
 40
0.8125
 40
0.8125
 40
0.8125
 40
0.8125
 10
4.848079579183403
 20
0.2325299890688969
 42
1.0
 10
4.772880439868135
 20
0.2258862750961263
 42
1.0
 10
4.750108869512066
 20
0.2231902752230932
 42
1.0
 10
4.709957728546022
 20
0.2231902752230932
 42
1.0
 97
        0
 75
     0
 76
     1
 98
        1
 10
0.0
 20
0.0
  0
HATCH
  5
153
330
A7
100
AcDbEntity
  8
0
  6
Continuous
 62
   179
100
AcDbHatch
 10
0.0
 20
0.0
 30
0.0
210
0.0
220
0.0
230
1.0
  2
SOLID
 70
     1
 71
     0
 91
        1
 92
        0
 93
        4
 72
     1
 10
4.881250006223683
 20
0.9920316675374907
 11
4.881250006223683
 21
1.175985516037487
 72
     1
 10
4.881250006223683
 20
1.175985516037487
 11
5.088890139323683
 21
1.175985516037487
 72
     1
 10
5.088890139323683
 20
1.175985516037487
 11
5.088890139323683
 21
0.9920316675374907
 72
     1
 10
5.088890139323683
 20
0.9920316675374907
 11
4.881250006223683
 21
0.9920316675374907
 97
        0
 75
     0
 76
     1
 98
        1
 10
0.0
 20
0.0
  0
HATCH
  5
154
330
A7
100
AcDbEntity
  8
0
  6
Continuous
 62
   179
100
AcDbHatch
 10
0.0
 20
0.0
 30
0.0
210
0.0
220
0.0
230
1.0
  2
SOLID
 70
     1
 71
     0
 91
        1
 92
        0
 93
        4
 72
     1
 10
4.881250006223683
 20
0.2289674177999891
 11
4.881250006223683
 21
0.9548653836374974
 72
     1
 10
4.881250006223683
 20
0.9548653836374974
 11
5.088890139323683
 21
0.9548653836374974
 72
     1
 10
5.088890139323683
 20
0.9548653836374974
 11
5.088890139323683
 21
0.2289674177999892
 72
     1
 10
5.088890139323683
 20
0.2289674177999891
 11
4.881250006223683
 21
0.2289674177999891
 97
        0
 75
     0
 76
     1
 98
        1
 10
0.0
 20
0.0
  0
HATCH
  5
155
330
A7
100
AcDbEntity
  8
0
  6
Continuous
 62
   179
100
AcDbHatch
 10
0.0
 20
0.0
 30
0.0
210
0.0
220
0.0
230
1.0
  2
SOLID
 70
     1
 71
     0
 91
        1
 92
        0
 93
       11
 72
     4
 94
        3
 73
     1
 74
     0
 95
        8
 96
        4
 40
0.8181818181818183
 40
0.8181818181818183
 40
0.8181818181818183
 40
0.8181818181818183
 40
0.9090909090909101
 40
0.9090909090909101
 40
0.9090909090909101
 40
0.9090909090909101
 10
3.222704584309013
 20
0.6606162546205794
 42
1.0
 10
3.252240225775024
 20
0.6672599685933762
 42
1.0
 10
3.405045647149461
 20
0.6927756816772997
 42
1.0
 10
3.439925145506636
 20
0.7007673955866263
 42
1.0
 72
     1
 10
3.439925145506636
 20
0.7007673955866263
 11
3.439925145506636
 21
0.5588422594140724
 72
     4
 94
        3
 73
     1
 74
     0
 95
        8
 96
        4
 40
0.0
 40
0.0
 40
0.0
 40
0.0
 40
0.0909090909090909
 40
0.0909090909090909
 40
0.0909090909090909
 40
0.0909090909090909
 10
3.439925145506636
 20
0.5588422594140724
 42
1.0
 10
3.42114943210524
 20
0.5533539739583209
 42
1.0
 10
3.329990936398717
 20
0.5360225462031557
 42
1.0
 10
3.308519223124343
 20
0.5306305464570983
 42
1.0
 72
     4
 94
        3
 73
     1
 74
     0
 95
        8
 96
        4
 40
0.0909090909090909
 40
0.0909090909090909
 40
0.0909090909090909
 40
0.0909090909090909
 40
0.1818181818181819
 40
0.1818181818181819
 40
0.1818181818181819
 40
0.1818181818181819
 10
3.308519223124343
 20
0.5306305464570983
 42
1.0
 10
3.250868154411073
 20
0.5145508329287513
 42
1.0
 10
3.220056727290895
 20
0.4917311197178346
 42
1.0
 10
3.220056727290895
 20
0.4462842647154768
 42
1.0
 72
     4
 94
        3
 73
     1
 74
     0
 95
        8
 96
        4
 40
0.1818181818181819
 40
0.1818181818181819
 40
0.1818181818181819
 40
0.1818181818181819
 40
0.2727272727272729
 40
0.2727272727272729
 40
0.2727272727272729
 40
0.2727272727272729
 10
3.220056727290895
 20
0.4462842647154768
 42
1.0
 10
3.220056727290895
 20
0.4007411240033987
 42
1.0
 10
3.256236082729718
 20
0.3685816969466958
 42
1.0
 10
3.316583151315958
 20
0.3685816969466958
 42
1.0
 72
     4
 94
        3
 73
     1
 74
     0
 95
        8
 96
        4
 40
0.2727272727272729
 40
0.2727272727272729
 40
0.2727272727272729
 40
0.2727272727272729
 40
0.3636363636363638
 40
0.3636363636363638
 40
0.3636363636363638
 40
0.3636363636363638
 10
3.316583151315958
 20
0.3685816969466958
 42
1.0
 10
3.343398721481523
 20
0.3685816969466958
 42
1.0
 10
3.39298586200317
 20
0.3739736966927095
 42
1.0
 10
3.439925145506636
 20
0.4087328379127165
 42
1.0
 72
     4
 94
        3
 73
     1
 74
     0
 95
        8
 96
        4
 40
0.3636363636363638
 40
0.3636363636363638
 40
0.3636363636363638
 40
0.3636363636363638
 40
0.454545454545455
 40
0.454545454545455
 40
0.454545454545455
 40
0.454545454545455
 10
3.439925145506636
 20
0.4087328379127165
 42
1.0
 10
3.437229145633618
 20
0.3845651247652964
 42
1.0
 10
3.435905217124536
 20
0.3618416972641088
 42
1.0
 10
3.435905217124536
 20
0.3390219840531921
 42
1.0
 72
     4
 94
        3
 73
     1
 74
     0
 95
        8
 96
        4
 40
0.454545454545455
 40
0.454545454545455
 40
0.454545454545455
 40
0.454545454545455
 40
0.5454545454545459
 40
0.5454545454545459
 40
0.5454545454545459
 40
0.5454545454545459
 10
3.435905217124536
 20
0.3390219840531921
 42
1.0
 10
3.435905217124536
 20
0.3268899846246263
 42
1.0
 10
3.439925145506636
 20
0.269118558774166
 42
1.0
 10
3.439925145506636
 20
0.2569865593455565
 42
1.0
 72
     4
 94
        3
 73
     1
 74
     0
 95
        8
 96
        4
 40
0.5454545454545459
 40
0.5454545454545459
 40
0.5454545454545459
 40
0.5454545454545459
 40
0.6363636363636367
 40
0.6363636363636367
 40
0.6363636363636367
 40
0.6363636363636367
 10
3.439925145506636
 20
0.2569865593455565
 42
1.0
 10
3.376930219902222
 20
0.2059551331777095
 42
1.0
 10
3.281703652958763
 20
0.2059551331777095
 42
1.0
 10
3.261604011048299
 20
0.2059551331777095
 42
1.0
 72
     4
 94
        3
 73
     1
 74
     0
 95
        8
 96
        4
 40
0.6363636363636367
 40
0.6363636363636367
 40
0.6363636363636367
 40
0.6363636363636367
 40
0.7272727272727275
 40
0.7272727272727275
 40
0.7272727272727275
 40
0.7272727272727275
 10
3.261604011048299
 20
0.2059551331777095
 42
1.0
 10
3.124806088919995
 20
0.2059551331777095
 42
1.0
 10
3.010755665720245
 20
0.2905902720485792
 42
1.0
 10
3.010755665720245
 20
0.4395442650329597
 42
1.0
 72
     4
 94
        3
 73
     1
 74
     0
 95
        8
 96
        4
 40
0.7272727272727275
 40
0.7272727272727275
 40
0.7272727272727275
 40
0.7272727272727275
 40
0.8181818181818183
 40
0.8181818181818183
 40
0.8181818181818183
 40
0.8181818181818183
 10
3.010755665720245
 20
0.4395442650329597
 42
1.0
 10
3.010755665720245
 20
0.6109328283892096
 42
1.0
 10
3.154317658958582
 20
0.6457882553189892
 42
1.0
 10
3.222704584309013
 20
0.6606162546205794
 42
1.0
 97
        0
 75
     0
 76
     1
 98
        1
 10
0.0
 20
0.0
  0
HATCH
  5
156
330
A7
100
AcDbEntity
  8
0
  6
Continuous
 62
   179
100
AcDbHatch
 10
0.0
 20
0.0
 30
0.0
210
0.0
220
0.0
230
1.0
  2
SOLID
 70
     1
 71
     0
 91
        1
 92
        0
 93
       11
 72
     4
 94
        3
 73
     1
 74
     0
 95
        8
 96
        4
 40
0.3636363636363638
 40
0.3636363636363638
 40
0.3636363636363638
 40
0.3636363636363638
 40
0.454545454545455
 40
0.454545454545455
 40
0.454545454545455
 40
0.454545454545455
 10
3.680013562770048
 20
0.3720479824977097
 42
1.0
 10
3.680013562770048
 20
0.3033962714454405
 42
1.0
 10
3.682733634070478
 20
0.2722959871959578
 42
1.0
 10
3.706853204363047
 20
0.2292562749373761
 42
1.0
 72
     1
 10
3.706853204363047
 20
0.2292562749373761
 11
3.486888500437525
 21
0.2292562749373761
 72
     4
 94
        3
 73
     1
 74
     0
 95
        8
 96
        4
 40
0.5454545454545459
 40
0.5454545454545459
 40
0.5454545454545459
 40
0.5454545454545459
 40
0.6363636363636367
 40
0.6363636363636367
 40
0.6363636363636367
 40
0.6363636363636367
 10
3.486888500437525
 20
0.2292562749373761
 42
1.0
 10
3.476152643800366
 20
0.2548682737310811
 42
1.0
 10
3.472108643990812
 20
0.2722959871959578
 42
1.0
 10
3.470784715481758
 20
0.3369036984386817
 42
1.0
 72
     1
 10
3.470784715481758
 20
0.3369036984386817
 11
3.470784715481758
 21
0.7087591094959528
 72
     4
 94
        3
 73
     1
 74
     0
 95
        8
 96
        4
 40
0.7272727272727275
 40
0.7272727272727275
 40
0.7272727272727275
 40
0.7272727272727275
 40
0.8181818181818183
 40
0.8181818181818183
 40
0.8181818181818183
 40
0.8181818181818183
 10
3.470784715481758
 20
0.7087591094959528
 42
1.0
 10
3.472108643990812
 20
0.7476585362352515
 42
1.0
 10
3.473432572499883
 20
0.8133253902852305
 42
1.0
 10
3.36217443488294
 20
0.8133253902852305
 42
1.0
 72
     4
 94
        3
 73
     1
 74
     0
 95
        8
 96
        4
 40
0.8181818181818183
 40
0.8181818181818183
 40
0.8181818181818183
 40
0.8181818181818183
 40
0.9090909090909101
 40
0.9090909090909101
 40
0.9090909090909101
 40
0.9090909090909101
 10
3.36217443488294
 20
0.8133253902852305
 42
1.0
 10
3.339378793099482
 20
0.8133253902852305
 42
1.0
 10
3.244152226156012
 20
0.8105331047024598
 42
1.0
 10
3.241504369137822
 20
0.7222391088610395
 42
1.0
 72
     1
 10
3.241504369137822
 20
0.7222391088610395
 11
3.051027163823481
 21
0.7217576803123332
 72
     4
 94
        3
 73
     1
 74
     0
 95
        8
 96
        4
 40
0.0
 40
0.0
 40
0.0
 40
0.0
 40
0.0909090909090909
 40
0.0909090909090909
 40
0.0909090909090909
 40
0.0909090909090909
 10
3.051027163823481
 20
0.7217576803123332
 42
1.0
 10
3.061763020460714
 20
0.8884282438907687
 42
1.0
 10
3.173093372359949
 20
0.9743150969884391
 42
1.0
 10
3.36217443488294
 20
0.9743150969884391
 42
1.0
 72
     4
 94
        3
 73
     1
 74
     0
 95
        8
 96
        4
 40
0.0909090909090909
 40
0.0909090909090909
 40
0.0909090909090909
 40
0.0909090909090909
 40
0.1818181818181819
 40
0.1818181818181819
 40
0.1818181818181819
 40
0.1818181818181819
 10
3.36217443488294
 20
0.9743150969884391
 42
1.0
 10
3.439925145506636
 20
0.9743150969884391
 42
1.0
 10
3.521719855939828
 20
0.9635310974963767
 42
1.0
 10
3.58478699582656
 20
0.9178916710745259
 42
1.0
 72
     4
 94
        3
 73
     1
 74
     0
 95
        8
 96
        4
 40
0.1818181818181819
 40
0.1818181818181819
 40
0.1818181818181819
 40
0.1818181818181819
 40
0.2727272727272729
 40
0.2727272727272729
 40
0.2727272727272729
 40
0.2727272727272729
 10
3.58478699582656
 20
0.9178916710745259
 42
1.0
 10
3.674669705878864
 20
0.8548245311877547
 42
1.0
 10
3.677341634324455
 20
0.7661453925074009
 42
1.0
 10
3.680013562770048
 20
0.6854579677362774
 42
1.0
 72
     1
 10
3.680013562770048
 20
0.6854579677362774
 11
3.680013562770048
 21
0.3720479824977097
 97
        0
 75
     0
 76
     1
 98
        1
 10
0.0
 20
0.0
  0
HATCH
  5
157
330
A7
100
AcDbEntity
  8
0
  6
Continuous
 62
   179
100
AcDbHatch
 10
0.0
 20
0.0
 30
0.0
210
0.0
220
0.0
230
1.0
  2
SOLID
 70
     1
 71
     0
 91
        1
 92
        0
 93
        5
 72
     4
 94
        3
 73
     1
 74
     0
 95
        8
 96
        4
 40
0.5999999999999996
 40
0.5999999999999996
 40
0.5999999999999996
 40
0.5999999999999996
 40
0.7999999999999998
 40
0.7999999999999998
 40
0.7999999999999998
 40
0.7999999999999998
 10
4.311190461613418
 20
0.899067814818255
 42
1.0
 10
4.367613887527357
 20
0.8455811030517236
 42
1.0
 10
4.380949458327833
 20
0.7866542486842967
 42
1.0
 10
4.386293315218973
 20
0.7317713941263799
 42
1.0
 72
     1
 10
4.386293315218973
 20
0.7317713941263799
 11
4.190544467295799
 21
0.721179966053793
 72
     4
 94
        3
 73
     1
 74
     0
 95
        8
 96
        4
 40
0.0
 40
0.0
 40
0.0
 40
0.0
 40
0.2
 40
0.2
 40
0.2
 40
0.2
 10
4.190544467295799
 20
0.721179966053793
 42
1.0
 10
4.187752181713046
 20
0.8094739618951958
 42
1.0
 10
4.116789613626723
 20
0.8201616756775292
 42
1.0
 10
4.08860197209722
 20
0.8254573897138489
 42
1.0
 72
     1
 10
4.08860197209722
 20
0.8254573897138489
 11
4.08860197209722
 21
0.9781665253784826
 72
     4
 94
        3
 73
     1
 74
     0
 95
        8
 96
        4
 40
0.3999999999999999
 40
0.3999999999999999
 40
0.3999999999999999
 40
0.3999999999999999
 40
0.5999999999999996
 40
0.5999999999999996
 40
0.5999999999999996
 40
0.5999999999999996
 10
4.08860197209722
 20
0.9781665253784826
 42
1.0
 10
4.171672468184657
 20
0.9741706684238106
 42
1.0
 10
4.252167321536253
 20
0.9540469550858833
 42
1.0
 10
4.311190461613418
 20
0.899067814818255
 42
1.0
 97
        0
 75
     0
 76
     1
 98
        1
 10
0.0
 20
0.0
  0
HATCH
  5
158
330
A7
100
AcDbEntity
  8
0
  6
Continuous
 62
   179
100
AcDbHatch
 10
0.0
 20
0.0
 30
0.0
210
0.0
220
0.0
230
1.0
  2
SOLID
 70
     1
 71
     0
 91
        1
 92
        0
 93
        4
 72
     4
 94
        3
 73
     1
 74
     0
 95
        8
 96
        4
 40
0.5
 40
0.5
 40
0.5
 40
0.5
 40
0.75
 40
0.75
 40
0.75
 40
0.75
 10
3.938564764878135
 20
0.4844134057767685
 42
1.0
 10
3.949348764370237
 20
0.4216351230193242
 42
1.0
 10
3.962708406598132
 20
0.3828319819897545
 42
1.0
 10
4.052591116650461
 20
0.365404268524904
 42
1.0
 72
     1
 10
4.052591116650461
 20
0.365404268524904
 11
4.052591116650461
 21
0.2098065615677268
 72
     4
 94
        3
 73
     1
 74
     0
 95
        8
 96
        4
 40
0.0
 40
0.0
 40
0.0
 40
0.0
 40
0.25
 40
0.25
 40
0.25
 40
0.25
 10
4.052591116650461
 20
0.2098065615677268
 42
1.0
 10
3.831278412788427
 20
0.227137989322857
 42
1.0
 10
3.750855773719137
 20
0.3224608419760863
 42
1.0
 10
3.740119917081919
 20
0.4777696918039455
 42
1.0
 72
     1
 10
3.740119917081919
 20
0.4777696918039455
 11
3.938564764878135
 21
0.4844134057767685
 97
        0
 75
     0
 76
     1
 98
        1
 10
0.0
 20
0.0
  0
HATCH
  5
159
330
A7
100
AcDbEntity
  8
0
  6
Continuous
 62
   179
100
AcDbHatch
 10
0.0
 20
0.0
 30
0.0
210
0.0
220
0.0
230
1.0
  2
SOLID
 70
     1
 71
     0
 91
        1
 92
        0
 93
       14
 72
     4
 94
        3
 73
     1
 74
     0
 95
        8
 96
        4
 40
0.2857142857142856
 40
0.2857142857142856
 40
0.2857142857142856
 40
0.2857142857142856
 40
0.3571428571428568
 40
0.3571428571428568
 40
0.3571428571428568
 40
0.3571428571428568
 10
4.051122759576731
 20
0.826805389650326
 42
1.0
 10
4.006903547373719
 20
0.8241093897773104
 42
1.0
 10
3.961336335234205
 20
0.8120736760584562
 42
1.0
 10
3.961336335234205
 20
0.7666268210561421
 42
1.0
 72
     4
 94
        3
 73
     1
 74
     0
 95
        8
 96
        4
 40
0.3571428571428568
 40
0.3571428571428568
 40
0.3571428571428568
 40
0.3571428571428568
 40
0.4285714285714288
 40
0.4285714285714288
 40
0.4285714285714288
 40
0.4285714285714288
 10
3.961336335234205
 20
0.7666268210561421
 42
1.0
 10
3.961336335234205
 20
0.7304233941898415
 42
1.0
 10
3.988175976827221
 20
0.7224316802805587
 42
1.0
 10
4.051122759576731
 20
0.7051002525254022
 42
1.0
 72
     1
 10
4.051122759576731
 20
0.7051002525254022
 11
4.158722040223165
 21
0.6812213965071955
 72
     4
 94
        3
 73
     1
 74
     0
 95
        8
 96
        4
 40
0.5
 40
0.5
 40
0.5
 40
0.5
 40
0.5714285714285712
 40
0.5714285714285712
 40
0.5714285714285712
 40
0.5714285714285712
 10
4.158722040223165
 20
0.6812213965071955
 42
1.0
 10
4.251493321567969
 20
0.6597496832328347
 42
1.0
 10
4.407668742783666
 20
0.6262422562395846
 42
1.0
 10
4.407668742783666
 20
0.4510985502030203
 42
1.0
 72
     4
 94
        3
 73
     1
 74
     0
 95
        8
 96
        4
 40
0.5714285714285712
 40
0.5714285714285712
 40
0.5714285714285712
 40
0.5714285714285712
 40
0.6428571428571423
 40
0.6428571428571423
 40
0.6428571428571423
 40
0.6428571428571423
 10
4.407668742783666
 20
0.4510985502030203
 42
1.0
 10
4.407668742783666
 20
0.3601085544886193
 42
1.0
 10
4.361836744942313
 20
0.2862574151098207
 42
1.0
 10
4.270317177824245
 20
0.2446619884974802
 42
1.0
 72
     4
 94
        3
 73
     1
 74
     0
 95
        8
 96
        4
 40
0.6428571428571423
 40
0.6428571428571423
 40
0.6428571428571423
 40
0.6428571428571423
 40
0.7142857142857135
 40
0.7142857142857135
 40
0.7142857142857135
 40
0.7142857142857135
 10
4.270317177824245
 20
0.2446619884974802
 42
1.0
 10
4.197765895527099
 20
0.2111545615042651
 42
1.0
 10
4.119774470629005
 20
0.2098065615677268
 42
1.0
 10
4.088842686371563
 20
0.2098065615677268
 42
1.0
 72
     1
 10
4.088842686371563
 20
0.2098065615677268
 11
4.088842686371563
 21
0.3628045543616087
 72
     4
 94
        3
 73
     1
 74
     0
 95
        8
 96
        4
 40
0.7857142857142847
 40
0.7857142857142847
 40
0.7857142857142847
 40
0.7857142857142847
 40
0.8571428571428577
 40
0.8571428571428577
 40
0.8571428571428577
 40
0.8571428571428577
 10
4.088842686371563
 20
0.3628045543616087
 42
1.0
 10
4.11712661361087
 20
0.3640562685883831
 42
1.0
 10
4.196417895590585
 20
0.3707962682709178
 42
1.0
 10
4.196417895590585
 20
0.4322265510918936
 42
1.0
 72
     4
 94
        3
 73
     1
 74
     0
 95
        8
 96
        4
 40
0.8571428571428577
 40
0.8571428571428577
 40
0.8571428571428577
 40
0.8571428571428577
 40
0.9285714285714288
 40
0.9285714285714288
 40
0.9285714285714288
 40
0.9285714285714288
 10
4.196417895590585
 20
0.4322265510918936
 42
1.0
 10
4.196417895590585
 20
0.4764216918674595
 42
1.0
 10
4.150730326313863
 20
0.4898054055228172
 42
1.0
 10
4.103694757100635
 20
0.5019374049514267
 42
1.0
 72
     1
 10
4.103694757100635
 20
0.5019374049514267
 11
3.968028192061888
 21
0.535348546234904
 72
     4
 94
        3
 73
     1
 74
     0
 95
        8
 96
        4
 40
0.0
 40
0.0
 40
0.0
 40
0.0
 40
0.0714285714285714
 40
0.0714285714285714
 40
0.0714285714285714
 40
0.0714285714285714
 10
3.968028192061888
 20
0.535348546234904
 42
1.0
 10
3.885126195966521
 20
0.5579756880263015
 42
1.0
 10
3.76339698741416
 20
0.5914831150195777
 42
1.0
 10
3.76339698741416
 20
0.7465993934279875
 42
1.0
 72
     4
 94
        3
 73
     1
 74
     0
 95
        8
 96
        4
 40
0.0714285714285714
 40
0.0714285714285714
 40
0.0714285714285714
 40
0.0714285714285714
 40
0.1428571428571428
 40
0.1428571428571428
 40
0.1428571428571428
 40
0.1428571428571428
 10
3.76339698741416
 20
0.7465993934279875
 42
1.0
 10
3.76339698741416
 20
0.7839582488112549
 42
1.0
 10
3.770088844241839
 20
0.8428851031786818
 42
1.0
 10
3.8168836991807
 20
0.8937721007819354
 42
1.0
 72
     4
 94
        3
 73
     1
 74
     0
 95
        8
 96
        4
 40
0.1428571428571428
 40
0.1428571428571428
 40
0.1428571428571428
 40
0.1428571428571428
 40
0.2142857142857144
 40
0.2142857142857144
 40
0.2142857142857144
 40
0.2142857142857144
 10
3.8168836991807
 20
0.8937721007819354
 42
1.0
 10
3.887798124412074
 20
0.9688268115326002
 42
1.0
 10
3.990847905272779
 20
0.9741706684238106
 42
1.0
 10
4.051122759576731
 20
0.9781665253784826
 42
1.0
 72
     1
 10
4.051122759576731
 20
0.9781665253784826
 11
4.051122759576731
 21
0.826805389650326
 97
        0
 75
     0
 76
     1
 98
        1
 10
0.0
 20
0.0
  0
HATCH
  5
15A
330
A7
100
AcDbEntity
  8
0
  6
Continuous
 62
     1
100
AcDbHatch
 10
0.0
 20
0.0
 30
0.0
210
0.0
220
0.0
230
1.0
  2
SOLID
 70
     1
 71
     0
 91
        1
 92
        0
 93
        7
 72
     4
 94
        3
 73
     1
 74
     0
 95
        8
 96
        4
 40
0.1428571428571429
 40
0.1428571428571429
 40
0.1428571428571429
 40
0.1428571428571429
 40
0.2857142857142858
 40
0.2857142857142858
 40
0.2857142857142858
 40
0.2857142857142858
 10
5.153545993367556
 20
0.5907128293415708
 42
1.0
 10
5.153545993367556
 20
0.864356816453095
 42
1.0
 10
5.334996413392792
 20
0.9728708113421629
 42
1.0
 10
5.500030119905541
 20
0.9781665253784826
 42
1.0
 72
     1
 10
5.500030119905541
 20
0.9781665253784826
 11
5.500030119905541
 21
0.8109182475414632
 72
     4
 94
        3
 73
     1
 74
     0
 95
        8
 96
        4
 40
0.4285714285714288
 40
0.4285714285714288
 40
0.4285714285714288
 40
0.4285714285714288
 40
0.5714285714285716
 40
0.5714285714285716
 40
0.5714285714285716
 40
0.5714285714285716
 10
5.500030119905541
 20
0.8109182475414632
 42
1.0
 10
5.381983839751144
 20
0.7920943912851749
 42
1.0
 10
5.368648268950644
 20
0.6673562543031751
 42
1.0
 10
5.368648268950644
 20
0.5962011147973659
 42
1.0
 72
     4
 94
        3
 73
     1
 74
     0
 95
        8
 96
        4
 40
0.5714285714285716
 40
0.5714285714285716
 40
0.5714285714285716
 40
0.5714285714285716
 40
0.7142857142857144
 40
0.7142857142857144
 40
0.7142857142857144
 40
0.7142857142857144
 10
5.368648268950644
 20
0.5962011147973659
 42
1.0
 10
5.368648268950644
 20
0.5637528306113274
 42
1.0
 10
5.369948126032288
 20
0.4911534054593381
 42
1.0
 10
5.408751267061798
 20
0.4400256935817009
 42
1.0
 72
     4
 94
        3
 73
     1
 74
     0
 95
        8
 96
        4
 40
0.7142857142857144
 40
0.7142857142857144
 40
0.7142857142857144
 40
0.7142857142857144
 40
0.8571428571428577
 40
0.8571428571428577
 40
0.8571428571428577
 40
0.8571428571428577
 10
5.408751267061798
 20
0.4400256935817009
 42
1.0
 10
5.439755265601581
 20
0.3996819811961348
 42
1.0
 10
5.477210406694607
 20
0.3902459816405583
 42
1.0
 10
5.500030119905541
 20
0.3862019818310743
 42
1.0
 72
     1
 10
5.500030119905541
 20
0.3862019818310743
 11
5.500030119905541
 21
0.2096139901482338
 72
     4
 94
        3
 73
     1
 74
     0
 95
        8
 96
        4
 40
0.0
 40
0.0
 40
0.0
 40
0.0
 40
0.1428571428571429
 40
0.1428571428571429
 40
0.1428571428571429
 40
0.1428571428571429
 10
5.500030119905541
 20
0.2096139901482338
 42
1.0
 10
5.239577275029806
 20
0.2176057040575428
 42
1.0
 10
5.153545993367556
 20
0.4130656948515012
 42
1.0
 10
5.153545993367556
 20
0.5907128293415708
 42
1.0
 97
        0
 75
     0
 76
     1
 98
        1
 10
0.0
 20
0.0
  0
HATCH
  5
15B
330
A7
100
AcDbEntity
  8
0
  6
Continuous
 62
     1
100
AcDbHatch
 10
0.0
 20
0.0
 30
0.0
210
0.0
220
0.0
230
1.0
  2
SOLID
 70
     1
 71
     0
 91
        1
 92
        0
 93
        5
 72
     4
 94
        3
 73
     1
 74
     0
 95
        8
 96
        4
 40
0.5999999999999996
 40
0.5999999999999996
 40
0.5999999999999996
 40
0.5999999999999996
 40
0.7999999999999998
 40
0.7999999999999998
 40
0.7999999999999998
 40
0.7999999999999998
 10
5.753646679388914
 20
0.8995973862218695
 42
1.0
 10
5.831445532867494
 20
0.8302716752013574
 42
1.0
 10
5.843529389441216
 20
0.7530505359812477
 42
1.0
 10
5.851569246205375
 20
0.7064482524619319
 42
1.0
 72
     1
 10
5.851569246205375
 20
0.7064482524619319
 11
5.648984112889892
 21
0.6956642529698696
 72
     4
 94
        3
 73
     1
 74
     0
 95
        8
 96
        4
 40
0.0
 40
0.0
 40
0.0
 40
0.0
 40
0.2
 40
0.2
 40
0.2
 40
0.2
 10
5.648984112889892
 20
0.6956642529698696
 42
1.0
 10
5.631508256570117
 20
0.7823695346003764
 42
1.0
 10
5.588612972876201
 20
0.7997491052103799
 42
1.0
 10
5.534981832545015
 20
0.8104368189927132
 42
1.0
 72
     1
 10
5.534981832545015
 20
0.8104368189927132
 11
5.534981832545015
 21
0.9781665253784826
 72
     4
 94
        3
 73
     1
 74
     0
 95
        8
 96
        4
 40
0.3999999999999999
 40
0.3999999999999999
 40
0.3999999999999999
 40
0.3999999999999999
 40
0.5999999999999996
 40
0.5999999999999996
 40
0.5999999999999996
 40
0.5999999999999996
 10
5.534981832545015
 20
0.9781665253784826
 42
1.0
 10
5.650332112826404
 20
0.975518668360314
 42
1.0
 10
5.717395109667764
 20
0.9316123847139701
 42
1.0
 10
5.753646679388914
 20
0.8995973862218695
 42
1.0
 97
        0
 75
     0
 76
     1
 98
        1
 10
0.0
 20
0.0
  0
HATCH
  5
15C
330
A7
100
AcDbEntity
  8
0
  6
Continuous
 62
     1
100
AcDbHatch
 10
0.0
 20
0.0
 30
0.0
210
0.0
220
0.0
230
1.0
  2
SOLID
 70
     1
 71
     0
 91
        1
 92
        0
 93
        4
 72
     4
 94
        3
 73
     1
 74
     0
 95
        8
 96
        4
 40
0.5
 40
0.5
 40
0.5
 40
0.5
 40
0.75
 40
0.75
 40
0.75
 40
0.75
 10
5.856864960241682
 20
0.5004931193051506
 42
1.0
 10
5.839437246776818
 20
0.3671374113004022
 42
1.0
 10
5.75234682230729
 20
0.2203979896402787
 42
1.0
 10
5.534981832545015
 20
0.2096139901482338
 42
1.0
 72
     1
 10
5.534981832545015
 20
0.2096139901482338
 11
5.534981832545015
 21
0.3862019818310743
 72
     4
 94
        3
 73
     1
 74
     0
 95
        8
 96
        4
 40
0.0
 40
0.0
 40
0.0
 40
0.0
 40
0.25
 40
0.25
 40
0.25
 40
0.25
 10
5.534981832545015
 20
0.3862019818310743
 42
1.0
 10
5.611384543232218
 20
0.3983339812596314
 42
1.0
 10
5.638296399107554
 20
0.4387739793549352
 42
1.0
 10
5.652979969844537
 20
0.5101216902802025
 42
1.0
 72
     1
 10
5.652979969844537
 20
0.5101216902802025
 11
5.856864960241682
 21
0.5004931193051506
 97
        0
 75
     0
 76
     1
 98
        1
 10
0.0
 20
0.0
  0
HATCH
  5
15D
330
A7
100
AcDbEntity
  8
0
  6
Continuous
 62
     1
100
AcDbHatch
 10
0.0
 20
0.0
 30
0.0
210
0.0
220
0.0
230
1.0
  2
SOLID
 70
     1
 71
     0
 91
        1
 92
        0
 93
        5
 72
     4
 94
        3
 73
     1
 74
     0
 95
        8
 96
        4
 40
0.5999999999999996
 40
0.5999999999999996
 40
0.5999999999999996
 40
0.5999999999999996
 40
0.7999999999999998
 40
0.7999999999999998
 40
0.7999999999999998
 40
0.7999999999999998
 10
7.166013612867287
 20
0.899067814818255
 42
1.0
 10
7.222292610216589
 20
0.8455811030517236
 42
1.0
 10
7.235772609581695
 20
0.7866542486842967
 42
1.0
 10
7.24111646647286
 20
0.7317713941263799
 42
1.0
 72
     1
 10
7.24111646647286
 20
0.7317713941263799
 11
7.045223189985003
 21
0.721179966053793
 72
     4
 94
        3
 73
     1
 74
     0
 95
        8
 96
        4
 40
0.0
 40
0.0
 40
0.0
 40
0.0
 40
0.2
 40
0.2
 40
0.2
 40
0.2
 10
7.045223189985003
 20
0.721179966053793
 42
1.0
 10
7.042527190111987
 20
0.8094739618951958
 42
1.0
 10
6.971564622025699
 20
0.8201616756775292
 42
1.0
 10
6.943449194778522
 20
0.8254573897138489
 42
1.0
 72
     1
 10
6.943449194778522
 20
0.8254573897138489
 11
6.943449194778522
 21
0.9781665253784826
 72
     4
 94
        3
 73
     1
 74
     0
 95
        8
 96
        4
 40
0.3999999999999999
 40
0.3999999999999999
 40
0.3999999999999999
 40
0.3999999999999999
 40
0.5999999999999996
 40
0.5999999999999996
 40
0.5999999999999996
 40
0.5999999999999996
 10
6.943449194778522
 20
0.9781665253784826
 42
1.0
 10
7.026543762293369
 20
0.9741706684238106
 42
1.0
 10
7.106942329935236
 20
0.9540469550858833
 42
1.0
 10
7.166013612867287
 20
0.899067814818255
 42
1.0
 97
        0
 75
     0
 76
     1
 98
        1
 10
0.0
 20
0.0
  0
HATCH
  5
15E
330
A7
100
AcDbEntity
  8
0
  6
Continuous
 62
     1
100
AcDbHatch
 10
0.0
 20
0.0
 30
0.0
210
0.0
220
0.0
230
1.0
  2
SOLID
 70
     1
 71
     0
 91
        1
 92
        0
 93
        4
 72
     4
 94
        3
 73
     1
 74
     0
 95
        8
 96
        4
 40
0.5
 40
0.5
 40
0.5
 40
0.5
 40
0.75
 40
0.75
 40
0.75
 40
0.75
 10
6.793387916132026
 20
0.4844134057767685
 42
1.0
 10
6.804075629914355
 20
0.4216351230193242
 42
1.0
 10
6.817507486424575
 20
0.3828319819897545
 42
1.0
 10
6.907438339331763
 20
0.365404268524904
 42
1.0
 72
     1
 10
6.907438339331763
 20
0.365404268524904
 11
6.907438339331763
 21
0.2098065615677268
 72
     4
 94
        3
 73
     1
 74
     0
 95
        8
 96
        4
 40
0.0
 40
0.0
 40
0.0
 40
0.0
 40
0.25
 40
0.25
 40
0.25
 40
0.25
 10
6.907438339331763
 20
0.2098065615677268
 42
1.0
 10
6.685981206905113
 20
0.227137989322857
 42
1.0
 10
6.60558263926322
 20
0.3224608419760863
 42
1.0
 10
6.594894925480909
 20
0.4777696918039455
 42
1.0
 72
     1
 10
6.594894925480909
 20
0.4777696918039455
 11
6.793387916132026
 21
0.4844134057767685
 97
        0
 75
     0
 76
     1
 98
        1
 10
0.0
 20
0.0
  0
HATCH
  5
15F
330
A7
100
AcDbEntity
  8
0
  6
Continuous
 62
     1
100
AcDbHatch
 10
0.0
 20
0.0
 30
0.0
210
0.0
220
0.0
230
1.0
  2
SOLID
 70
     1
 71
     0
 91
        1
 92
        0
 93
       11
 72
     4
 94
        3
 73
     1
 74
     0
 95
        8
 96
        4
 40
0.6363636363636367
 40
0.6363636363636367
 40
0.6363636363636367
 40
0.6363636363636367
 40
0.7272727272727275
 40
0.7272727272727275
 40
0.7272727272727275
 40
0.7272727272727275
 10
6.116354948019858
 20
0.2059551331777095
 42
1.0
 10
5.979532954464105
 20
0.2059551331777095
 42
1.0
 10
5.865530674119255
 20
0.2905902720485792
 42
1.0
 10
5.865530674119255
 20
0.4395442650329597
 42
1.0
 72
     4
 94
        3
 73
     1
 74
     0
 95
        8
 96
        4
 40
0.7272727272727275
 40
0.7272727272727275
 40
0.7272727272727275
 40
0.7272727272727275
 40
0.8181818181818183
 40
0.8181818181818183
 40
0.8181818181818183
 40
0.8181818181818183
 10
5.865530674119255
 20
0.4395442650329597
 42
1.0
 10
5.865530674119255
 20
0.6109328283892096
 42
1.0
 10
6.009140810212432
 20
0.6457882553189892
 42
1.0
 10
6.077551806990335
 20
0.6606162546205794
 42
1.0
 72
     4
 94
        3
 73
     1
 74
     0
 95
        8
 96
        4
 40
0.8181818181818183
 40
0.8181818181818183
 40
0.8181818181818183
 40
0.8181818181818183
 40
0.9090909090909101
 40
0.9090909090909101
 40
0.9090909090909101
 40
0.9090909090909101
 10
6.077551806990335
 20
0.6606162546205794
 42
1.0
 10
6.107015234174019
 20
0.6672599685933762
 42
1.0
 10
6.259868798403302
 20
0.6927756816772997
 42
1.0
 10
6.294676082478175
 20
0.7007673955866263
 42
1.0
 72
     1
 10
6.294676082478175
 20
0.7007673955866263
 11
6.294676082478175
 21
0.5588422594140724
 72
     4
 94
        3
 73
     1
 74
     0
 95
        8
 96
        4
 40
0.0
 40
0.0
 40
0.0
 40
0.0
 40
0.0909090909090909
 40
0.0909090909090909
 40
0.0909090909090909
 40
0.0909090909090909
 10
6.294676082478175
 20
0.5588422594140724
 42
1.0
 10
6.275900369076782
 20
0.5533539739583209
 42
1.0
 10
6.184814087652626
 20
0.5360225462031557
 42
1.0
 10
6.163342374378209
 20
0.5306305464570983
 42
1.0
 72
     4
 94
        3
 73
     1
 74
     0
 95
        8
 96
        4
 40
0.0909090909090909
 40
0.0909090909090909
 40
0.0909090909090909
 40
0.0909090909090909
 40
0.1818181818181819
 40
0.1818181818181819
 40
0.1818181818181819
 40
0.1818181818181819
 10
6.163342374378209
 20
0.5306305464570983
 42
1.0
 10
6.105667234237525
 20
0.5145508329287513
 42
1.0
 10
6.074759521407562
 20
0.4917311197178346
 42
1.0
 10
6.074759521407562
 20
0.4462842647154768
 42
1.0
 72
     4
 94
        3
 73
     1
 74
     0
 95
        8
 96
        4
 40
0.1818181818181819
 40
0.1818181818181819
 40
0.1818181818181819
 40
0.1818181818181819
 40
0.2727272727272729
 40
0.2727272727272729
 40
0.2727272727272729
 40
0.2727272727272729
 10
6.074759521407562
 20
0.4462842647154768
 42
1.0
 10
6.074759521407562
 20
0.4007411240033987
 42
1.0
 10
6.111011091128705
 20
0.3685816969466958
 42
1.0
 10
6.171334088287522
 20
0.3685816969466958
 42
1.0
 72
     4
 94
        3
 73
     1
 74
     0
 95
        8
 96
        4
 40
0.2727272727272729
 40
0.2727272727272729
 40
0.2727272727272729
 40
0.2727272727272729
 40
0.3636363636363638
 40
0.3636363636363638
 40
0.3636363636363638
 40
0.3636363636363638
 10
6.171334088287522
 20
0.3685816969466958
 42
1.0
 10
6.198101515598215
 20
0.3685816969466958
 42
1.0
 10
6.24778494182959
 20
0.3739736966927095
 42
1.0
 10
6.294676082478175
 20
0.4087328379127165
 42
1.0
 72
     4
 94
        3
 73
     1
 74
     0
 95
        8
 96
        4
 40
0.3636363636363638
 40
0.3636363636363638
 40
0.3636363636363638
 40
0.3636363636363638
 40
0.454545454545455
 40
0.454545454545455
 40
0.454545454545455
 40
0.454545454545455
 10
6.294676082478175
 20
0.4087328379127165
 42
1.0
 10
6.292028225460042
 20
0.3845651247652964
 42
1.0
 10
6.290728368378403
 20
0.3618416972641088
 42
1.0
 10
6.290728368378403
 20
0.3390219840531921
 42
1.0
 72
     4
 94
        3
 73
     1
 74
     0
 95
        8
 96
        4
 40
0.454545454545455
 40
0.454545454545455
 40
0.454545454545455
 40
0.454545454545455
 40
0.5454545454545459
 40
0.5454545454545459
 40
0.5454545454545459
 40
0.5454545454545459
 10
6.290728368378403
 20
0.3390219840531921
 42
1.0
 10
6.290728368378403
 20
0.3268899846246263
 42
1.0
 10
6.294676082478175
 20
0.269118558774166
 42
1.0
 10
6.294676082478175
 20
0.2569865593455565
 42
1.0
 72
     4
 94
        3
 73
     1
 74
     0
 95
        8
 96
        4
 40
0.5454545454545459
 40
0.5454545454545459
 40
0.5454545454545459
 40
0.5454545454545459
 40
0.6363636363636367
 40
0.6363636363636367
 40
0.6363636363636367
 40
0.6363636363636367
 10
6.294676082478175
 20
0.2569865593455565
 42
1.0
 10
6.231705228301225
 20
0.2059551331777095
 42
1.0
 10
6.136478661357786
 20
0.2059551331777095
 42
1.0
 10
6.116354948019858
 20
0.2059551331777095
 42
1.0
 97
        0
 75
     0
 76
     1
 98
        1
 10
0.0
 20
0.0
  0
HATCH
  5
160
330
A7
100
AcDbEntity
  8
0
  6
Continuous
 62
     1
100
AcDbHatch
 10
0.0
 20
0.0
 30
0.0
210
0.0
220
0.0
230
1.0
  2
SOLID
 70
     1
 71
     0
 91
        1
 92
        0
 93
       11
 72
     4
 94
        3
 73
     1
 74
     0
 95
        8
 96
        4
 40
0.1818181818181819
 40
0.1818181818181819
 40
0.1818181818181819
 40
0.1818181818181819
 40
0.2727272727272729
 40
0.2727272727272729
 40
0.2727272727272729
 40
0.2727272727272729
 10
6.439537932798185
 20
0.9178916710745259
 42
1.0
 10
6.529420642850423
 20
0.8548245311877547
 42
1.0
 10
6.532116642723465
 20
0.7661453925074009
 42
1.0
 10
6.534764499741589
 20
0.6854579677362774
 42
1.0
 72
     1
 10
6.534764499741589
 20
0.6854579677362774
 11
6.534764499741589
 21
0.3720479824977097
 72
     4
 94
        3
 73
     1
 74
     0
 95
        8
 96
        4
 40
0.3636363636363638
 40
0.3636363636363638
 40
0.3636363636363638
 40
0.3636363636363638
 40
0.454545454545455
 40
0.454545454545455
 40
0.454545454545455
 40
0.454545454545455
 10
6.534764499741589
 20
0.3720479824977097
 42
1.0
 10
6.534764499741589
 20
0.3033962714454405
 42
1.0
 10
6.537556785324358
 20
0.2722959871959578
 42
1.0
 10
6.561676355616938
 20
0.2292562749373761
 42
1.0
 72
     1
 10
6.561676355616938
 20
0.2292562749373761
 11
6.341663508836551
 21
0.2292562749373761
 72
     4
 94
        3
 73
     1
 74
     0
 95
        8
 96
        4
 40
0.5454545454545459
 40
0.5454545454545459
 40
0.5454545454545459
 40
0.5454545454545459
 40
0.6363636363636367
 40
0.6363636363636367
 40
0.6363636363636367
 40
0.6363636363636367
 10
6.341663508836551
 20
0.2292562749373761
 42
1.0
 10
6.330831366489585
 20
0.2548682737310811
 42
1.0
 10
6.326835509534935
 20
0.2722959871959578
 42
1.0
 10
6.325487509598418
 20
0.3369036984386817
 42
1.0
 72
     1
 10
6.325487509598418
 20
0.3369036984386817
 11
6.325487509598418
 21
0.7087591094959528
 72
     4
 94
        3
 73
     1
 74
     0
 95
        8
 96
        4
 40
0.7272727272727275
 40
0.7272727272727275
 40
0.7272727272727275
 40
0.7272727272727275
 40
0.8181818181818183
 40
0.8181818181818183
 40
0.8181818181818183
 40
0.8181818181818183
 10
6.325487509598418
 20
0.7087591094959528
 42
1.0
 10
6.326835509534935
 20
0.7476585362352515
 42
1.0
 10
6.328183509471452
 20
0.8133253902852305
 42
1.0
 10
6.216973514709368
 20
0.8133253902852305
 42
1.0
 72
     4
 94
        3
 73
     1
 74
     0
 95
        8
 96
        4
 40
0.8181818181818183
 40
0.8181818181818183
 40
0.8181818181818183
 40
0.8181818181818183
 40
0.9090909090909101
 40
0.9090909090909101
 40
0.9090909090909101
 40
0.9090909090909101
 10
6.216973514709368
 20
0.8133253902852305
 42
1.0
 10
6.194105658643565
 20
0.8133253902852305
 42
1.0
 10
6.098927234554962
 20
0.8105331047024598
 42
1.0
 10
6.096231234681961
 20
0.7222391088610395
 42
1.0
 72
     1
 10
6.096231234681961
 20
0.7222391088610395
 11
5.90577810079504
 21
0.7217576803123332
 72
     4
 94
        3
 73
     1
 74
     0
 95
        8
 96
        4
 40
0.0
 40
0.0
 40
0.0
 40
0.0
 40
0.0909090909090909
 40
0.0909090909090909
 40
0.0909090909090909
 40
0.0909090909090909
 10
5.90577810079504
 20
0.7217576803123332
 42
1.0
 10
5.916562100287135
 20
0.8884282438907687
 42
1.0
 10
6.027820237904089
 20
0.9743150969884391
 42
1.0
 10
6.216973514709368
 20
0.9743150969884391
 42
1.0
 72
     4
 94
        3
 73
     1
 74
     0
 95
        8
 96
        4
 40
0.0909090909090909
 40
0.0909090909090909
 40
0.0909090909090909
 40
0.0909090909090909
 40
0.1818181818181819
 40
0.1818181818181819
 40
0.1818181818181819
 40
0.1818181818181819
 10
6.216973514709368
 20
0.9743150969884391
 42
1.0
 10
6.294676082478175
 20
0.9743150969884391
 42
1.0
 10
6.376422650056563
 20
0.9635310974963767
 42
1.0
 10
6.439537932798185
 20
0.9178916710745259
 42
1.0
 97
        0
 75
     0
 76
     1
 98
        1
 10
0.0
 20
0.0
  0
HATCH
  5
161
330
A7
100
AcDbEntity
  8
0
  6
Continuous
 62
     1
100
AcDbHatch
 10
0.0
 20
0.0
 30
0.0
210
0.0
220
0.0
230
1.0
  2
SOLID
 70
     1
 71
     0
 91
        1
 92
        0
 93
       14
 72
     4
 94
        3
 73
     1
 74
     0
 95
        8
 96
        4
 40
0.3571428571428568
 40
0.3571428571428568
 40
0.3571428571428568
 40
0.3571428571428568
 40
0.4285714285714288
 40
0.4285714285714288
 40
0.4285714285714288
 40
0.4285714285714288
 10
6.816207629342965
 20
0.7666268210561421
 42
1.0
 10
6.816207629342965
 20
0.7304233941898415
 42
1.0
 10
6.84287877094389
 20
0.7224316802805587
 42
1.0
 10
6.905945910830614
 20
0.7051002525254022
 42
1.0
 72
     1
 10
6.905945910830614
 20
0.7051002525254022
 11
7.013545191477045
 21
0.6812213965071955
 72
     4
 94
        3
 73
     1
 74
     0
 95
        8
 96
        4
 40
0.5
 40
0.5
 40
0.5
 40
0.5
 40
0.5714285714285712
 40
0.5714285714285712
 40
0.5714285714285712
 40
0.5714285714285712
 10
7.013545191477045
 20
0.6812213965071955
 42
1.0
 10
7.106364615676735
 20
0.6597496832328347
 42
1.0
 10
7.262347465472876
 20
0.6262422562395846
 42
1.0
 10
7.262347465472876
 20
0.4510985502030203
 42
1.0
 72
     4
 94
        3
 73
     1
 74
     0
 95
        8
 96
        4
 40
0.5714285714285712
 40
0.5714285714285712
 40
0.5714285714285712
 40
0.5714285714285712
 40
0.6428571428571423
 40
0.6428571428571423
 40
0.6428571428571423
 40
0.6428571428571423
 10
7.262347465472876
 20
0.4510985502030203
 42
1.0
 10
7.262347465472876
 20
0.3601085544886193
 42
1.0
 10
7.216611753341323
 20
0.2862574151098207
 42
1.0
 10
7.125140329078137
 20
0.2446619884974802
 42
1.0
 72
     4
 94
        3
 73
     1
 74
     0
 95
        8
 96
        4
 40
0.6428571428571423
 40
0.6428571428571423
 40
0.6428571428571423
 40
0.6428571428571423
 40
0.7142857142857135
 40
0.7142857142857135
 40
0.7142857142857135
 40
0.7142857142857135
 10
7.125140329078137
 20
0.2446619884974802
 42
1.0
 10
7.052492761071198
 20
0.2111545615042651
 42
1.0
 10
6.974645764737764
 20
0.2098065615677268
 42
1.0
 10
6.943641766198019
 20
0.2098065615677268
 42
1.0
 72
     1
 10
6.943641766198019
 20
0.2098065615677268
 11
6.943641766198019
 21
0.3628045543616087
 72
     4
 94
        3
 73
     1
 74
     0
 95
        8
 96
        4
 40
0.7857142857142847
 40
0.7857142857142847
 40
0.7857142857142847
 40
0.7857142857142847
 40
0.8571428571428577
 40
0.8571428571428577
 40
0.8571428571428577
 40
0.8571428571428577
 10
6.943641766198019
 20
0.3628045543616087
 42
1.0
 10
6.971853479154984
 20
0.3640562685883831
 42
1.0
 10
7.051192903989574
 20
0.3707962682709178
 42
1.0
 10
7.051192903989574
 20
0.4322265510918936
 42
1.0
 72
     4
 94
        3
 73
     1
 74
     0
 95
        8
 96
        4
 40
0.8571428571428577
 40
0.8571428571428577
 40
0.8571428571428577
 40
0.8571428571428577
 40
0.9285714285714288
 40
0.9285714285714288
 40
0.9285714285714288
 40
0.9285714285714288
 10
7.051192903989574
 20
0.4322265510918936
 42
1.0
 10
7.051192903989574
 20
0.4764216918674595
 42
1.0
 10
7.005457191857955
 20
0.4898054055228172
 42
1.0
 10
6.958469765499632
 20
0.5019374049514267
 42
1.0
 72
     1
 10
6.958469765499632
 20
0.5019374049514267
 11
6.82285134331574
 21
0.535348546234904
 72
     4
 94
        3
 73
     1
 74
     0
 95
        8
 96
        4
 40
0.0
 40
0.0
 40
0.0
 40
0.0
 40
0.0714285714285714
 40
0.0714285714285714
 40
0.0714285714285714
 40
0.0714285714285714
 10
6.82285134331574
 20
0.535348546234904
 42
1.0
 10
6.739901204365499
 20
0.5579756880263015
 42
1.0
 10
6.618196067240602
 20
0.5914831150195777
 42
1.0
 10
6.618196067240602
 20
0.7465993934279875
 42
1.0
 72
     4
 94
        3
 73
     1
 74
     0
 95
        8
 96
        4
 40
0.0714285714285714
 40
0.0714285714285714
 40
0.0714285714285714
 40
0.0714285714285714
 40
0.1428571428571428
 40
0.1428571428571428
 40
0.1428571428571428
 40
0.1428571428571428
 10
6.618196067240602
 20
0.7465993934279875
 42
1.0
 10
6.618196067240602
 20
0.7839582488112549
 42
1.0
 10
6.624887924068294
 20
0.8428851031786818
 42
1.0
 10
6.671730921862004
 20
0.8937721007819354
 42
1.0
 72
     4
 94
        3
 73
     1
 74
     0
 95
        8
 96
        4
 40
0.1428571428571428
 40
0.1428571428571428
 40
0.1428571428571428
 40
0.1428571428571428
 40
0.2142857142857144
 40
0.2142857142857144
 40
0.2142857142857144
 40
0.2142857142857144
 10
6.671730921862004
 20
0.8937721007819354
 42
1.0
 10
6.742597204238528
 20
0.9688268115326002
 42
1.0
 10
6.845671056526685
 20
0.9741706684238106
 42
1.0
 10
6.905945910830614
 20
0.9781665253784826
 42
1.0
 72
     1
 10
6.905945910830614
 20
0.9781665253784826
 11
6.905945910830614
 21
0.826805389650326
 72
     4
 94
        3
 73
     1
 74
     0
 95
        8
 96
        4
 40
0.2857142857142856
 40
0.2857142857142856
 40
0.2857142857142856
 40
0.2857142857142856
 40
0.3571428571428568
 40
0.3571428571428568
 40
0.3571428571428568
 40
0.3571428571428568
 10
6.905945910830614
 20
0.826805389650326
 42
1.0
 10
6.861702627200165
 20
0.8241093897773104
 42
1.0
 10
6.816207629342965
 20
0.8120736760584562
 42
1.0
 10
6.816207629342965
 20
0.7666268210561421
 42
1.0
 97
        0
 75
     0
 76
     1
 98
        1
 10
0.0
 20
0.0
  0
INSERT
  5
162
330
A7
100
AcDbEntity
  8
0
  6
Continuous
 62
     7
100
AcDbBlockReference
  2
Block16_1
 10
0.0
 20
0.0310743831
 30
0.0
  0
ENDBLK
  5
A9
330
A7
100
AcDbEntity
  8
0
100
AcDbBlockEnd
  0
BLOCK
  5
175
330
174
100
AcDbEntity
  8
0
100
AcDbBlockBegin
  2
SW_NOTE_0
 70
     0
 10
0.0
 20
0.0
 30
0.0
  3
SW_NOTE_0
  1

  0
MTEXT
  5
177
330
174
100
AcDbEntity
  8
0
  6
Continuous
 62
     0
370
     0
100
AcDbMText
 10
0.0
 20
0.3222669349
 30
0.0
 40
0.25
 41
0.0
 71
     1
 72
     1
  1
L'INFORMATION CONTENUE DANS CE DESSIN EST LA PROPRIÉTÉ EXCLUSIVE DE PLASTICASE INC. TOUTE
  7
SLDTEXTSTYLE0
 73
     1
 44
1.0
  0
MTEXT
  5
178
330
174
100
AcDbEntity
  8
0
  6
Continuous
 62
     0
370
     0
100
AcDbMText
 10
0.0
 20
-0.0110663944
 30
0.0
 40
0.25
 41
0.0
 71
     1
 72
     1
  1
REPRODUCTION EN PARTIE OU COMPLÈTE N'EST PERMISESANS LE CONSENTEMENT ÉCRIT DE PLASTICASE INC.
  7
SLDTEXTSTYLE0
 73
     1
 44
1.0
  0
MTEXT
  5
179
330
174
100
AcDbEntity
  8
0
  6
Continuous
 62
     0
370
     0
100
AcDbMText
 10
0.0
 20
-0.3443997237
 30
0.0
 40
0.25
 41
0.0
 71
     1
 72
     1
  1
THE INFORMATION CONTAINED IN THIS DRAWING IS THE SOLE & EXCLUSIVE PROPERTY OF PLASTICASE INC.
  7
SLDTEXTSTYLE0
 73
     1
 44
1.0
  0
MTEXT
  5
17A
330
174
100
AcDbEntity
  8
0
  6
Continuous
 62
     0
370
     0
100
AcDbMText
 10
0.0
 20
-0.677733053
 30
0.0
 40
0.25
 41
0.0
 71
     1
 72
     1
  1
ANY REPRODUCTION IN PART OR WHOLE WITHOUT THE WRITTEN PERMISSION OF PLASTICASE INC. IS PROHIBITED.
  7
SLDTEXTSTYLE0
 73
     1
 44
1.0
  0
ENDBLK
  5
176
330
174
100
AcDbEntity
  8
0
100
AcDbBlockEnd
  0
BLOCK
  5
185
330
184
100
AcDbEntity
  8
0
100
AcDbBlockBegin
  2
SW_NOTE_1
 70
     0
 10
0.0
 20
0.0
 30
0.0
  3
SW_NOTE_1
  1

  0
MTEXT
  5
187
330
184
100
AcDbEntity
  8
LAYER1
 62
     0
100
AcDbMText
 10
0.0
 20
0.4296892466
 30
0.0
 40
0.3333333333
 41
0.0
 71
     1
 72
     1
  1
1059, boulevard des Entreprises Ouest
  7
SLDTEXTSTYLE0
 73
     1
 44
1.0
  0
MTEXT
  5
188
330
184
100
AcDbEntity
  8
LAYER1
 62
     0
100
AcDbMText
 10
0.0
 20
-0.0147551925
 30
0.0
 40
0.3333333333
 41
0.0
 71
     1
 72
     1
  1
Terrebonne, QC Canada J6Y 1V2
  7
SLDTEXTSTYLE0
 73
     1
 44
1.0
  0
MTEXT
  5
189
330
184
100
AcDbEntity
  8
LAYER1
 62
     0
100
AcDbMText
 10
0.0
 20
-0.4591996316
 30
0.0
 40
0.3333333333
 41
0.0
 71
     1
 72
     1
  1
Tel  450-628-1006 1.800.783.6883
  7
SLDTEXTSTYLE0
 73
     1
 44
1.0
  0
MTEXT
  5
18A
330
184
100
AcDbEntity
  8
LAYER1
 62
     0
100
AcDbMText
 10
0.0
 20
-0.9036440706
 30
0.0
 40
0.3333333333
 41
0.0
 71
     1
 72
     1
  1
Fax 450-628-7801 1.888.783.6883
  7
SLDTEXTSTYLE0
 73
     1
 44
1.0
  0
MTEXT
  5
18B
330
184
100
AcDbEntity
  8
LAYER1
 62
     0
100
AcDbMText
 10
0.0
 20
-1.3480885097
 30
0.0
 40
0.3333333333
 41
0.0
 71
     1
 72
     1
  1
www.plasticase.com
  7
SLDTEXTSTYLE0
 73
     1
 44
1.0
  0
ENDBLK
  5
186
330
184
100
AcDbEntity
  8
0
100
AcDbBlockEnd
  0
BLOCK
  5
18E
330
18D
100
AcDbEntity
  8
0
100
AcDbBlockBegin
  2
SW_NOTE_2
 70
     0
 10
0.0
 20
0.0
 30
0.0
  3
SW_NOTE_2
  1

  0
MTEXT
  5
190
330
18D
100
AcDbEntity
  8
LAYER1
 62
     0
100
AcDbMText
 10
0.0
 20
0.3222669349
 30
0.0
 40
0.25
 41
0.0
 71
     1
 72
     1
  1
DIMENSIONS EN POUCE [MILLIMETRES] SAUF SI INDIQUÉ
  7
SLDTEXTSTYLE0
 73
     1
 44
1.0
  0
MTEXT
  5
191
330
18D
100
AcDbEntity
  8
LAYER1
 62
     0
100
AcDbMText
 10
0.0
 20
-0.0110663944
 30
0.0
 40
0.25
 41
0.0
 71
     1
 72
     1
  1
DIMENSIONS ARE IN INCHES [MILLIMETERS] UNLESS OTHERWISE SPECIFIED
  7
SLDTEXTSTYLE0
 73
     1
 44
1.0
  0
ENDBLK
  5
18F
330
18D
100
AcDbEntity
  8
0
100
AcDbBlockEnd
  0
BLOCK
  5
1B7
330
1B6
100
AcDbEntity
  8
0
100
AcDbBlockBegin
  2
_D
 70
     0
 10
0.0
 20
0.0
 30
0.0
  3
_D
  1

  0
SOLID
  5
1B9
330
1B6
100
AcDbEntity
  8
DIMENSION
100
AcDbTrace
 10
11.4780377693
 20
24.6302444473
 30
0.0
 11
11.8113711026
 21
24.5789623961
 31
0.0
 12
11.8113711026
 22
24.6815264986
 32
0.0
 13
11.8113711026
 23
24.6815264986
 33
0.0
  0
SOLID
  5
1BA
330
1B6
100
AcDbEntity
  8
DIMENSION
100
AcDbTrace
 10
11.2637442706
 20
24.6302444473
 30
0.0
 11
10.9304109372
 21
24.6815264986
 31
0.0
 12
10.9304109372
 22
24.5789623961
 32
0.0
 13
10.9304109372
 23
24.5789623961
 33
0.0
  0
LINE
  5
1BB
330
1B6
100
AcDbEntity
  8
DIMENSION
100
AcDbLine
 10
8.0136969401
 20
24.6302444107
 30
0.0
 11
7.9123080497
 21
24.6302444107
 31
0.0
  0
LINE
  5
1BC
330
1B6
100
AcDbEntity
  8
DIMENSION
100
AcDbLine
 10
7.9123080497
 20
24.6302444107
 30
0.0
 11
7.9123080497
 21
24.1006147923
 31
0.0
  0
LINE
  5
1BD
330
1B6
100
AcDbEntity
  8
DIMENSION
100
AcDbLine
 10
7.9123080497
 20
24.1006147923
 30
0.0
 11
8.0136969401
 21
24.1006147923
 31
0.0
  0
LINE
  5
1BE
330
1B6
100
AcDbEntity
  8
DIMENSION
100
AcDbLine
 10
8.875425372
 20
24.6302444107
 30
0.0
 11
8.9768142624
 21
24.6302444107
 31
0.0
  0
LINE
  5
1BF
330
1B6
100
AcDbEntity
  8
DIMENSION
100
AcDbLine
 10
8.9768142624
 20
24.6302444107
 30
0.0
 11
8.9768142624
 21
24.1006147923
 31
0.0
  0
LINE
  5
1C0
330
1B6
100
AcDbEntity
  8
DIMENSION
100
AcDbLine
 10
8.9768142624
 20
24.1006147923
 30
0.0
 11
8.875425372
 21
24.1006147923
 31
0.0
  0
LINE
  5
1C1
330
1B6
100
AcDbEntity
  8
DIMENSION
100
AcDbLine
 10
11.4780377693
 20
22.154046811
 30
0.0
 11
11.4780377693
 21
25.1302444473
 31
0.0
  0
LINE
  5
1C2
330
1B6
100
AcDbEntity
  8
DIMENSION
100
AcDbLine
 10
11.2637442706
 20
23.4672559863
 30
0.0
 11
11.2637442706
 21
25.1302444473
 31
0.0
  0
LINE
  5
1C3
330
1B6
100
AcDbEntity
  8
DIMENSION
100
AcDbLine
 10
11.4780377693
 20
24.6302444473
 30
0.0
 11
12.1190634103
 21
24.6302444473
 31
0.0
  0
LINE
  5
1C4
330
1B6
100
AcDbEntity
  8
DIMENSION
100
AcDbLine
 10
11.2637442706
 20
24.6302444473
 30
0.0
 11
9.3914833618
 21
24.6302444473
 31
0.0
  0
MTEXT
  5
1C5
330
1B6
100
AcDbEntity
  8
DIMENSION
100
AcDbMText
 10
7.8152401507
 20
25.1275262448
 30
0.0
 40
0.3333333333
 41
0.0
 71
     1
 72
     1
  1

  7
SLDTEXTSTYLE1
 73
     1
 44
1.0
  0
MTEXT
  5
1C6
330
1B6
100
AcDbEntity
  8
DIMENSION
100
AcDbMText
 10
8.0136969034
 20
25.1275262448
 30
0.0
 40
0.3333333333
 41
0.0
 71
     1
 72
     1
  1
.214
  7
SLDTEXTSTYLE1
 73
     1
 44
1.0
  0
MTEXT
  5
1C7
330
1B6
100
AcDbEntity
  8
DIMENSION
100
AcDbMText
 10
8.0136969401
 20
24.5303040206
 30
0.0
 40
0.3333333333
 41
0.0
 71
     1
 72
     1
  1
5.44
  7
SLDTEXTSTYLE1
 73
     1
 44
1.0
  0
MTEXT
  5
1C8
330
1B6
100
AcDbEntity
  8
DIMENSION
100
AcDbMText
 10
9.3282031528
 20
25.1275262448
 30
0.0
 40
0.3333333333
 41
0.0
 71
     1
 72
     1
  1

  7
SLDTEXTSTYLE1
 73
     1
 44
1.0
  0
ENDBLK
  5
1B8
330
1B6
100
AcDbEntity
  8
0
100
AcDbBlockEnd
  0
BLOCK
  5
1CC
330
1CB
100
AcDbEntity
  8
0
100
AcDbBlockBegin
  2
_D_1
 70
     0
 10
0.0
 20
0.0
 30
0.0
  3
_D_1
  1

  0
SOLID
  5
1CE
330
1CB
100
AcDbEntity
  8
DIMENSION
100
AcDbTrace
 10
11.2637442706
 20
27.3348621848
 30
0.0
 11
11.5970776039
 21
27.2835801335
 31
0.0
 12
11.5970776039
 22
27.386144236
 32
0.0
 13
11.5970776039
 23
27.386144236
 33
0.0
  0
SOLID
  5
1CF
330
1CB
100
AcDbEntity
  8
DIMENSION
100
AcDbTrace
 10
28.6885646065
 20
27.3348621848
 30
0.0
 11
28.3552312732
 21
27.386144236
 31
0.0
 12
28.3552312732
 22
27.2835801335
 32
0.0
 13
28.3552312732
 23
27.2835801335
 33
0.0
  0
LINE
  5
1D0
330
1CB
100
AcDbEntity
  8
DIMENSION
100
AcDbLine
 10
18.8669482405
 20
27.3348621481
 30
0.0
 11
18.7655593501
 21
27.3348621481
 31
0.0
  0
LINE
  5
1D1
330
1CB
100
AcDbEntity
  8
DIMENSION
100
AcDbLine
 10
18.7655593501
 20
27.3348621481
 30
0.0
 11
18.7655593501
 21
26.8052325298
 31
0.0
  0
LINE
  5
1D2
330
1CB
100
AcDbEntity
  8
DIMENSION
100
AcDbLine
 10
18.7655593501
 20
26.8052325298
 30
0.0
 11
18.8669482405
 21
26.8052325298
 31
0.0
  0
LINE
  5
1D3
330
1CB
100
AcDbEntity
  8
DIMENSION
100
AcDbLine
 10
20.2212693152
 20
27.3348621481
 30
0.0
 11
20.3226582057
 21
27.3348621481
 31
0.0
  0
LINE
  5
1D4
330
1CB
100
AcDbEntity
  8
DIMENSION
100
AcDbLine
 10
20.3226582057
 20
27.3348621481
 30
0.0
 11
20.3226582057
 21
26.8052325298
 31
0.0
  0
LINE
  5
1D5
330
1CB
100
AcDbEntity
  8
DIMENSION
100
AcDbLine
 10
20.3226582057
 20
26.8052325298
 30
0.0
 11
20.2212693152
 21
26.8052325298
 31
0.0
  0
LINE
  5
1D6
330
1CB
100
AcDbEntity
  8
DIMENSION
100
AcDbLine
 10
11.2637442706
 20
23.4672559863
 30
0.0
 11
11.2637442706
 21
27.8348621848
 31
0.0
  0
LINE
  5
1D7
330
1CB
100
AcDbEntity
  8
DIMENSION
100
AcDbLine
 10
28.6885646065
 20
23.4672559863
 30
0.0
 11
28.6885646065
 21
27.8348621848
 31
0.0
  0
LINE
  5
1D8
330
1CB
100
AcDbEntity
  8
DIMENSION
100
AcDbLine
 10
11.2637442706
 20
27.3348621848
 30
0.0
 11
18.350890324
 21
27.3348621848
 31
0.0
  0
LINE
  5
1D9
330
1CB
100
AcDbEntity
  8
DIMENSION
100
AcDbLine
 10
28.6885646065
 20
27.3348621848
 30
0.0
 11
20.7373271583
 21
27.3348621848
 31
0.0
  0
MTEXT
  5
1DA
330
1CB
100
AcDbEntity
  8
DIMENSION
100
AcDbMText
 10
18.6684914511
 20
27.8321439822
 30
0.0
 40
0.3333333333
 41
0.0
 71
     1
 72
     1
  1

  7
SLDTEXTSTYLE1
 73
     1
 44
1.0
  0
MTEXT
  5
1DB
330
1CB
100
AcDbEntity
  8
DIMENSION
100
AcDbMText
 10
18.8669482038
 20
27.8321439822
 30
0.0
 40
0.3333333333
 41
0.0
 71
     1
 72
     1
  1
17.425
  7
SLDTEXTSTYLE1
 73
     1
 44
1.0
  0
MTEXT
  5
1DC
330
1CB
100
AcDbEntity
  8
DIMENSION
100
AcDbMText
 10
18.8669482405
 20
27.234921758
 30
0.0
 40
0.3333333333
 41
0.0
 71
     1
 72
     1
  1
442.59
  7
SLDTEXTSTYLE1
 73
     1
 44
1.0
  0
MTEXT
  5
1DD
330
1CB
100
AcDbEntity
  8
DIMENSION
100
AcDbMText
 10
20.6740469494
 20
27.8321439822
 30
0.0
 40
0.3333333333
 41
0.0
 71
     1
 72
     1
  1

  7
SLDTEXTSTYLE1
 73
     1
 44
1.0
  0
ENDBLK
  5
1CD
330
1CB
100
AcDbEntity
  8
0
100
AcDbBlockEnd
  0
BLOCK
  5
1E0
330
1DF
100
AcDbEntity
  8
0
100
AcDbBlockBegin
  2
_D_2
 70
     0
 10
0.0
 20
0.0
 30
0.0
  3
_D_2
  1

  0
SOLID
  5
1E2
330
1DF
100
AcDbEntity
  8
DIMENSION
100
AcDbTrace
 10
11.2637442706
 20
25.7580753603
 30
0.0
 11
11.5970776039
 21
25.706793309
 31
0.0
 12
11.5970776039
 22
25.8093574116
 32
0.0
 13
11.5970776039
 23
25.8093574116
 33
0.0
  0
SOLID
  5
1E3
330
1DF
100
AcDbEntity
  8
DIMENSION
100
AcDbTrace
 10
28.4742711078
 20
25.7580753603
 30
0.0
 11
28.1409377745
 21
25.8093574116
 31
0.0
 12
28.1409377745
 22
25.706793309
 32
0.0
 13
28.1409377745
 23
25.706793309
 33
0.0
  0
LINE
  5
1E4
330
1DF
100
AcDbEntity
  8
DIMENSION
100
AcDbLine
 10
18.8669482405
 20
25.7580753236
 30
0.0
 11
18.7655593501
 21
25.7580753236
 31
0.0
  0
LINE
  5
1E5
330
1DF
100
AcDbEntity
  8
DIMENSION
100
AcDbLine
 10
18.7655593501
 20
25.7580753236
 30
0.0
 11
18.7655593501
 21
25.2284457053
 31
0.0
  0
LINE
  5
1E6
330
1DF
100
AcDbEntity
  8
DIMENSION
100
AcDbLine
 10
18.7655593501
 20
25.2284457053
 30
0.0
 11
18.8669482405
 21
25.2284457053
 31
0.0
  0
LINE
  5
1E7
330
1DF
100
AcDbEntity
  8
DIMENSION
100
AcDbLine
 10
20.2212693152
 20
25.7580753236
 30
0.0
 11
20.3226582057
 21
25.7580753236
 31
0.0
  0
LINE
  5
1E8
330
1DF
100
AcDbEntity
  8
DIMENSION
100
AcDbLine
 10
20.3226582057
 20
25.7580753236
 30
0.0
 11
20.3226582057
 21
25.2284457053
 31
0.0
  0
LINE
  5
1E9
330
1DF
100
AcDbEntity
  8
DIMENSION
100
AcDbLine
 10
20.3226582057
 20
25.2284457053
 30
0.0
 11
20.2212693152
 21
25.2284457053
 31
0.0
  0
LINE
  5
1EA
330
1DF
100
AcDbEntity
  8
DIMENSION
100
AcDbLine
 10
11.2637442706
 20
23.4672559863
 30
0.0
 11
11.2637442706
 21
26.2580753603
 31
0.0
  0
LINE
  5
1EB
330
1DF
100
AcDbEntity
  8
DIMENSION
100
AcDbLine
 10
28.4742711078
 20
22.154046811
 30
0.0
 11
28.4742711078
 21
26.2580753603
 31
0.0
  0
LINE
  5
1EC
330
1DF
100
AcDbEntity
  8
DIMENSION
100
AcDbLine
 10
11.2637442706
 20
25.7580753603
 30
0.0
 11
18.350890324
 21
25.7580753603
 31
0.0
  0
LINE
  5
1ED
330
1DF
100
AcDbEntity
  8
DIMENSION
100
AcDbLine
 10
28.4742711078
 20
25.7580753603
 30
0.0
 11
20.7373271583
 21
25.7580753603
 31
0.0
  0
MTEXT
  5
1EE
330
1DF
100
AcDbEntity
  8
DIMENSION
100
AcDbMText
 10
18.6684914511
 20
26.2553571577
 30
0.0
 40
0.3333333333
 41
0.0
 71
     1
 72
     1
  1

  7
SLDTEXTSTYLE1
 73
     1
 44
1.0
  0
MTEXT
  5
1EF
330
1DF
100
AcDbEntity
  8
DIMENSION
100
AcDbMText
 10
18.8669482038
 20
26.2553571577
 30
0.0
 40
0.3333333333
 41
0.0
 71
     1
 72
     1
  1
17.211
  7
SLDTEXTSTYLE1
 73
     1
 44
1.0
  0
MTEXT
  5
1F0
330
1DF
100
AcDbEntity
  8
DIMENSION
100
AcDbMText
 10
18.8669482405
 20
25.6581349336
 30
0.0
 40
0.3333333333
 41
0.0
 71
     1
 72
     1
  1
437.15
  7
SLDTEXTSTYLE1
 73
     1
 44
1.0
  0
MTEXT
  5
1F1
330
1DF
100
AcDbEntity
  8
DIMENSION
100
AcDbMText
 10
20.6740469494
 20
26.2553571577
 30
0.0
 40
0.3333333333
 41
0.0
 71
     1
 72
     1
  1

  7
SLDTEXTSTYLE1
 73
     1
 44
1.0
  0
ENDBLK
  5
1E1
330
1DF
100
AcDbEntity
  8
0
100
AcDbBlockEnd
  0
BLOCK
  5
1F4
330
1F3
100
AcDbEntity
  8
0
100
AcDbBlockBegin
  2
_D_3
 70
     0
 10
0.0
 20
0.0
 30
0.0
  3
_D_3
  1

  0
SOLID
  5
1F6
330
1F3
100
AcDbEntity
  8
DIMENSION
100
AcDbTrace
 10
35.2972273058
 20
24.1832722107
 30
0.0
 11
35.2459452545
 21
23.8499388774
 31
0.0
 12
35.3485093571
 22
23.8499388774
 32
0.0
 13
35.3485093571
 23
23.8499388774
 33
0.0
  0
SOLID
  5
1F7
330
1F3
100
AcDbEntity
  8
DIMENSION
100
AcDbTrace
 10
35.2972273058
 20
12.0083518747
 30
0.0
 11
35.3485093571
 21
12.3416852081
 31
0.0
 12
35.2459452545
 22
12.3416852081
 32
0.0
 13
35.2459452545
 23
12.3416852081
 33
0.0
  0
LINE
  5
1F8
330
1F3
100
AcDbEntity
  8
DIMENSION
100
AcDbLine
 10
34.6200668051
 20
18.1463502982
 30
0.0
 11
34.5186779147
 21
18.1463502982
 31
0.0
  0
LINE
  5
1F9
330
1F3
100
AcDbEntity
  8
DIMENSION
100
AcDbLine
 10
34.5186779147
 20
18.1463502982
 30
0.0
 11
34.5186779147
 21
17.6167206799
 31
0.0
  0
LINE
  5
1FA
330
1F3
100
AcDbEntity
  8
DIMENSION
100
AcDbLine
 10
34.5186779147
 20
17.6167206799
 30
0.0
 11
34.6200668051
 21
17.6167206799
 31
0.0
  0
LINE
  5
1FB
330
1F3
100
AcDbEntity
  8
DIMENSION
100
AcDbLine
 10
35.9743878798
 20
18.1463502982
 30
0.0
 11
36.0757767703
 21
18.1463502982
 31
0.0
  0
LINE
  5
1FC
330
1F3
100
AcDbEntity
  8
DIMENSION
100
AcDbLine
 10
36.0757767703
 20
18.1463502982
 30
0.0
 11
36.0757767703
 21
17.6167206799
 31
0.0
  0
LINE
  5
1FD
330
1F3
100
AcDbEntity
  8
DIMENSION
100
AcDbLine
 10
36.0757767703
 20
17.6167206799
 30
0.0
 11
35.9743878798
 21
17.6167206799
 31
0.0
  0
LINE
  5
1FE
330
1F3
100
AcDbEntity
  8
DIMENSION
100
AcDbLine
 10
27.9725483821
 20
24.1832722107
 30
0.0
 11
35.7972273058
 21
24.1832722107
 31
0.0
  0
LINE
  5
1FF
330
1F3
100
AcDbEntity
  8
DIMENSION
100
AcDbLine
 10
27.9725483822
 20
12.0083518747
 30
0.0
 11
35.7972273058
 21
12.0083518747
 31
0.0
  0
LINE
  5
200
330
1F3
100
AcDbEntity
  8
DIMENSION
100
AcDbLine
 10
35.2972273058
 20
24.1832722107
 30
0.0
 11
35.2972273058
 21
18.7435725224
 31
0.0
  0
LINE
  5
201
330
1F3
100
AcDbEntity
  8
DIMENSION
100
AcDbLine
 10
35.2972273058
 20
12.0083518747
 30
0.0
 11
35.2972273058
 21
17.5491281474
 31
0.0
  0
MTEXT
  5
202
330
1F3
100
AcDbEntity
  8
DIMENSION
100
AcDbMText
 10
34.4216100157
 20
18.6436321323
 30
0.0
 40
0.3333333333
 41
0.0
 71
     1
 72
     1
  1

  7
SLDTEXTSTYLE1
 73
     1
 44
1.0
  0
MTEXT
  5
203
330
1F3
100
AcDbEntity
  8
DIMENSION
100
AcDbMText
 10
34.6200667684
 20
18.6436321323
 30
0.0
 40
0.3333333333
 41
0.0
 71
     1
 72
     1
  1
12.175
  7
SLDTEXTSTYLE1
 73
     1
 44
1.0
  0
MTEXT
  5
204
330
1F3
100
AcDbEntity
  8
DIMENSION
100
AcDbMText
 10
34.6200668051
 20
18.0464099081
 30
0.0
 40
0.3333333333
 41
0.0
 71
     1
 72
     1
  1
309.24
  7
SLDTEXTSTYLE1
 73
     1
 44
1.0
  0
MTEXT
  5
205
330
1F3
100
AcDbEntity
  8
DIMENSION
100
AcDbMText
 10
36.427165514
 20
18.6436321323
 30
0.0
 40
0.3333333333
 41
0.0
 71
     1
 72
     1
  1

  7
SLDTEXTSTYLE1
 73
     1
 44
1.0
  0
ENDBLK
  5
1F5
330
1F3
100
AcDbEntity
  8
0
100
AcDbBlockEnd
  0
BLOCK
  5
208
330
207
100
AcDbEntity
  8
0
100
AcDbBlockBegin
  2
_D_4
 70
     0
 10
0.0
 20
0.0
 30
0.0
  3
_D_4
  1

  0
SOLID
  5
20A
330
207
100
AcDbEntity
  8
DIMENSION
100
AcDbTrace
 10
32.8537145802
 20
23.968978712
 30
0.0
 11
32.8024325289
 21
23.6356453787
 31
0.0
 12
32.9049966315
 22
23.6356453787
 32
0.0
 13
32.9049966315
 23
23.6356453787
 33
0.0
  0
SOLID
  5
20B
330
207
100
AcDbEntity
  8
DIMENSION
100
AcDbTrace
 10
32.8537145802
 20
12.0083518747
 30
0.0
 11
32.9049966315
 21
12.3416852081
 31
0.0
 12
32.8024325289
 22
12.3416852081
 32
0.0
 13
32.8024325289
 23
12.3416852081
 33
0.0
  0
LINE
  5
20C
330
207
100
AcDbEntity
  8
DIMENSION
100
AcDbLine
 10
32.1765540795
 20
18.1463502982
 30
0.0
 11
32.0751651891
 21
18.1463502982
 31
0.0
  0
LINE
  5
20D
330
207
100
AcDbEntity
  8
DIMENSION
100
AcDbLine
 10
32.0751651891
 20
18.1463502982
 30
0.0
 11
32.0751651891
 21
17.6167206799
 31
0.0
  0
LINE
  5
20E
330
207
100
AcDbEntity
  8
DIMENSION
100
AcDbLine
 10
32.0751651891
 20
17.6167206799
 30
0.0
 11
32.1765540795
 21
17.6167206799
 31
0.0
  0
LINE
  5
20F
330
207
100
AcDbEntity
  8
DIMENSION
100
AcDbLine
 10
33.5308751543
 20
18.1463502982
 30
0.0
 11
33.6322640447
 21
18.1463502982
 31
0.0
  0
LINE
  5
210
330
207
100
AcDbEntity
  8
DIMENSION
100
AcDbLine
 10
33.6322640447
 20
18.1463502982
 30
0.0
 11
33.6322640447
 21
17.6167206799
 31
0.0
  0
LINE
  5
211
330
207
100
AcDbEntity
  8
DIMENSION
100
AcDbLine
 10
33.6322640447
 20
17.6167206799
 30
0.0
 11
33.5308751543
 21
17.6167206799
 31
0.0
  0
LINE
  5
212
330
207
100
AcDbEntity
  8
DIMENSION
100
AcDbLine
 10
26.9158476583
 20
23.968978712
 30
0.0
 11
33.3537145802
 21
23.968978712
 31
0.0
  0
LINE
  5
213
330
207
100
AcDbEntity
  8
DIMENSION
100
AcDbLine
 10
27.9725483822
 20
12.0083518747
 30
0.0
 11
33.3537145802
 21
12.0083518747
 31
0.0
  0
LINE
  5
214
330
207
100
AcDbEntity
  8
DIMENSION
100
AcDbLine
 10
32.8537145802
 20
23.968978712
 30
0.0
 11
32.8537145802
 21
18.7435725224
 31
0.0
  0
LINE
  5
215
330
207
100
AcDbEntity
  8
DIMENSION
100
AcDbLine
 10
32.8537145802
 20
12.0083518747
 30
0.0
 11
32.8537145802
 21
17.5491281474
 31
0.0
  0
MTEXT
  5
216
330
207
100
AcDbEntity
  8
DIMENSION
100
AcDbMText
 10
31.9780972901
 20
18.6436321323
 30
0.0
 40
0.3333333333
 41
0.0
 71
     1
 72
     1
  1

  7
SLDTEXTSTYLE1
 73
     1
 44
1.0
  0
MTEXT
  5
217
330
207
100
AcDbEntity
  8
DIMENSION
100
AcDbMText
 10
32.1765540428
 20
18.6436321323
 30
0.0
 40
0.3333333333
 41
0.0
 71
     1
 72
     1
  1
11.961
  7
SLDTEXTSTYLE1
 73
     1
 44
1.0
  0
MTEXT
  5
218
330
207
100
AcDbEntity
  8
DIMENSION
100
AcDbMText
 10
32.1765540795
 20
18.0464099081
 30
0.0
 40
0.3333333333
 41
0.0
 71
     1
 72
     1
  1
303.80
  7
SLDTEXTSTYLE1
 73
     1
 44
1.0
  0
MTEXT
  5
219
330
207
100
AcDbEntity
  8
DIMENSION
100
AcDbMText
 10
33.9836527884
 20
18.6436321323
 30
0.0
 40
0.3333333333
 41
0.0
 71
     1
 72
     1
  1

  7
SLDTEXTSTYLE1
 73
     1
 44
1.0
  0
ENDBLK
  5
209
330
207
100
AcDbEntity
  8
0
100
AcDbBlockEnd
  0
BLOCK
  5
21C
330
21B
100
AcDbEntity
  8
0
100
AcDbBlockBegin
  2
_D_5
 70
     0
 10
0.0
 20
0.0
 30
0.0
  3
_D_5
  1

  0
SOLID
  5
21E
330
21B
100
AcDbEntity
  8
DIMENSION
100
AcDbTrace
 10
29.737010079
 20
12.2226453734
 30
0.0
 11
29.7882921303
 21
12.5559787068
 31
0.0
 12
29.6857280278
 22
12.5559787068
 32
0.0
 13
29.6857280278
 23
12.5559787068
 33
0.0
  0
SOLID
  5
21F
330
21B
100
AcDbEntity
  8
DIMENSION
100
AcDbTrace
 10
29.737010079
 20
12.0083518747
 30
0.0
 11
29.6857280278
 21
11.6750185414
 31
0.0
 12
29.7882921303
 22
11.6750185414
 32
0.0
 13
29.7882921303
 23
11.6750185414
 33
0.0
  0
LINE
  5
220
330
21B
100
AcDbEntity
  8
DIMENSION
100
AcDbLine
 10
31.3882702496
 20
10.4335486885
 30
0.0
 11
31.2868813592
 21
10.4335486885
 31
0.0
  0
LINE
  5
221
330
21B
100
AcDbEntity
  8
DIMENSION
100
AcDbLine
 10
31.2868813592
 20
10.4335486885
 30
0.0
 11
31.2868813592
 21
9.9039190701
 31
0.0
  0
LINE
  5
222
330
21B
100
AcDbEntity
  8
DIMENSION
100
AcDbLine
 10
31.2868813592
 20
9.9039190701
 30
0.0
 11
31.3882702496
 21
9.9039190701
 31
0.0
  0
LINE
  5
223
330
21B
100
AcDbEntity
  8
DIMENSION
100
AcDbLine
 10
32.2499986815
 20
10.4335486885
 30
0.0
 11
32.3513875719
 21
10.4335486885
 31
0.0
  0
LINE
  5
224
330
21B
100
AcDbEntity
  8
DIMENSION
100
AcDbLine
 10
32.3513875719
 20
10.4335486885
 30
0.0
 11
32.3513875719
 21
9.9039190701
 31
0.0
  0
LINE
  5
225
330
21B
100
AcDbEntity
  8
DIMENSION
100
AcDbLine
 10
32.3513875719
 20
9.9039190701
 30
0.0
 11
32.2499986815
 21
9.9039190701
 31
0.0
  0
LINE
  5
226
330
21B
100
AcDbEntity
  8
DIMENSION
100
AcDbLine
 10
26.9158476583
 20
12.2226453734
 30
0.0
 11
30.237010079
 21
12.2226453734
 31
0.0
  0
LINE
  5
227
330
21B
100
AcDbEntity
  8
DIMENSION
100
AcDbLine
 10
27.9725483822
 20
12.0083518747
 30
0.0
 11
30.237010079
 21
12.0083518747
 31
0.0
  0
LINE
  5
228
330
21B
100
AcDbEntity
  8
DIMENSION
100
AcDbLine
 10
30.737010079
 20
10.4335487251
 30
0.0
 11
29.737010079
 21
10.4335487251
 31
0.0
  0
LINE
  5
229
330
21B
100
AcDbEntity
  8
DIMENSION
100
AcDbLine
 10
29.737010079
 20
10.4335487251
 30
0.0
 11
29.737010079
 21
12.0083518747
 31
0.0
  0
LINE
  5
22A
330
21B
100
AcDbEntity
  8
DIMENSION
100
AcDbLine
 10
29.737010079
 20
12.2226453734
 30
0.0
 11
29.737010079
 21
12.8636710145
 31
0.0
  0
MTEXT
  5
22B
330
21B
100
AcDbEntity
  8
DIMENSION
100
AcDbMText
 10
31.1898134602
 20
10.9308305225
 30
0.0
 40
0.3333333333
 41
0.0
 71
     1
 72
     1
  1

  7
SLDTEXTSTYLE1
 73
     1
 44
1.0
  0
MTEXT
  5
22C
330
21B
100
AcDbEntity
  8
DIMENSION
100
AcDbMText
 10
31.3882702129
 20
10.9308305225
 30
0.0
 40
0.3333333333
 41
0.0
 71
     1
 72
     1
  1
.214
  7
SLDTEXTSTYLE1
 73
     1
 44
1.0
  0
MTEXT
  5
22D
330
21B
100
AcDbEntity
  8
DIMENSION
100
AcDbMText
 10
31.3882702496
 20
10.3336082984
 30
0.0
 40
0.3333333333
 41
0.0
 71
     1
 72
     1
  1
5.44
  7
SLDTEXTSTYLE1
 73
     1
 44
1.0
  0
MTEXT
  5
22E
330
21B
100
AcDbEntity
  8
DIMENSION
100
AcDbMText
 10
32.7027764623
 20
10.9308305225
 30
0.0
 40
0.3333333333
 41
0.0
 71
     1
 72
     1
  1

  7
SLDTEXTSTYLE1
 73
     1
 44
1.0
  0
ENDBLK
  5
21D
330
21B
100
AcDbEntity
  8
0
100
AcDbBlockEnd
  0
BLOCK
  5
231
330
230
100
AcDbEntity
  8
0
100
AcDbBlockBegin
  2
_D_6
 70
     0
 10
0.0
 20
0.0
 30
0.0
  3
_D_6
  1

  0
SOLID
  5
233
330
230
100
AcDbEntity
  8
DIMENSION
100
AcDbTrace
 10
9.6889411209
 20
12.0083518747
 30
0.0
 11
9.6376590697
 21
11.6750185414
 31
0.0
 12
9.7402231722
 22
11.6750185414
 32
0.0
 13
9.7402231722
 23
11.6750185414
 33
0.0
  0
SOLID
  5
234
330
230
100
AcDbEntity
  8
DIMENSION
100
AcDbTrace
 10
9.6889411209
 20
14.0500522098
 30
0.0
 11
9.7402231722
 21
14.3833855432
 31
0.0
 12
9.6376590697
 22
14.3833855432
 32
0.0
 13
9.6376590697
 23
14.3833855432
 33
0.0
  0
LINE
  5
235
330
230
100
AcDbEntity
  8
DIMENSION
100
AcDbLine
 10
9.1349287443
 20
13.0879413945
 30
0.0
 11
9.0335398539
 21
13.0879413945
 31
0.0
  0
LINE
  5
236
330
230
100
AcDbEntity
  8
DIMENSION
100
AcDbLine
 10
9.0335398539
 20
13.0879413945
 30
0.0
 11
9.0335398539
 21
12.5583117762
 31
0.0
  0
LINE
  5
237
330
230
100
AcDbEntity
  8
DIMENSION
100
AcDbLine
 10
9.0335398539
 20
12.5583117762
 30
0.0
 11
9.1349287443
 21
12.5583117762
 31
0.0
  0
LINE
  5
238
330
230
100
AcDbEntity
  8
DIMENSION
100
AcDbLine
 10
10.2429534976
 20
13.0879413945
 30
0.0
 11
10.344342388
 21
13.0879413945
 31
0.0
  0
LINE
  5
239
330
230
100
AcDbEntity
  8
DIMENSION
100
AcDbLine
 10
10.344342388
 20
13.0879413945
 30
0.0
 11
10.344342388
 21
12.5583117762
 31
0.0
  0
LINE
  5
23A
330
230
100
AcDbEntity
  8
DIMENSION
100
AcDbLine
 10
10.344342388
 20
12.5583117762
 30
0.0
 11
10.2429534976
 21
12.5583117762
 31
0.0
  0
LINE
  5
23B
330
230
100
AcDbEntity
  8
DIMENSION
100
AcDbLine
 10
11.9797604949
 20
12.0083518747
 30
0.0
 11
9.1889411209
 21
12.0083518747
 31
0.0
  0
LINE
  5
23C
330
230
100
AcDbEntity
  8
DIMENSION
100
AcDbLine
 10
11.2780377693
 20
14.0500522098
 30
0.0
 11
9.1889411209
 21
14.0500522098
 31
0.0
  0
LINE
  5
23D
330
230
100
AcDbEntity
  8
DIMENSION
100
AcDbLine
 10
9.6889411209
 20
12.0083518747
 30
0.0
 11
9.6889411209
 21
11.3673262337
 31
0.0
  0
LINE
  5
23E
330
230
100
AcDbEntity
  8
DIMENSION
100
AcDbLine
 10
9.6889411209
 20
14.0500522098
 30
0.0
 11
9.6889411209
 21
14.6910778509
 31
0.0
  0
MTEXT
  5
23F
330
230
100
AcDbEntity
  8
DIMENSION
100
AcDbMText
 10
8.9364719549
 20
13.5852232286
 30
0.0
 40
0.3333333333
 41
0.0
 71
     1
 72
     1
  1

  7
SLDTEXTSTYLE1
 73
     1
 44
1.0
  0
MTEXT
  5
240
330
230
100
AcDbEntity
  8
DIMENSION
100
AcDbMText
 10
9.1349287443
 20
13.5852232286
 30
0.0
 40
0.3333333333
 41
0.0
 71
     1
 72
     1
  1
2.042
  7
SLDTEXTSTYLE1
 73
     1
 44
1.0
  0
MTEXT
  5
241
330
230
100
AcDbEntity
  8
DIMENSION
100
AcDbMText
 10
9.1349287443
 20
12.9880010044
 30
0.0
 40
0.3333333333
 41
0.0
 71
     1
 72
     1
  1
51.86
  7
SLDTEXTSTYLE1
 73
     1
 44
1.0
  0
MTEXT
  5
242
330
230
100
AcDbEntity
  8
DIMENSION
100
AcDbMText
 10
10.6957312051
 20
13.5852232286
 30
0.0
 40
0.3333333333
 41
0.0
 71
     1
 72
     1
  1

  7
SLDTEXTSTYLE1
 73
     1
 44
1.0
  0
ENDBLK
  5
232
330
230
100
AcDbEntity
  8
0
100
AcDbBlockEnd
  0
BLOCK
  5
245
330
244
100
AcDbEntity
  8
0
100
AcDbBlockBegin
  2
_D_7
 70
     0
 10
0.0
 20
0.0
 30
0.0
  3
_D_7
  1

  0
SOLID
  5
247
330
244
100
AcDbEntity
  8
DIMENSION
100
AcDbTrace
 10
7.3012174909
 20
12.0083518747
 30
0.0
 11
7.3524995422
 21
12.3416852081
 31
0.0
 12
7.2499354396
 22
12.3416852081
 32
0.0
 13
7.2499354396
 23
12.3416852081
 33
0.0
  0
SOLID
  5
248
330
244
100
AcDbEntity
  8
DIMENSION
100
AcDbTrace
 10
7.3012174909
 20
18.0958120427
 30
0.0
 11
7.2499354396
 21
17.7624787094
 31
0.0
 12
7.3524995422
 22
17.7624787094
 32
0.0
 13
7.3524995422
 23
17.7624787094
 33
0.0
  0
LINE
  5
249
330
244
100
AcDbEntity
  8
DIMENSION
100
AcDbLine
 10
6.6240569902
 20
15.7328099589
 30
0.0
 11
6.5226680998
 21
15.7328099589
 31
0.0
  0
LINE
  5
24A
330
244
100
AcDbEntity
  8
DIMENSION
100
AcDbLine
 10
6.5226680998
 20
15.7328099589
 30
0.0
 11
6.5226680998
 21
15.2031803406
 31
0.0
  0
LINE
  5
24B
330
244
100
AcDbEntity
  8
DIMENSION
100
AcDbLine
 10
6.5226680998
 20
15.2031803406
 30
0.0
 11
6.6240569902
 21
15.2031803406
 31
0.0
  0
LINE
  5
24C
330
244
100
AcDbEntity
  8
DIMENSION
100
AcDbLine
 10
7.978378065
 20
15.7328099589
 30
0.0
 11
8.0797669554
 21
15.7328099589
 31
0.0
  0
LINE
  5
24D
330
244
100
AcDbEntity
  8
DIMENSION
100
AcDbLine
 10
8.0797669554
 20
15.7328099589
 30
0.0
 11
8.0797669554
 21
15.2031803406
 31
0.0
  0
LINE
  5
24E
330
244
100
AcDbEntity
  8
DIMENSION
100
AcDbLine
 10
8.0797669554
 20
15.2031803406
 30
0.0
 11
7.978378065
 21
15.2031803406
 31
0.0
  0
LINE
  5
24F
330
244
100
AcDbEntity
  8
DIMENSION
100
AcDbLine
 10
11.9797604949
 20
12.0083518747
 30
0.0
 11
6.8012174909
 21
12.0083518747
 31
0.0
  0
LINE
  5
250
330
244
100
AcDbEntity
  8
DIMENSION
100
AcDbLine
 10
11.2780377693
 20
18.0958120427
 30
0.0
 11
6.8012174909
 21
18.0958120427
 31
0.0
  0
LINE
  5
251
330
244
100
AcDbEntity
  8
DIMENSION
100
AcDbLine
 10
7.3012174909
 20
12.0083518747
 30
0.0
 11
7.3012174909
 21
15.1355878081
 31
0.0
  0
LINE
  5
252
330
244
100
AcDbEntity
  8
DIMENSION
100
AcDbLine
 10
7.3012174909
 20
18.0958120427
 30
0.0
 11
7.3012174909
 21
16.3300321831
 31
0.0
  0
MTEXT
  5
253
330
244
100
AcDbEntity
  8
DIMENSION
100
AcDbMText
 10
6.4256002008
 20
16.230091793
 30
0.0
 40
0.3333333333
 41
0.0
 71
     1
 72
     1
  1

  7
SLDTEXTSTYLE1
 73
     1
 44
1.0
  0
MTEXT
  5
254
330
244
100
AcDbEntity
  8
DIMENSION
100
AcDbMText
 10
6.7472051143
 20
16.230091793
 30
0.0
 40
0.3333333333
 41
0.0
 71
     1
 72
     1
  1
6.087
  7
SLDTEXTSTYLE1
 73
     1
 44
1.0
  0
MTEXT
  5
255
330
244
100
AcDbEntity
  8
DIMENSION
100
AcDbMText
 10
6.6240569902
 20
15.6328695689
 30
0.0
 40
0.3333333333
 41
0.0
 71
     1
 72
     1
  1
154.62
  7
SLDTEXTSTYLE1
 73
     1
 44
1.0
  0
MTEXT
  5
256
330
244
100
AcDbEntity
  8
DIMENSION
100
AcDbMText
 10
8.4311556991
 20
16.230091793
 30
0.0
 40
0.3333333333
 41
0.0
 71
     1
 72
     1
  1

  7
SLDTEXTSTYLE1
 73
     1
 44
1.0
  0
ENDBLK
  5
246
330
244
100
AcDbEntity
  8
0
100
AcDbBlockEnd
  0
BLOCK
  5
259
330
258
100
AcDbEntity
  8
0
100
AcDbBlockBegin
  2
_D_8
 70
     0
 10
0.0
 20
0.0
 30
0.0
  3
_D_8
  1

  0
SOLID
  5
25B
330
258
100
AcDbEntity
  8
DIMENSION
100
AcDbTrace
 10
4.4673080352
 20
12.0083518747
 30
0.0
 11
4.5185900865
 21
12.3416852081
 31
0.0
 12
4.4160259839
 22
12.3416852081
 32
0.0
 13
4.4160259839
 23
12.3416852081
 33
0.0
  0
SOLID
  5
25C
330
258
100
AcDbEntity
  8
DIMENSION
100
AcDbTrace
 10
4.4673080352
 20
22.1415718756
 30
0.0
 11
4.4160259839
 21
21.8082385423
 31
0.0
 12
4.5185900865
 22
21.8082385423
 32
0.0
 13
4.5185900865
 23
21.8082385423
 33
0.0
  0
LINE
  5
25D
330
258
100
AcDbEntity
  8
DIMENSION
100
AcDbLine
 10
3.7901475345
 20
17.3514226366
 30
0.0
 11
3.6887586441
 21
17.3514226366
 31
0.0
  0
LINE
  5
25E
330
258
100
AcDbEntity
  8
DIMENSION
100
AcDbLine
 10
3.6887586441
 20
17.3514226366
 30
0.0
 11
3.6887586441
 21
16.8217930182
 31
0.0
  0
LINE
  5
25F
330
258
100
AcDbEntity
  8
DIMENSION
100
AcDbLine
 10
3.6887586441
 20
16.8217930182
 30
0.0
 11
3.7901475345
 21
16.8217930182
 31
0.0
  0
LINE
  5
260
330
258
100
AcDbEntity
  8
DIMENSION
100
AcDbLine
 10
5.1444686093
 20
17.3514226366
 30
0.0
 11
5.2458574997
 21
17.3514226366
 31
0.0
  0
LINE
  5
261
330
258
100
AcDbEntity
  8
DIMENSION
100
AcDbLine
 10
5.2458574997
 20
17.3514226366
 30
0.0
 11
5.2458574997
 21
16.8217930182
 31
0.0
  0
LINE
  5
262
330
258
100
AcDbEntity
  8
DIMENSION
100
AcDbLine
 10
5.2458574997
 20
16.8217930182
 30
0.0
 11
5.1444686093
 21
16.8217930182
 31
0.0
  0
LINE
  5
263
330
258
100
AcDbEntity
  8
DIMENSION
100
AcDbLine
 10
11.9797604949
 20
12.0083518747
 30
0.0
 11
3.9673080352
 21
12.0083518747
 31
0.0
  0
LINE
  5
264
330
258
100
AcDbEntity
  8
DIMENSION
100
AcDbLine
 10
11.2780377693
 20
22.1415718756
 30
0.0
 11
3.9673080352
 21
22.1415718756
 31
0.0
  0
LINE
  5
265
330
258
100
AcDbEntity
  8
DIMENSION
100
AcDbLine
 10
4.4673080352
 20
12.0083518747
 30
0.0
 11
4.4673080352
 21
16.7542004857
 31
0.0
  0
LINE
  5
266
330
258
100
AcDbEntity
  8
DIMENSION
100
AcDbLine
 10
4.4673080352
 20
22.1415718756
 30
0.0
 11
4.4673080352
 21
17.9486448608
 31
0.0
  0
MTEXT
  5
267
330
258
100
AcDbEntity
  8
DIMENSION
100
AcDbMText
 10
3.5916907451
 20
17.8487044707
 30
0.0
 40
0.3333333333
 41
0.0
 71
     1
 72
     1
  1

  7
SLDTEXTSTYLE1
 73
     1
 44
1.0
  0
MTEXT
  5
268
330
258
100
AcDbEntity
  8
DIMENSION
100
AcDbMText
 10
3.7901474978
 20
17.8487044707
 30
0.0
 40
0.3333333333
 41
0.0
 71
     1
 72
     1
  1
10.133
  7
SLDTEXTSTYLE1
 73
     1
 44
1.0
  0
MTEXT
  5
269
330
258
100
AcDbEntity
  8
DIMENSION
100
AcDbMText
 10
3.7901475345
 20
17.2514822465
 30
0.0
 40
0.3333333333
 41
0.0
 71
     1
 72
     1
  1
257.38
  7
SLDTEXTSTYLE1
 73
     1
 44
1.0
  0
MTEXT
  5
26A
330
258
100
AcDbEntity
  8
DIMENSION
100
AcDbMText
 10
5.5972462434
 20
17.8487044707
 30
0.0
 40
0.3333333333
 41
0.0
 71
     1
 72
     1
  1

  7
SLDTEXTSTYLE1
 73
     1
 44
1.0
  0
ENDBLK
  5
25A
330
258
100
AcDbEntity
  8
0
100
AcDbBlockEnd
  0
BLOCK
  5
26D
330
26C
100
AcDbEntity
  8
0
100
AcDbBlockBegin
  2
_D_9
 70
     0
 10
0.0
 20
0.0
 30
0.0
  3
_D_9
  1

  0
SOLID
  5
26F
330
26C
100
AcDbEntity
  8
DIMENSION
100
AcDbTrace
 10
11.2637442706
 20
10.4335487251
 30
0.0
 11
10.9304109372
 21
10.4848307764
 31
0.0
 12
10.9304109372
 22
10.3822666738
 32
0.0
 13
10.9304109372
 23
10.3822666738
 33
0.0
  0
SOLID
  5
270
330
26C
100
AcDbEntity
  8
DIMENSION
100
AcDbTrace
 10
13.0489361542
 20
10.4335487251
 30
0.0
 11
13.3822694876
 21
10.3822666738
 31
0.0
 12
13.3822694876
 22
10.4848307764
 32
0.0
 13
13.3822694876
 23
10.4848307764
 33
0.0
  0
LINE
  5
271
330
26C
100
AcDbEntity
  8
DIMENSION
100
AcDbLine
 10
11.6303948916
 20
10.4335486885
 30
0.0
 11
11.5290060012
 21
10.4335486885
 31
0.0
  0
LINE
  5
272
330
26C
100
AcDbEntity
  8
DIMENSION
100
AcDbLine
 10
11.5290060012
 20
10.4335486885
 30
0.0
 11
11.5290060012
 21
9.9039190701
 31
0.0
  0
LINE
  5
273
330
26C
100
AcDbEntity
  8
DIMENSION
100
AcDbLine
 10
11.5290060012
 20
9.9039190701
 30
0.0
 11
11.6303948916
 21
9.9039190701
 31
0.0
  0
LINE
  5
274
330
26C
100
AcDbEntity
  8
DIMENSION
100
AcDbLine
 10
12.7384196449
 20
10.4335486885
 30
0.0
 11
12.8398085353
 21
10.4335486885
 31
0.0
  0
LINE
  5
275
330
26C
100
AcDbEntity
  8
DIMENSION
100
AcDbLine
 10
12.8398085353
 20
10.4335486885
 30
0.0
 11
12.8398085353
 21
9.9039190701
 31
0.0
  0
LINE
  5
276
330
26C
100
AcDbEntity
  8
DIMENSION
100
AcDbLine
 10
12.8398085353
 20
9.9039190701
 30
0.0
 11
12.7384196449
 21
9.9039190701
 31
0.0
  0
LINE
  5
277
330
26C
100
AcDbEntity
  8
DIMENSION
100
AcDbLine
 10
11.2637442706
 20
12.7243680991
 30
0.0
 11
11.2637442706
 21
9.9335487251
 31
0.0
  0
LINE
  5
278
330
26C
100
AcDbEntity
  8
DIMENSION
100
AcDbLine
 10
13.0489361542
 20
12.0226453734
 30
0.0
 11
13.0489361542
 21
9.9335487251
 31
0.0
  0
LINE
  5
279
330
26C
100
AcDbEntity
  8
DIMENSION
100
AcDbLine
 10
11.2637442706
 20
10.4335487251
 30
0.0
 11
10.6227186295
 21
10.4335487251
 31
0.0
  0
LINE
  5
27A
330
26C
100
AcDbEntity
  8
DIMENSION
100
AcDbLine
 10
13.0489361542
 20
10.4335487251
 30
0.0
 11
13.6899617953
 21
10.4335487251
 31
0.0
  0
MTEXT
  5
27B
330
26C
100
AcDbEntity
  8
DIMENSION
100
AcDbMText
 10
11.4319381022
 20
10.9308305225
 30
0.0
 40
0.3333333333
 41
0.0
 71
     1
 72
     1
  1

  7
SLDTEXTSTYLE1
 73
     1
 44
1.0
  0
MTEXT
  5
27C
330
26C
100
AcDbEntity
  8
DIMENSION
100
AcDbMText
 10
11.6303948916
 20
10.9308305225
 30
0.0
 40
0.3333333333
 41
0.0
 71
     1
 72
     1
  1
1.785
  7
SLDTEXTSTYLE1
 73
     1
 44
1.0
  0
MTEXT
  5
27D
330
26C
100
AcDbEntity
  8
DIMENSION
100
AcDbMText
 10
11.6303948916
 20
10.3336082984
 30
0.0
 40
0.3333333333
 41
0.0
 71
     1
 72
     1
  1
45.34
  7
SLDTEXTSTYLE1
 73
     1
 44
1.0
  0
MTEXT
  5
27E
330
26C
100
AcDbEntity
  8
DIMENSION
100
AcDbMText
 10
13.1911973524
 20
10.9308305225
 30
0.0
 40
0.3333333333
 41
0.0
 71
     1
 72
     1
  1

  7
SLDTEXTSTYLE1
 73
     1
 44
1.0
  0
ENDBLK
  5
26E
330
26C
100
AcDbEntity
  8
0
100
AcDbBlockEnd
  0
BLOCK
  5
281
330
280
100
AcDbEntity
  8
0
100
AcDbBlockBegin
  2
_D_10
 70
     0
 10
0.0
 20
0.0
 30
0.0
  3
_D_10
  1

  0
SOLID
  5
283
330
280
100
AcDbEntity
  8
DIMENSION
100
AcDbTrace
 10
11.2637442706
 20
8.5437849456
 30
0.0
 11
11.5970776039
 21
8.4925028943
 31
0.0
 12
11.5970776039
 22
8.5950669969
 32
0.0
 13
11.5970776039
 23
8.5950669969
 33
0.0
  0
SOLID
  5
284
330
280
100
AcDbEntity
  8
DIMENSION
100
AcDbTrace
 10
17.6670816771
 20
8.5437849456
 30
0.0
 11
17.3337483438
 21
8.5950669969
 31
0.0
 12
17.3337483438
 22
8.4925028943
 32
0.0
 13
17.3337483438
 23
8.4925028943
 33
0.0
  0
LINE
  5
285
330
280
100
AcDbEntity
  8
DIMENSION
100
AcDbLine
 10
13.6890695216
 20
8.5437849089
 30
0.0
 11
13.5876806312
 21
8.5437849089
 31
0.0
  0
LINE
  5
286
330
280
100
AcDbEntity
  8
DIMENSION
100
AcDbLine
 10
13.5876806312
 20
8.5437849089
 30
0.0
 11
13.5876806312
 21
8.0141552906
 31
0.0
  0
LINE
  5
287
330
280
100
AcDbEntity
  8
DIMENSION
100
AcDbLine
 10
13.5876806312
 20
8.0141552906
 30
0.0
 11
13.6890695216
 21
8.0141552906
 31
0.0
  0
LINE
  5
288
330
280
100
AcDbEntity
  8
DIMENSION
100
AcDbLine
 10
15.0433905964
 20
8.5437849089
 30
0.0
 11
15.1447794868
 21
8.5437849089
 31
0.0
  0
LINE
  5
289
330
280
100
AcDbEntity
  8
DIMENSION
100
AcDbLine
 10
15.1447794868
 20
8.5437849089
 30
0.0
 11
15.1447794868
 21
8.0141552906
 31
0.0
  0
LINE
  5
28A
330
280
100
AcDbEntity
  8
DIMENSION
100
AcDbLine
 10
15.1447794868
 20
8.0141552906
 30
0.0
 11
15.0433905964
 21
8.0141552906
 31
0.0
  0
LINE
  5
28B
330
280
100
AcDbEntity
  8
DIMENSION
100
AcDbLine
 10
11.2637442706
 20
12.7243680991
 30
0.0
 11
11.2637442706
 21
8.0437849456
 31
0.0
  0
LINE
  5
28C
330
280
100
AcDbEntity
  8
DIMENSION
100
AcDbLine
 10
17.6670816771
 20
12.0226453734
 30
0.0
 11
17.6670816771
 21
8.0437849456
 31
0.0
  0
LINE
  5
28D
330
280
100
AcDbEntity
  8
DIMENSION
100
AcDbLine
 10
11.2637442706
 20
8.5437849456
 30
0.0
 11
13.1730116052
 21
8.5437849456
 31
0.0
  0
LINE
  5
28E
330
280
100
AcDbEntity
  8
DIMENSION
100
AcDbLine
 10
17.6670816771
 20
8.5437849456
 30
0.0
 11
15.5594484395
 21
8.5437849456
 31
0.0
  0
MTEXT
  5
28F
330
280
100
AcDbEntity
  8
DIMENSION
100
AcDbMText
 10
13.4906127322
 20
9.041066743
 30
0.0
 40
0.3333333333
 41
0.0
 71
     1
 72
     1
  1

  7
SLDTEXTSTYLE1
 73
     1
 44
1.0
  0
MTEXT
  5
290
330
280
100
AcDbEntity
  8
DIMENSION
100
AcDbMText
 10
13.8122176457
 20
9.041066743
 30
0.0
 40
0.3333333333
 41
0.0
 71
     1
 72
     1
  1
6.403
  7
SLDTEXTSTYLE1
 73
     1
 44
1.0
  0
MTEXT
  5
291
330
280
100
AcDbEntity
  8
DIMENSION
100
AcDbMText
 10
13.6890695216
 20
8.4438445188
 30
0.0
 40
0.3333333333
 41
0.0
 71
     1
 72
     1
  1
162.64
  7
SLDTEXTSTYLE1
 73
     1
 44
1.0
  0
MTEXT
  5
292
330
280
100
AcDbEntity
  8
DIMENSION
100
AcDbMText
 10
15.4961682306
 20
9.041066743
 30
0.0
 40
0.3333333333
 41
0.0
 71
     1
 72
     1
  1

  7
SLDTEXTSTYLE1
 73
     1
 44
1.0
  0
ENDBLK
  5
282
330
280
100
AcDbEntity
  8
0
100
AcDbBlockEnd
  0
BLOCK
  5
295
330
294
100
AcDbEntity
  8
0
100
AcDbBlockBegin
  2
_D_11
 70
     0
 10
0.0
 20
0.0
 30
0.0
  3
_D_11
  1

  0
SOLID
  5
297
330
294
100
AcDbEntity
  8
DIMENSION
100
AcDbTrace
 10
11.2637442706
 20
6.6540211661
 30
0.0
 11
11.5970776039
 21
6.6027391148
 31
0.0
 12
11.5970776039
 22
6.7053032174
 32
0.0
 13
11.5970776039
 23
6.7053032174
 33
0.0
  0
SOLID
  5
298
330
294
100
AcDbEntity
  8
DIMENSION
100
AcDbTrace
 10
22.2852272
 20
6.6540211661
 30
0.0
 11
21.9518938666
 21
6.7053032174
 31
0.0
 12
21.9518938666
 22
6.6027391148
 32
0.0
 13
21.9518938666
 23
6.6027391148
 33
0.0
  0
LINE
  5
299
330
294
100
AcDbEntity
  8
DIMENSION
100
AcDbLine
 10
16.1827750503
 20
6.6540211294
 30
0.0
 11
16.0813861599
 21
6.6540211294
 31
0.0
  0
LINE
  5
29A
330
294
100
AcDbEntity
  8
DIMENSION
100
AcDbLine
 10
16.0813861599
 20
6.6540211294
 30
0.0
 11
16.0813861599
 21
6.1243915111
 31
0.0
  0
LINE
  5
29B
330
294
100
AcDbEntity
  8
DIMENSION
100
AcDbLine
 10
16.0813861599
 20
6.1243915111
 30
0.0
 11
16.1827750503
 21
6.1243915111
 31
0.0
  0
LINE
  5
29C
330
294
100
AcDbEntity
  8
DIMENSION
100
AcDbLine
 10
17.5370961251
 20
6.6540211294
 30
0.0
 11
17.6384850155
 21
6.6540211294
 31
0.0
  0
LINE
  5
29D
330
294
100
AcDbEntity
  8
DIMENSION
100
AcDbLine
 10
17.6384850155
 20
6.6540211294
 30
0.0
 11
17.6384850155
 21
6.1243915111
 31
0.0
  0
LINE
  5
29E
330
294
100
AcDbEntity
  8
DIMENSION
100
AcDbLine
 10
17.6384850155
 20
6.1243915111
 30
0.0
 11
17.5370961251
 21
6.1243915111
 31
0.0
  0
LINE
  5
29F
330
294
100
AcDbEntity
  8
DIMENSION
100
AcDbLine
 10
11.2637442706
 20
12.7243680991
 30
0.0
 11
11.2637442706
 21
6.1540211661
 31
0.0
  0
LINE
  5
2A0
330
294
100
AcDbEntity
  8
DIMENSION
100
AcDbLine
 10
22.2852272
 20
12.0226453734
 30
0.0
 11
22.2852272
 21
6.1540211661
 31
0.0
  0
LINE
  5
2A1
330
294
100
AcDbEntity
  8
DIMENSION
100
AcDbLine
 10
11.2637442706
 20
6.6540211661
 30
0.0
 11
15.6667171339
 21
6.6540211661
 31
0.0
  0
LINE
  5
2A2
330
294
100
AcDbEntity
  8
DIMENSION
100
AcDbLine
 10
22.2852272
 20
6.6540211661
 30
0.0
 11
18.0531539682
 21
6.6540211661
 31
0.0
  0
MTEXT
  5
2A3
330
294
100
AcDbEntity
  8
DIMENSION
100
AcDbMText
 10
15.9843182609
 20
7.1513029635
 30
0.0
 40
0.3333333333
 41
0.0
 71
     1
 72
     1
  1

  7
SLDTEXTSTYLE1
 73
     1
 44
1.0
  0
MTEXT
  5
2A4
330
294
100
AcDbEntity
  8
DIMENSION
100
AcDbMText
 10
16.1827750137
 20
7.1513029635
 30
0.0
 40
0.3333333333
 41
0.0
 71
     1
 72
     1
  1
11.021
  7
SLDTEXTSTYLE1
 73
     1
 44
1.0
  0
MTEXT
  5
2A5
330
294
100
AcDbEntity
  8
DIMENSION
100
AcDbMText
 10
16.1827750503
 20
6.5540807393
 30
0.0
 40
0.3333333333
 41
0.0
 71
     1
 72
     1
  1
279.95
  7
SLDTEXTSTYLE1
 73
     1
 44
1.0
  0
MTEXT
  5
2A6
330
294
100
AcDbEntity
  8
DIMENSION
100
AcDbMText
 10
17.9898737592
 20
7.1513029635
 30
0.0
 40
0.3333333333
 41
0.0
 71
     1
 72
     1
  1

  7
SLDTEXTSTYLE1
 73
     1
 44
1.0
  0
ENDBLK
  5
296
330
294
100
AcDbEntity
  8
0
100
AcDbBlockEnd
  0
BLOCK
  5
2AA
330
2A9
100
AcDbEntity
  8
0
100
AcDbBlockBegin
  2
_D_12
 70
     0
 10
0.0
 20
0.0
 30
0.0
  3
_D_12
  1

  0
SOLID
  5
2AC
330
2A9
100
AcDbEntity
  8
DIMENSION
100
AcDbTrace
 10
11.2637442706
 20
4.7642573865
 30
0.0
 11
11.5970776039
 21
4.7129753353
 31
0.0
 12
11.5970776039
 22
4.8155394378
 32
0.0
 13
11.5970776039
 23
4.8155394378
 33
0.0
  0
SOLID
  5
2AD
330
2A9
100
AcDbEntity
  8
DIMENSION
100
AcDbTrace
 10
26.9033727228
 20
4.7642573865
 30
0.0
 11
26.5700393895
 21
4.8155394378
 31
0.0
 12
26.5700393895
 22
4.7129753353
 32
0.0
 13
26.5700393895
 23
4.7129753353
 33
0.0
  0
LINE
  5
2AE
330
2A9
100
AcDbEntity
  8
DIMENSION
100
AcDbLine
 10
18.8669482405
 20
4.7642573499
 30
0.0
 11
18.7655593501
 21
4.7642573499
 31
0.0
  0
LINE
  5
2AF
330
2A9
100
AcDbEntity
  8
DIMENSION
100
AcDbLine
 10
18.7655593501
 20
4.7642573499
 30
0.0
 11
18.7655593501
 21
4.2346277315
 31
0.0
  0
LINE
  5
2B0
330
2A9
100
AcDbEntity
  8
DIMENSION
100
AcDbLine
 10
18.7655593501
 20
4.2346277315
 30
0.0
 11
18.8669482405
 21
4.2346277315
 31
0.0
  0
LINE
  5
2B1
330
2A9
100
AcDbEntity
  8
DIMENSION
100
AcDbLine
 10
20.2212693152
 20
4.7642573499
 30
0.0
 11
20.3226582057
 21
4.7642573499
 31
0.0
  0
LINE
  5
2B2
330
2A9
100
AcDbEntity
  8
DIMENSION
100
AcDbLine
 10
20.3226582057
 20
4.7642573499
 30
0.0
 11
20.3226582057
 21
4.2346277315
 31
0.0
  0
LINE
  5
2B3
330
2A9
100
AcDbEntity
  8
DIMENSION
100
AcDbLine
 10
20.3226582057
 20
4.2346277315
 30
0.0
 11
20.2212693152
 21
4.2346277315
 31
0.0
  0
LINE
  5
2B4
330
2A9
100
AcDbEntity
  8
DIMENSION
100
AcDbLine
 10
11.2637442706
 20
12.7243680991
 30
0.0
 11
11.2637442706
 21
4.2642573865
 31
0.0
  0
LINE
  5
2B5
330
2A9
100
AcDbEntity
  8
DIMENSION
100
AcDbLine
 10
26.9033727228
 20
12.0226453734
 30
0.0
 11
26.9033727228
 21
4.2642573865
 31
0.0
  0
LINE
  5
2B6
330
2A9
100
AcDbEntity
  8
DIMENSION
100
AcDbLine
 10
11.2637442706
 20
4.7642573865
 30
0.0
 11
18.350890324
 21
4.7642573865
 31
0.0
  0
LINE
  5
2B7
330
2A9
100
AcDbEntity
  8
DIMENSION
100
AcDbLine
 10
26.9033727228
 20
4.7642573865
 30
0.0
 11
20.7373271583
 21
4.7642573865
 31
0.0
  0
MTEXT
  5
2B8
330
2A9
100
AcDbEntity
  8
DIMENSION
100
AcDbMText
 10
18.6684914511
 20
5.261539184
 30
0.0
 40
0.3333333333
 41
0.0
 71
     1
 72
     1
  1

  7
SLDTEXTSTYLE1
 73
     1
 44
1.0
  0
MTEXT
  5
2B9
330
2A9
100
AcDbEntity
  8
DIMENSION
100
AcDbMText
 10
18.8669482038
 20
5.261539184
 30
0.0
 40
0.3333333333
 41
0.0
 71
     1
 72
     1
  1
15.640
  7
SLDTEXTSTYLE1
 73
     1
 44
1.0
  0
MTEXT
  5
2BA
330
2A9
100
AcDbEntity
  8
DIMENSION
100
AcDbMText
 10
18.8669482405
 20
4.6643169598
 30
0.0
 40
0.3333333333
 41
0.0
 71
     1
 72
     1
  1
397.25
  7
SLDTEXTSTYLE1
 73
     1
 44
1.0
  0
MTEXT
  5
2BB
330
2A9
100
AcDbEntity
  8
DIMENSION
100
AcDbMText
 10
20.6740469494
 20
5.261539184
 30
0.0
 40
0.3333333333
 41
0.0
 71
     1
 72
     1
  1

  7
SLDTEXTSTYLE1
 73
     1
 44
1.0
  0
ENDBLK
  5
2AB
330
2A9
100
AcDbEntity
  8
0
100
AcDbBlockEnd
  0
BLOCK
  5
2BF
330
2BE
100
AcDbEntity
  8
0
100
AcDbBlockBegin
  2
_D_13
 70
     0
 10
0.0
 20
0.0
 30
0.0
  3
_D_13
  1

  0
SOLID
  5
2C1
330
2BE
100
AcDbEntity
  8
DIMENSION
100
AcDbTrace
 10
28.0096308267
 20
12.0395643707
 30
0.0
 11
28.046369184
 21
11.7043163237
 31
0.0
 12
28.1454384995
 22
11.7308618668
 32
0.0
 13
28.1454384995
 23
11.7308618668
 33
0.0
  0
LINE
  5
2C2
330
2BE
100
AcDbEntity
  8
DIMENSION
100
AcDbLine
 10
30.2959299923
 20
8.0384000843
 30
0.0
 11
30.1945411019
 21
8.0384000843
 31
0.0
  0
LINE
  5
2C3
330
2BE
100
AcDbEntity
  8
DIMENSION
100
AcDbLine
 10
30.1945411019
 20
8.0384000843
 30
0.0
 11
30.1945411019
 21
7.5087704659
 31
0.0
  0
LINE
  5
2C4
330
2BE
100
AcDbEntity
  8
DIMENSION
100
AcDbLine
 10
30.1945411019
 20
7.5087704659
 30
0.0
 11
30.2959299923
 21
7.5087704659
 31
0.0
  0
LINE
  5
2C5
330
2BE
100
AcDbEntity
  8
DIMENSION
100
AcDbLine
 10
31.4039547457
 20
8.0384000843
 30
0.0
 11
31.5053436361
 21
8.0384000843
 31
0.0
  0
LINE
  5
2C6
330
2BE
100
AcDbEntity
  8
DIMENSION
100
AcDbLine
 10
31.5053436361
 20
8.0384000843
 30
0.0
 11
31.5053436361
 21
7.5087704659
 31
0.0
  0
LINE
  5
2C7
330
2BE
100
AcDbEntity
  8
DIMENSION
100
AcDbLine
 10
31.5053436361
 20
7.5087704659
 30
0.0
 11
31.4039547457
 21
7.5087704659
 31
0.0
  0
LINE
  5
2C8
330
2BE
100
AcDbEntity
  8
DIMENSION
100
AcDbLine
 10
28.0096308267
 20
12.0395643707
 30
0.0
 11
29.0931522115
 21
7.995807513
 31
0.0
  0
LINE
  5
2C9
330
2BE
100
AcDbEntity
  8
DIMENSION
100
AcDbLine
 10
29.0931522115
 20
7.995807513
 30
0.0
 11
30.0931522115
 21
7.995807513
 31
0.0
  0
MTEXT
  5
2CA
330
2BE
100
AcDbEntity
  8
DIMENSION
100
AcDbMText
 10
30.2842015978
 20
8.5356819184
 30
0.0
 40
0.3333333333
 41
0.0
 71
     1
 72
     1
  1
R.916
  7
SLDTEXTSTYLE1
 73
     1
 44
1.0
  0
MTEXT
  5
2CB
330
2BE
100
AcDbEntity
  8
DIMENSION
100
AcDbMText
 10
30.2959299923
 20
7.9384596942
 30
0.0
 40
0.3333333333
 41
0.0
 71
     1
 72
     1
  1
23.27
  7
SLDTEXTSTYLE1
 73
     1
 44
1.0
  0
ENDBLK
  5
2C0
330
2BE
100
AcDbEntity
  8
0
100
AcDbBlockEnd
  0
BLOCK
  5
2CF
330
2CE
100
AcDbEntity
  8
0
100
AcDbBlockBegin
  2
_D_14
 70
     0
 10
0.0
 20
0.0
 30
0.0
  3
_D_14
  1

  0
SOLID
  5
2D1
330
2CE
100
AcDbEntity
  8
DIMENSION
100
AcDbTrace
 10
28.5500700372
 20
14.0062896776
 30
0.0
 11
28.8131041461
 21
13.7952114517
 31
0.0
 12
28.8643861974
 22
13.8840345701
 32
0.0
 13
28.8643861974
 23
13.8840345701
 33
0.0
  0
LINE
  5
2D2
330
2CE
100
AcDbEntity
  8
DIMENSION
100
AcDbLine
 10
30.4908313247
 20
13.650979839
 30
0.0
 11
30.3894424343
 21
13.650979839
 31
0.0
  0
LINE
  5
2D3
330
2CE
100
AcDbEntity
  8
DIMENSION
100
AcDbLine
 10
30.3894424343
 20
13.650979839
 30
0.0
 11
30.3894424343
 21
13.1213502206
 31
0.0
  0
LINE
  5
2D4
330
2CE
100
AcDbEntity
  8
DIMENSION
100
AcDbLine
 10
30.3894424343
 20
13.1213502206
 30
0.0
 11
30.4908313247
 21
13.1213502206
 31
0.0
  0
LINE
  5
2D5
330
2CE
100
AcDbEntity
  8
DIMENSION
100
AcDbLine
 10
31.3525597566
 20
13.650979839
 30
0.0
 11
31.453948647
 21
13.650979839
 31
0.0
  0
LINE
  5
2D6
330
2CE
100
AcDbEntity
  8
DIMENSION
100
AcDbLine
 10
31.453948647
 20
13.650979839
 30
0.0
 11
31.453948647
 21
13.1213502206
 31
0.0
  0
LINE
  5
2D7
330
2CE
100
AcDbEntity
  8
DIMENSION
100
AcDbLine
 10
31.453948647
 20
13.1213502206
 30
0.0
 11
31.3525597566
 21
13.1213502206
 31
0.0
  0
LINE
  5
2D8
330
2CE
100
AcDbEntity
  8
DIMENSION
100
AcDbLine
 10
28.5500700372
 20
14.0062896776
 30
0.0
 11
29.2392572276
 21
13.6083872677
 31
0.0
  0
LINE
  5
2D9
330
2CE
100
AcDbEntity
  8
DIMENSION
100
AcDbLine
 10
29.2392572276
 20
13.6083872677
 30
0.0
 11
30.2392572276
 21
13.6083872677
 31
0.0
  0
MTEXT
  5
2DA
330
2CE
100
AcDbEntity
  8
DIMENSION
100
AcDbMText
 10
30.2392572276
 20
14.1482616731
 30
0.0
 40
0.3333333333
 41
0.0
 71
     1
 72
     1
  1
%%c
  7
SLDTEXTSTYLE1
 73
     1
 44
1.0
  0
MTEXT
  5
2DB
330
2CE
100
AcDbEntity
  8
DIMENSION
100
AcDbMText
 10
30.7424053852
 20
14.1482616731
 30
0.0
 40
0.3333333333
 41
0.0
 71
     1
 72
     1
  1
.175
  7
SLDTEXTSTYLE1
 73
     1
 44
1.0
  0
MTEXT
  5
2DC
330
2CE
100
AcDbEntity
  8
DIMENSION
100
AcDbMText
 10
30.4908313247
 20
13.5510394489
 30
0.0
 40
0.3333333333
 41
0.0
 71
     1
 72
     1
  1
4.45
  7
SLDTEXTSTYLE1
 73
     1
 44
1.0
  0
ENDBLK
  5
2D0
330
2CE
100
AcDbEntity
  8
0
100
AcDbBlockEnd
  0
BLOCK
  5
2DE
330
2DD
100
AcDbEntity
  8
0
100
AcDbBlockBegin
  2
SW_CENTERMARKSYMBOL_0
 70
     0
 10
0.0
 20
0.0
 30
0.0
  3
SW_CENTERMARKSYMBOL_0
  1

  0
LINE
  5
2E0
330
2DD
100
AcDbEntity
  8
DIMENSION
 62
     0
100
AcDbLine
 10
0.0
 20
0.0
 30
0.0
 11
0.0
 21
0.1
 31
0.0
  0
LINE
  5
2E1
330
2DD
100
AcDbEntity
  8
DIMENSION
 62
     0
100
AcDbLine
 10
0.0
 20
0.0
 30
0.0
 11
-0.1
 21
0.0
 31
0.0
  0
LINE
  5
2E2
330
2DD
100
AcDbEntity
  8
DIMENSION
 62
     0
100
AcDbLine
 10
0.0
 20
0.0
 30
0.0
 11
0.0
 21
-0.1
 31
0.0
  0
LINE
  5
2E3
330
2DD
100
AcDbEntity
  8
DIMENSION
 62
     0
100
AcDbLine
 10
0.0
 20
0.0
 30
0.0
 11
0.1
 21
0.0
 31
0.0
  0
LINE
  5
2E4
330
2DD
100
AcDbEntity
  8
DIMENSION
 62
     0
100
AcDbLine
 10
-0.1
 20
0.0
 30
0.0
 11
-0.1875250646
 21
0.0
 31
0.0
  0
LINE
  5
2E5
330
2DD
100
AcDbEntity
  8
DIMENSION
 62
     0
100
AcDbLine
 10
0.0
 20
-0.1
 30
0.0
 11
0.0
 21
-0.1875250646
 31
0.0
  0
LINE
  5
2E6
330
2DD
100
AcDbEntity
  8
DIMENSION
 62
     0
100
AcDbLine
 10
0.1
 20
0.0
 30
0.0
 11
0.1875250646
 21
0.0
 31
0.0
  0
LINE
  5
2E7
330
2DD
100
AcDbEntity
  8
DIMENSION
 62
     0
100
AcDbLine
 10
0.0
 20
4.0457598329
 30
0.0
 11
0.0
 21
4.1457598329
 31
0.0
  0
LINE
  5
2E8
330
2DD
100
AcDbEntity
  8
DIMENSION
 62
     0
100
AcDbLine
 10
0.0
 20
4.0457598329
 30
0.0
 11
-0.1
 21
4.0457598329
 31
0.0
  0
LINE
  5
2E9
330
2DD
100
AcDbEntity
  8
DIMENSION
 62
     0
100
AcDbLine
 10
0.0
 20
4.0457598329
 30
0.0
 11
0.0
 21
3.9457598329
 31
0.0
  0
LINE
  5
2EA
330
2DD
100
AcDbEntity
  8
DIMENSION
 62
     0
100
AcDbLine
 10
0.0
 20
4.0457598329
 30
0.0
 11
0.1
 21
4.0457598329
 31
0.0
  0
LINE
  5
2EB
330
2DD
100
AcDbEntity
  8
DIMENSION
 62
     0
100
AcDbLine
 10
-0.1
 20
4.0457598329
 30
0.0
 11
-0.1875250646
 21
4.0457598329
 31
0.0
  0
LINE
  5
2EC
330
2DD
100
AcDbEntity
  8
DIMENSION
 62
     0
100
AcDbLine
 10
0.1
 20
4.0457598329
 30
0.0
 11
0.1875250646
 21
4.0457598329
 31
0.0
  0
LINE
  5
2ED
330
2DD
100
AcDbEntity
  8
DIMENSION
 62
     0
100
AcDbLine
 10
0.0
 20
8.0915196657
 30
0.0
 11
0.0
 21
8.1915196657
 31
0.0
  0
LINE
  5
2EE
330
2DD
100
AcDbEntity
  8
DIMENSION
 62
     0
100
AcDbLine
 10
0.0
 20
8.0915196657
 30
0.0
 11
-0.1
 21
8.0915196657
 31
0.0
  0
LINE
  5
2EF
330
2DD
100
AcDbEntity
  8
DIMENSION
 62
     0
100
AcDbLine
 10
0.0
 20
8.0915196657
 30
0.0
 11
0.0
 21
7.9915196657
 31
0.0
  0
LINE
  5
2F0
330
2DD
100
AcDbEntity
  8
DIMENSION
 62
     0
100
AcDbLine
 10
0.0
 20
8.0915196657
 30
0.0
 11
0.1
 21
8.0915196657
 31
0.0
  0
LINE
  5
2F1
330
2DD
100
AcDbEntity
  8
DIMENSION
 62
     0
100
AcDbLine
 10
0.0
 20
8.1915196657
 30
0.0
 11
0.0
 21
8.2790447303
 31
0.0
  0
LINE
  5
2F2
330
2DD
100
AcDbEntity
  8
DIMENSION
 62
     0
100
AcDbLine
 10
-0.1
 20
8.0915196657
 30
0.0
 11
-0.1875250646
 21
8.0915196657
 31
0.0
  0
LINE
  5
2F3
330
2DD
100
AcDbEntity
  8
DIMENSION
 62
     0
100
AcDbLine
 10
0.1
 20
8.0915196657
 30
0.0
 11
0.1875250646
 21
8.0915196657
 31
0.0
  0
LINE
  5
2F4
330
2DD
100
AcDbEntity
  8
DIMENSION
 62
     0
100
AcDbLine
 10
0.0
 20
0.2
 30
0.0
 11
0.0
 21
3.8457598329
 31
0.0
  0
LINE
  5
2F5
330
2DD
100
AcDbEntity
  8
DIMENSION
 62
     0
100
AcDbLine
 10
0.0
 20
4.2457598329
 30
0.0
 11
0.0
 21
7.8915196657
 31
0.0
  0
ENDBLK
  5
2DF
330
2DD
100
AcDbEntity
  8
0
100
AcDbBlockEnd
  0
BLOCK
  5
2F8
330
2F7
100
AcDbEntity
  8
0
100
AcDbBlockBegin
  2
SW_CENTERMARKSYMBOL_1
 70
     0
 10
0.0
 20
0.0
 30
0.0
  3
SW_CENTERMARKSYMBOL_1
  1

  0
LINE
  5
2FA
330
2F7
100
AcDbEntity
  8
DIMENSION
 62
     0
100
AcDbLine
 10
0.0
 20
0.0
 30
0.0
 11
0.0
 21
0.1
 31
0.0
  0
LINE
  5
2FB
330
2F7
100
AcDbEntity
  8
DIMENSION
 62
     0
100
AcDbLine
 10
0.0
 20
0.0
 30
0.0
 11
-0.1
 21
0.0
 31
0.0
  0
LINE
  5
2FC
330
2F7
100
AcDbEntity
  8
DIMENSION
 62
     0
100
AcDbLine
 10
0.0
 20
0.0
 30
0.0
 11
0.0
 21
-0.1
 31
0.0
  0
LINE
  5
2FD
330
2F7
100
AcDbEntity
  8
DIMENSION
 62
     0
100
AcDbLine
 10
0.0
 20
0.0
 30
0.0
 11
0.1
 21
0.0
 31
0.0
  0
LINE
  5
2FE
330
2F7
100
AcDbEntity
  8
DIMENSION
 62
     0
100
AcDbLine
 10
0.0
 20
0.1
 30
0.0
 11
0.0
 21
0.1875250646
 31
0.0
  0
LINE
  5
2FF
330
2F7
100
AcDbEntity
  8
DIMENSION
 62
     0
100
AcDbLine
 10
0.0
 20
-0.1
 30
0.0
 11
0.0
 21
-0.1875250646
 31
0.0
  0
LINE
  5
300
330
2F7
100
AcDbEntity
  8
DIMENSION
 62
     0
100
AcDbLine
 10
0.1
 20
0.0
 30
0.0
 11
0.1875250646
 21
0.0
 31
0.0
  0
LINE
  5
301
330
2F7
100
AcDbEntity
  8
DIMENSION
 62
     0
100
AcDbLine
 10
-4.6181455229
 20
0.0
 30
0.0
 11
-4.6181455229
 21
0.1
 31
0.0
  0
LINE
  5
302
330
2F7
100
AcDbEntity
  8
DIMENSION
 62
     0
100
AcDbLine
 10
-4.6181455229
 20
0.0
 30
0.0
 11
-4.7181455229
 21
0.0
 31
0.0
  0
LINE
  5
303
330
2F7
100
AcDbEntity
  8
DIMENSION
 62
     0
100
AcDbLine
 10
-4.6181455229
 20
0.0
 30
0.0
 11
-4.6181455229
 21
-0.1
 31
0.0
  0
LINE
  5
304
330
2F7
100
AcDbEntity
  8
DIMENSION
 62
     0
100
AcDbLine
 10
-4.6181455229
 20
0.0
 30
0.0
 11
-4.5181455229
 21
0.0
 31
0.0
  0
LINE
  5
305
330
2F7
100
AcDbEntity
  8
DIMENSION
 62
     0
100
AcDbLine
 10
-4.6181455229
 20
0.1
 30
0.0
 11
-4.6181455229
 21
0.1875250646
 31
0.0
  0
LINE
  5
306
330
2F7
100
AcDbEntity
  8
DIMENSION
 62
     0
100
AcDbLine
 10
-4.6181455229
 20
-0.1
 30
0.0
 11
-4.6181455229
 21
-0.1875250646
 31
0.0
  0
LINE
  5
307
330
2F7
100
AcDbEntity
  8
DIMENSION
 62
     0
100
AcDbLine
 10
-9.2362910457
 20
0.0
 30
0.0
 11
-9.2362910457
 21
0.1
 31
0.0
  0
LINE
  5
308
330
2F7
100
AcDbEntity
  8
DIMENSION
 62
     0
100
AcDbLine
 10
-9.2362910457
 20
0.0
 30
0.0
 11
-9.3362910457
 21
0.0
 31
0.0
  0
LINE
  5
309
330
2F7
100
AcDbEntity
  8
DIMENSION
 62
     0
100
AcDbLine
 10
-9.2362910457
 20
0.0
 30
0.0
 11
-9.2362910457
 21
-0.1
 31
0.0
  0
LINE
  5
30A
330
2F7
100
AcDbEntity
  8
DIMENSION
 62
     0
100
AcDbLine
 10
-9.2362910457
 20
0.0
 30
0.0
 11
-9.1362910457
 21
0.0
 31
0.0
  0
LINE
  5
30B
330
2F7
100
AcDbEntity
  8
DIMENSION
 62
     0
100
AcDbLine
 10
-9.2362910457
 20
0.1
 30
0.0
 11
-9.2362910457
 21
0.1875250646
 31
0.0
  0
LINE
  5
30C
330
2F7
100
AcDbEntity
  8
DIMENSION
 62
     0
100
AcDbLine
 10
-9.2362910457
 20
-0.1
 30
0.0
 11
-9.2362910457
 21
-0.1875250646
 31
0.0
  0
LINE
  5
30D
330
2F7
100
AcDbEntity
  8
DIMENSION
 62
     0
100
AcDbLine
 10
-13.8544365686
 20
0.0
 30
0.0
 11
-13.8544365686
 21
0.1
 31
0.0
  0
LINE
  5
30E
330
2F7
100
AcDbEntity
  8
DIMENSION
 62
     0
100
AcDbLine
 10
-13.8544365686
 20
0.0
 30
0.0
 11
-13.9544365686
 21
0.0
 31
0.0
  0
LINE
  5
30F
330
2F7
100
AcDbEntity
  8
DIMENSION
 62
     0
100
AcDbLine
 10
-13.8544365686
 20
0.0
 30
0.0
 11
-13.8544365686
 21
-0.1
 31
0.0
  0
LINE
  5
310
330
2F7
100
AcDbEntity
  8
DIMENSION
 62
     0
100
AcDbLine
 10
-13.8544365686
 20
0.0
 30
0.0
 11
-13.7544365686
 21
0.0
 31
0.0
  0
LINE
  5
311
330
2F7
100
AcDbEntity
  8
DIMENSION
 62
     0
100
AcDbLine
 10
-13.8544365686
 20
0.1
 30
0.0
 11
-13.8544365686
 21
0.1875250646
 31
0.0
  0
LINE
  5
312
330
2F7
100
AcDbEntity
  8
DIMENSION
 62
     0
100
AcDbLine
 10
-13.9544365686
 20
0.0
 30
0.0
 11
-14.0419616331
 21
0.0
 31
0.0
  0
LINE
  5
313
330
2F7
100
AcDbEntity
  8
DIMENSION
 62
     0
100
AcDbLine
 10
-13.8544365686
 20
-0.1
 30
0.0
 11
-13.8544365686
 21
-0.1875250646
 31
0.0
  0
LINE
  5
314
330
2F7
100
AcDbEntity
  8
DIMENSION
 62
     0
100
AcDbLine
 10
-4.4181455229
 20
0.0
 30
0.0
 11
-0.2
 21
0.0
 31
0.0
  0
LINE
  5
315
330
2F7
100
AcDbEntity
  8
DIMENSION
 62
     0
100
AcDbLine
 10
-9.0362910457
 20
0.0
 30
0.0
 11
-4.8181455229
 21
0.0
 31
0.0
  0
LINE
  5
316
330
2F7
100
AcDbEntity
  8
DIMENSION
 62
     0
100
AcDbLine
 10
-13.6544365686
 20
0.0
 30
0.0
 11
-9.4362910457
 21
0.0
 31
0.0
  0
ENDBLK
  5
2F9
330
2F7
100
AcDbEntity
  8
0
100
AcDbBlockEnd
  0
BLOCK
  5
319
330
318
100
AcDbEntity
  8
0
100
AcDbBlockBegin
  2
SW_CENTERMARKSYMBOL_2
 70
     0
 10
0.0
 20
0.0
 30
0.0
  3
SW_CENTERMARKSYMBOL_2
  1

  0
LINE
  5
31B
330
318
100
AcDbEntity
  8
DIMENSION
 62
     0
100
AcDbLine
 10
0.0
 20
0.0
 30
0.0
 11
0.0
 21
0.1
 31
0.0
  0
LINE
  5
31C
330
318
100
AcDbEntity
  8
DIMENSION
 62
     0
100
AcDbLine
 10
0.0
 20
0.0
 30
0.0
 11
-0.1
 21
0.0
 31
0.0
  0
LINE
  5
31D
330
318
100
AcDbEntity
  8
DIMENSION
 62
     0
100
AcDbLine
 10
0.0
 20
0.0
 30
0.0
 11
0.0
 21
-0.1
 31
0.0
  0
LINE
  5
31E
330
318
100
AcDbEntity
  8
DIMENSION
 62
     0
100
AcDbLine
 10
0.0
 20
0.0
 30
0.0
 11
0.1
 21
0.0
 31
0.0
  0
LINE
  5
31F
330
318
100
AcDbEntity
  8
DIMENSION
 62
     0
100
AcDbLine
 10
0.0
 20
0.1
 30
0.0
 11
0.0
 21
0.1875250646
 31
0.0
  0
LINE
  5
320
330
318
100
AcDbEntity
  8
DIMENSION
 62
     0
100
AcDbLine
 10
-0.1
 20
0.0
 30
0.0
 11
-0.1875250646
 21
0.0
 31
0.0
  0
LINE
  5
321
330
318
100
AcDbEntity
  8
DIMENSION
 62
     0
100
AcDbLine
 10
0.1
 20
0.0
 30
0.0
 11
0.1875250646
 21
0.0
 31
0.0
  0
LINE
  5
322
330
318
100
AcDbEntity
  8
DIMENSION
 62
     0
100
AcDbLine
 10
0.0
 20
-4.0457598329
 30
0.0
 11
0.0
 21
-3.9457598329
 31
0.0
  0
LINE
  5
323
330
318
100
AcDbEntity
  8
DIMENSION
 62
     0
100
AcDbLine
 10
0.0
 20
-4.0457598329
 30
0.0
 11
-0.1
 21
-4.0457598329
 31
0.0
  0
LINE
  5
324
330
318
100
AcDbEntity
  8
DIMENSION
 62
     0
100
AcDbLine
 10
0.0
 20
-4.0457598329
 30
0.0
 11
0.0
 21
-4.1457598329
 31
0.0
  0
LINE
  5
325
330
318
100
AcDbEntity
  8
DIMENSION
 62
     0
100
AcDbLine
 10
0.0
 20
-4.0457598329
 30
0.0
 11
0.1
 21
-4.0457598329
 31
0.0
  0
LINE
  5
326
330
318
100
AcDbEntity
  8
DIMENSION
 62
     0
100
AcDbLine
 10
-0.1
 20
-4.0457598329
 30
0.0
 11
-0.1875250646
 21
-4.0457598329
 31
0.0
  0
LINE
  5
327
330
318
100
AcDbEntity
  8
DIMENSION
 62
     0
100
AcDbLine
 10
0.1
 20
-4.0457598329
 30
0.0
 11
0.1875250646
 21
-4.0457598329
 31
0.0
  0
LINE
  5
328
330
318
100
AcDbEntity
  8
DIMENSION
 62
     0
100
AcDbLine
 10
0.0
 20
-8.0915196657
 30
0.0
 11
0.0
 21
-7.9915196657
 31
0.0
  0
LINE
  5
329
330
318
100
AcDbEntity
  8
DIMENSION
 62
     0
100
AcDbLine
 10
0.0
 20
-8.0915196657
 30
0.0
 11
-0.1
 21
-8.0915196657
 31
0.0
  0
LINE
  5
32A
330
318
100
AcDbEntity
  8
DIMENSION
 62
     0
100
AcDbLine
 10
0.0
 20
-8.0915196657
 30
0.0
 11
0.0
 21
-8.1915196657
 31
0.0
  0
LINE
  5
32B
330
318
100
AcDbEntity
  8
DIMENSION
 62
     0
100
AcDbLine
 10
0.0
 20
-8.0915196657
 30
0.0
 11
0.1
 21
-8.0915196657
 31
0.0
  0
LINE
  5
32C
330
318
100
AcDbEntity
  8
DIMENSION
 62
     0
100
AcDbLine
 10
-0.1
 20
-8.0915196657
 30
0.0
 11
-0.1875250646
 21
-8.0915196657
 31
0.0
  0
LINE
  5
32D
330
318
100
AcDbEntity
  8
DIMENSION
 62
     0
100
AcDbLine
 10
0.0
 20
-8.1915196657
 30
0.0
 11
0.0
 21
-8.2790447303
 31
0.0
  0
LINE
  5
32E
330
318
100
AcDbEntity
  8
DIMENSION
 62
     0
100
AcDbLine
 10
0.1
 20
-8.0915196657
 30
0.0
 11
0.1875250646
 21
-8.0915196657
 31
0.0
  0
LINE
  5
32F
330
318
100
AcDbEntity
  8
DIMENSION
 62
     0
100
AcDbLine
 10
0.0
 20
-3.8457598329
 30
0.0
 11
0.0
 21
-0.2
 31
0.0
  0
LINE
  5
330
330
318
100
AcDbEntity
  8
DIMENSION
 62
     0
100
AcDbLine
 10
0.0
 20
-7.8915196657
 30
0.0
 11
0.0
 21
-4.2457598329
 31
0.0
  0
ENDBLK
  5
31A
330
318
100
AcDbEntity
  8
0
100
AcDbBlockEnd
  0
BLOCK
  5
333
330
332
100
AcDbEntity
  8
0
100
AcDbBlockBegin
  2
SW_CENTERMARKSYMBOL_3
 70
     0
 10
0.0
 20
0.0
 30
0.0
  3
SW_CENTERMARKSYMBOL_3
  1

  0
LINE
  5
335
330
332
100
AcDbEntity
  8
DIMENSION
 62
     0
100
AcDbLine
 10
0.0
 20
0.0
 30
0.0
 11
0.0
 21
0.1
 31
0.0
  0
LINE
  5
336
330
332
100
AcDbEntity
  8
DIMENSION
 62
     0
100
AcDbLine
 10
0.0
 20
0.0
 30
0.0
 11
-0.1
 21
0.0
 31
0.0
  0
LINE
  5
337
330
332
100
AcDbEntity
  8
DIMENSION
 62
     0
100
AcDbLine
 10
0.0
 20
0.0
 30
0.0
 11
0.0
 21
-0.1
 31
0.0
  0
LINE
  5
338
330
332
100
AcDbEntity
  8
DIMENSION
 62
     0
100
AcDbLine
 10
0.0
 20
0.0
 30
0.0
 11
0.1
 21
0.0
 31
0.0
  0
LINE
  5
339
330
332
100
AcDbEntity
  8
DIMENSION
 62
     0
100
AcDbLine
 10
0.0
 20
0.1
 30
0.0
 11
0.0
 21
0.1875250646
 31
0.0
  0
LINE
  5
33A
330
332
100
AcDbEntity
  8
DIMENSION
 62
     0
100
AcDbLine
 10
-0.1
 20
0.0
 30
0.0
 11
-0.1875250646
 21
0.0
 31
0.0
  0
LINE
  5
33B
330
332
100
AcDbEntity
  8
DIMENSION
 62
     0
100
AcDbLine
 10
0.0
 20
-0.1
 30
0.0
 11
0.0
 21
-0.1875250646
 31
0.0
  0
LINE
  5
33C
330
332
100
AcDbEntity
  8
DIMENSION
 62
     0
100
AcDbLine
 10
4.6181455229
 20
0.0
 30
0.0
 11
4.6181455229
 21
0.1
 31
0.0
  0
LINE
  5
33D
330
332
100
AcDbEntity
  8
DIMENSION
 62
     0
100
AcDbLine
 10
4.6181455229
 20
0.0
 30
0.0
 11
4.5181455229
 21
0.0
 31
0.0
  0
LINE
  5
33E
330
332
100
AcDbEntity
  8
DIMENSION
 62
     0
100
AcDbLine
 10
4.6181455229
 20
0.0
 30
0.0
 11
4.6181455229
 21
-0.1
 31
0.0
  0
LINE
  5
33F
330
332
100
AcDbEntity
  8
DIMENSION
 62
     0
100
AcDbLine
 10
4.6181455229
 20
0.0
 30
0.0
 11
4.7181455229
 21
0.0
 31
0.0
  0
LINE
  5
340
330
332
100
AcDbEntity
  8
DIMENSION
 62
     0
100
AcDbLine
 10
4.6181455229
 20
0.1
 30
0.0
 11
4.6181455229
 21
0.1875250646
 31
0.0
  0
LINE
  5
341
330
332
100
AcDbEntity
  8
DIMENSION
 62
     0
100
AcDbLine
 10
4.6181455229
 20
-0.1
 30
0.0
 11
4.6181455229
 21
-0.1875250646
 31
0.0
  0
LINE
  5
342
330
332
100
AcDbEntity
  8
DIMENSION
 62
     0
100
AcDbLine
 10
9.2362910457
 20
0.0
 30
0.0
 11
9.2362910457
 21
0.1
 31
0.0
  0
LINE
  5
343
330
332
100
AcDbEntity
  8
DIMENSION
 62
     0
100
AcDbLine
 10
9.2362910457
 20
0.0
 30
0.0
 11
9.1362910457
 21
0.0
 31
0.0
  0
LINE
  5
344
330
332
100
AcDbEntity
  8
DIMENSION
 62
     0
100
AcDbLine
 10
9.2362910457
 20
0.0
 30
0.0
 11
9.2362910457
 21
-0.1
 31
0.0
  0
LINE
  5
345
330
332
100
AcDbEntity
  8
DIMENSION
 62
     0
100
AcDbLine
 10
9.2362910457
 20
0.0
 30
0.0
 11
9.3362910457
 21
0.0
 31
0.0
  0
LINE
  5
346
330
332
100
AcDbEntity
  8
DIMENSION
 62
     0
100
AcDbLine
 10
9.2362910457
 20
0.1
 30
0.0
 11
9.2362910457
 21
0.1875250646
 31
0.0
  0
LINE
  5
347
330
332
100
AcDbEntity
  8
DIMENSION
 62
     0
100
AcDbLine
 10
9.2362910457
 20
-0.1
 30
0.0
 11
9.2362910457
 21
-0.1875250646
 31
0.0
  0
LINE
  5
348
330
332
100
AcDbEntity
  8
DIMENSION
 62
     0
100
AcDbLine
 10
13.8544365686
 20
0.0
 30
0.0
 11
13.8544365686
 21
0.1
 31
0.0
  0
LINE
  5
349
330
332
100
AcDbEntity
  8
DIMENSION
 62
     0
100
AcDbLine
 10
13.8544365686
 20
0.0
 30
0.0
 11
13.7544365686
 21
0.0
 31
0.0
  0
LINE
  5
34A
330
332
100
AcDbEntity
  8
DIMENSION
 62
     0
100
AcDbLine
 10
13.8544365686
 20
0.0
 30
0.0
 11
13.8544365686
 21
-0.1
 31
0.0
  0
LINE
  5
34B
330
332
100
AcDbEntity
  8
DIMENSION
 62
     0
100
AcDbLine
 10
13.8544365686
 20
0.0
 30
0.0
 11
13.9544365686
 21
0.0
 31
0.0
  0
LINE
  5
34C
330
332
100
AcDbEntity
  8
DIMENSION
 62
     0
100
AcDbLine
 10
13.8544365686
 20
0.1
 30
0.0
 11
13.8544365686
 21
0.1875250646
 31
0.0
  0
LINE
  5
34D
330
332
100
AcDbEntity
  8
DIMENSION
 62
     0
100
AcDbLine
 10
13.8544365686
 20
-0.1
 30
0.0
 11
13.8544365686
 21
-0.1875250646
 31
0.0
  0
LINE
  5
34E
330
332
100
AcDbEntity
  8
DIMENSION
 62
     0
100
AcDbLine
 10
13.9544365686
 20
0.0
 30
0.0
 11
14.0419616331
 21
0.0
 31
0.0
  0
LINE
  5
34F
330
332
100
AcDbEntity
  8
DIMENSION
 62
     0
100
AcDbLine
 10
0.2
 20
0.0
 30
0.0
 11
4.4181455229
 21
0.0
 31
0.0
  0
LINE
  5
350
330
332
100
AcDbEntity
  8
DIMENSION
 62
     0
100
AcDbLine
 10
4.8181455229
 20
0.0
 30
0.0
 11
9.0362910457
 21
0.0
 31
0.0
  0
LINE
  5
351
330
332
100
AcDbEntity
  8
DIMENSION
 62
     0
100
AcDbLine
 10
9.4362910457
 20
0.0
 30
0.0
 11
13.6544365686
 21
0.0
 31
0.0
  0
ENDBLK
  5
334
330
332
100
AcDbEntity
  8
0
100
AcDbBlockEnd
  0
BLOCK
  5
35F
330
35E
100
AcDbEntity
  8
0
100
AcDbBlockBegin
  2
_D_15
 70
     0
 10
0.0
 20
0.0
 30
0.0
  3
_D_15
  1

  0
SOLID
  5
361
330
35E
100
AcDbEntity
  8
DIMENSION
100
AcDbTrace
 10
38.4271262695
 20
26.4316084726
 30
0.0
 11
38.0937929362
 21
26.4828905238
 31
0.0
 12
38.0937929362
 22
26.3803264213
 32
0.0
 13
38.0937929362
 23
26.3803264213
 33
0.0
  0
SOLID
  5
362
330
35E
100
AcDbEntity
  8
DIMENSION
100
AcDbTrace
 10
38.6146262695
 20
26.4316084726
 30
0.0
 11
38.9479596028
 21
26.3803264213
 31
0.0
 12
38.9479596028
 22
26.4828905238
 32
0.0
 13
38.9479596028
 23
26.4828905238
 33
0.0
  0
LINE
  5
363
330
35E
100
AcDbEntity
  8
DIMENSION
100
AcDbLine
 10
40.3840957995
 20
26.4316084359
 30
0.0
 11
40.2827069091
 21
26.4316084359
 31
0.0
  0
LINE
  5
364
330
35E
100
AcDbEntity
  8
DIMENSION
100
AcDbLine
 10
40.2827069091
 20
26.4316084359
 30
0.0
 11
40.2827069091
 21
25.9019788175
 31
0.0
  0
LINE
  5
365
330
35E
100
AcDbEntity
  8
DIMENSION
100
AcDbLine
 10
40.2827069091
 20
25.9019788175
 30
0.0
 11
40.3840957995
 21
25.9019788175
 31
0.0
  0
LINE
  5
366
330
35E
100
AcDbEntity
  8
DIMENSION
100
AcDbLine
 10
41.2458242314
 20
26.4316084359
 30
0.0
 11
41.3472131218
 21
26.4316084359
 31
0.0
  0
LINE
  5
367
330
35E
100
AcDbEntity
  8
DIMENSION
100
AcDbLine
 10
41.3472131218
 20
26.4316084359
 30
0.0
 11
41.3472131218
 21
25.9019788175
 31
0.0
  0
LINE
  5
368
330
35E
100
AcDbEntity
  8
DIMENSION
100
AcDbLine
 10
41.3472131218
 20
25.9019788175
 30
0.0
 11
41.2458242314
 21
25.9019788175
 31
0.0
  0
LINE
  5
369
330
35E
100
AcDbEntity
  8
DIMENSION
100
AcDbLine
 10
38.4271262695
 20
24.3832722107
 30
0.0
 11
38.4271262695
 21
26.9316084726
 31
0.0
  0
LINE
  5
36A
330
35E
100
AcDbEntity
  8
DIMENSION
100
AcDbLine
 10
38.6146262695
 20
24.3832722107
 30
0.0
 11
38.6146262695
 21
26.9316084726
 31
0.0
  0
LINE
  5
36B
330
35E
100
AcDbEntity
  8
DIMENSION
100
AcDbLine
 10
38.4271262695
 20
26.4316084726
 30
0.0
 11
37.7861006285
 21
26.4316084726
 31
0.0
  0
LINE
  5
36C
330
35E
100
AcDbEntity
  8
DIMENSION
100
AcDbLine
 10
38.6146262695
 20
26.4316084726
 30
0.0
 11
39.868037883
 21
26.4316084726
 31
0.0
  0
MTEXT
  5
36D
330
35E
100
AcDbEntity
  8
DIMENSION
100
AcDbMText
 10
40.1856390101
 20
26.92889027
 30
0.0
 40
0.3333333333
 41
0.0
 71
     1
 72
     1
  1

  7
SLDTEXTSTYLE1
 73
     1
 44
1.0
  0
MTEXT
  5
36E
330
35E
100
AcDbEntity
  8
DIMENSION
100
AcDbMText
 10
40.3840957628
 20
26.92889027
 30
0.0
 40
0.3333333333
 41
0.0
 71
     1
 72
     1
  1
.188
  7
SLDTEXTSTYLE1
 73
     1
 44
1.0
  0
MTEXT
  5
36F
330
35E
100
AcDbEntity
  8
DIMENSION
100
AcDbMText
 10
40.3840957995
 20
26.3316680458
 30
0.0
 40
0.3333333333
 41
0.0
 71
     1
 72
     1
  1
4.76
  7
SLDTEXTSTYLE1
 73
     1
 44
1.0
  0
MTEXT
  5
370
330
35E
100
AcDbEntity
  8
DIMENSION
100
AcDbMText
 10
41.6986020122
 20
26.92889027
 30
0.0
 40
0.3333333333
 41
0.0
 71
     1
 72
     1
  1

  7
SLDTEXTSTYLE1
 73
     1
 44
1.0
  0
ENDBLK
  5
360
330
35E
100
AcDbEntity
  8
0
100
AcDbBlockEnd
  0
ENDSEC
  0
SECTION
  2
ENTITIES
  0
LINE
  5
163
330
1F
100
AcDbEntity
  8
0
  6
Continuous
 62
     7
370
    25
100
AcDbLine
 10
1.1288512693
 20
32.6876904223
 30
0.0
 11
42.519708
 21
32.6876904223
 31
0.0
  0
LINE
  5
164
330
1F
100
AcDbEntity
  8
0
  6
Continuous
 62
     7
370
    25
100
AcDbLine
 10
1.1288512693
 20
32.6876904223
 30
0.0
 11
1.1288512693
 21
1.5682926829
 31
0.0
  0
LINE
  5
165
330
1F
100
AcDbEntity
  8
0
  6
Continuous
 62
     7
370
    25
100
AcDbLine
 10
42.519708
 20
1.5682926829
 30
0.0
 11
1.1288512693
 21
1.5682926829
 31
0.0
  0
LINE
  5
166
330
1F
100
AcDbEntity
  8
0
  6
Continuous
 62
     7
370
    25
100
AcDbLine
 10
42.519708
 20
1.5682926829
 30
0.0
 11
42.519708
 21
32.6876904223
 31
0.0
  0
LINE
  5
167
330
1F
100
AcDbEntity
  8
0
  6
Continuous
 62
     7
370
    18
100
AcDbLine
 10
20.8983852231
 20
1.5682926829
 30
0.0
 11
20.8983852231
 21
3.0898872481
 31
0.0
  0
LINE
  5
168
330
1F
100
AcDbEntity
  8
0
  6
Continuous
 62
     7
370
    18
100
AcDbLine
 10
25.8947265625
 20
1.5682926829
 30
0.0
 11
25.8947265625
 21
3.0898872481
 31
0.0
  0
LINE
  5
169
330
1F
100
AcDbEntity
  8
0
  6
Continuous
 62
     7
370
    18
100
AcDbLine
 10
40.6035149437
 20
1.5682926829
 30
0.0
 11
40.6035149437
 21
3.0898872481
 31
0.0
  0
LINE
  5
16A
330
1F
100
AcDbEntity
  8
0
  6
Continuous
 62
     7
370
    18
100
AcDbLine
 10
23.0734263946
 20
32.6876904223
 30
0.0
 11
23.0734263946
 21
30.6094365524
 31
0.0
  0
LINE
  5
16B
330
1F
100
AcDbEntity
  8
0
  6
Continuous
 62
     7
370
    25
100
AcDbLine
 10
1.1288512693
 20
28.5311826825
 30
0.0
 11
42.519708
 21
28.5311826825
 31
0.0
  0
LINE
  5
16C
330
1F
100
AcDbEntity
  8
0
  6
Continuous
 62
     7
370
    18
100
AcDbLine
 10
11.6061571917
 20
32.6876904223
 30
0.0
 11
11.6061571917
 21
28.5311826825
 31
0.0
  0
LINE
  5
16D
330
1F
100
AcDbEntity
  8
0
  6
Continuous
 62
     7
370
    18
100
AcDbLine
 10
31.0369870201
 20
32.6876904223
 30
0.0
 11
31.0369870201
 21
28.5311826825
 31
0.0
  0
LINE
  5
16E
330
1F
100
AcDbEntity
  8
0
  6
Continuous
 62
     7
370
    18
100
AcDbLine
 10
42.519708
 20
28.5311826825
 30
0.0
 11
31.0369870201
 21
28.5311826825
 31
0.0
  0
LINE
  5
16F
330
1F
100
AcDbEntity
  8
0
  6
Continuous
 62
     7
370
    25
100
AcDbLine
 10
42.519708
 20
3.0898872481
 30
0.0
 11
1.1288512693
 21
3.0898872481
 31
0.0
  0
LINE
  5
170
330
1F
100
AcDbEntity
  8
0
  6
Continuous
 62
     7
370
    18
100
AcDbLine
 10
11.6061571917
 20
30.6094365524
 30
0.0
 11
42.519708
 21
30.6094365524
 31
0.0
  0
INSERT
  5
171
330
1F
100
AcDbEntity
  8
0
  6
Continuous
 62
     7
100
AcDbBlockReference
  2
Block17_1_1_1_1
 10
1.4468265509
 20
31.1839286517
 30
0.0
  0
MTEXT
  5
173
330
1F
100
AcDbEntity
  8
0
  6
Continuous
 62
     7
370
     0
100
AcDbMText
 10
21.8136333926
 20
2.0647460682
 30
0.0
 40
0.25
 41
0.0
 71
     1
 72
     1
  1
ÉCHELLE_SCALE 1:4
  7
SLDTEXTSTYLE0
 73
     1
 44
1.0
  0
INSERT
  5
17B
330
1F
100
AcDbEntity
  8
0
  6
Continuous
 62
     7
370
     0
100
AcDbBlockReference
  2
SW_NOTE_0
 10
1.3810283502
 20
2.6631831736
 30
0.0
  0
MTEXT
  5
17C
330
1F
100
AcDbEntity
  8
0
  6
Continuous
 62
     7
370
     0
100
AcDbMText
 10
11.8898934928
 20
32.1939467434
 30
0.0
 40
0.5833333333
 41
0.0
 71
     1
 72
     1
  1
LEXAN BEZEL PLATE_TOP
  7
SLDTEXTSTYLE0
 73
     1
 44
1.0
  0
MTEXT
  5
17D
330
1F
100
AcDbEntity
  8
0
  6
Continuous
 62
     7
370
     0
100
AcDbMText
 10
11.9261444134
 20
31.1048761781
 30
0.0
 40
0.25
 41
0.0
 71
     1
 72
     1
  1
PROJET_PROJECT
  7
SLDTEXTSTYLE0
 73
     1
 44
1.0
  0
MTEXT
  5
17E
330
1F
100
AcDbEntity
  8
0
  6
Continuous
 62
     7
370
     0
100
AcDbMText
 10
26.2684892926
 20
2.0647460682
 30
0.0
 40
0.25
 41
0.0
 71
     1
 72
     1
  1
REPÉSENTANT_REPRESENTATIVE
  7
SLDTEXTSTYLE0
 73
     1
 44
1.0
  0
MTEXT
  5
17F
330
1F
100
AcDbEntity
  8
0
  6
Continuous
 62
     7
370
     0
100
AcDbMText
 10
32.2214197957
 20
2.1025471758
 30
0.0
 40
0.25
 41
0.0
 71
     1
 72
     1
  1
CONCEPTEUR_DESIGNER
  7
SLDTEXTSTYLE0
 73
     1
 44
1.0
  0
MTEXT
  5
180
330
1F
100
AcDbEntity
  8
0
  6
Continuous
 62
     7
370
     0
100
AcDbMText
 10
38.1020901793
 20
2.0961427879
 30
0.0
 40
0.25
 41
0.0
 71
     1
 72
     1
  1
DATE
  7
SLDTEXTSTYLE0
 73
     1
 44
1.0
  0
MTEXT
  5
181
330
1F
100
AcDbEntity
  8
0
  6
Continuous
 62
     7
370
     0
100
AcDbMText
 10
40.9413185072
 20
2.7102645205
 30
0.0
 40
0.6666666667
 41
0.0
 71
     1
 72
     1
  1
2/2
  7
SLDTEXTSTYLE0
 73
     1
 44
1.0
  0
MTEXT
  5
182
330
1F
100
AcDbEntity
  8
0
  6
Continuous
 62
     7
370
     0
100
AcDbMText
 10
33.549144619
 20
2.6925972473
 30
0.0
 40
0.2916666667
 41
0.0
 71
     2
 72
     1
  1
Sylvain Charria
  7
SLDTEXTSTYLE0
 73
     1
 44
1.0
  0
MTEXT
  5
183
330
1F
100
AcDbEntity
  8
0
  6
Continuous
 62
     7
370
     0
100
AcDbMText
 10
39.0766080037
 20
2.6925972473
 30
0.0
 40
0.2916666667
 41
0.0
 71
     2
 72
     1
  1
2019-06-26
  7
SLDTEXTSTYLE0
 73
     1
 44
1.0
  0
INSERT
  5
18C
330
1F
100
AcDbEntity
  8
LAYER1
100
AcDbBlockReference
  2
SW_NOTE_1
 10
3.405201033
 20
30.5484200556
 30
0.0
  0
INSERT
  5
192
330
1F
100
AcDbEntity
  8
LAYER1
 62
     7
100
AcDbBlockReference
  2
SW_NOTE_2
 10
30.0975333906
 20
3.543405296
 30
0.0
  0
MTEXT
  5
193
330
1F
100
AcDbEntity
  8
LAYER1
 62
     7
100
AcDbMText
 10
23.3720721119
 20
31.1048761781
 30
0.0
 40
0.25
 41
0.0
 71
     1
 72
     1
  1
PRODUIT_PRODUCT
  7
SLDTEXTSTYLE0
 73
     1
 44
1.0
  0
MTEXT
  5
194
330
1F
100
AcDbEntity
  8
LAYER1
 62
     7
100
AcDbMText
 10
31.2842419116
 20
32.1575743617
 30
0.0
 40
0.4166666667
 41
0.0
 71
     1
 72
     1
  1
925_LEXAN BEZEL PLATE_TOP a.00
  7
SLDTEXTSTYLE0
 73
     1
 44
1.0
  0
MTEXT
  5
195
330
1F
100
AcDbEntity
  8
LAYER1
 62
     7
100
AcDbMText
 10
31.2842419116
 20
31.236819886
 30
0.0
 40
0.25
 41
0.0
 71
     1
 72
     1
  1
DESSIN_DRAWING
  7
SLDTEXTSTYLE0
 73
     1
 44
1.0
  0
MTEXT
  5
196
330
1F
100
AcDbEntity
  8
LAYER1
 62
     7
100
AcDbMText
 10
42.2048220594
 20
31.2320034999
 30
0.0
 40
0.25
 41
0.0
 71
     3
 72
     1
  1
STATUS
  7
SLDTEXTSTYLE0
 73
     1
 44
1.0
  0
MTEXT
  5
197
330
1F
100
AcDbEntity
  8
LAYER1
 62
     7
100
AcDbMText
 10
31.2842419116
 20
29.1548085385
 30
0.0
 40
0.25
 41
0.0
 71
     1
 72
     1
  1
TOLÉRANCE_TOLERANCE
  7
SLDTEXTSTYLE0
 73
     1
 44
1.0
  0
MTEXT
  5
198
330
1F
100
AcDbEntity
  8
LAYER1
 62
     7
100
AcDbMText
 10
31.2842419116
 20
30.0721496238
 30
0.0
 40
0.5833333333
 41
0.0
 71
     1
 72
     1
  1
±.010" [±0.2mm]
  7
SLDTEXTSTYLE0
 73
     1
 44
1.0
  0
MTEXT
  5
199
330
1F
100
AcDbEntity
  8
DIMENSION
 62
     7
100
AcDbMText
 10
27.6542580829
 20
2.6925972473
 30
0.0
 40
0.2916666667
 41
0.0
 71
     2
 72
     1
  1
Benjamin Coley
  7
SLDTEXTSTYLE0
 73
     1
 44
1.0
  0
MTEXT
  5
19A
330
1F
100
AcDbEntity
  8
DIMENSION
 62
     7
100
AcDbMText
 10
11.904802909
 20
29.1548085385
 30
0.0
 40
0.25
 41
0.0
 71
     1
 72
     1
  1
MATÉRIEL_MATERIAL
  7
SLDTEXTSTYLE0
 73
     1
 44
1.0
  0
MTEXT
  5
19B
330
1F
100
AcDbEntity
  8
DIMENSION
 62
     7
100
AcDbMText
 10
11.904802909
 20
30.0721496238
 30
0.0
 40
0.5833333333
 41
0.0
 71
     1
 72
     1
  1
LEXAN TRANSPARENT_CLEAR LEXAN 3/16"
  7
SLDTEXTSTYLE0
 73
     1
 44
1.0
  0
MTEXT
  5
19C
330
1F
100
AcDbEntity
  8
DIMENSION
 62
     7
100
AcDbMText
 10
23.4141332775
 20
32.1939467434
 30
0.0
 40
0.5833333333
 41
0.0
 71
     1
 72
     1
  1
925-NANUK
  7
SLDTEXTSTYLE0
 73
     1
 44
1.0
  0
CIRCLE
  5
19D
330
1F
100
AcDbEntity
  8
0
  6
Continuous
 62
     7
370
    18
100
AcDbCircle
 10
11.4780377693
 20
22.1415718756
 30
0.0
 40
0.087525064551464
  0
CIRCLE
  5
19E
330
1F
100
AcDbEntity
  8
0
  6
Continuous
 62
     7
370
    18
100
AcDbCircle
 10
26.9033727228
 20
12.2226453734
 30
0.0
 40
0.0875250645514605
  0
CIRCLE
  5
19F
330
1F
100
AcDbEntity
  8
0
  6
Continuous
 62
     7
370
    18
100
AcDbCircle
 10
28.4742711078
 20
18.0958120427
 30
0.0
 40
0.0875250645514605
  0
CIRCLE
  5
1A0
330
1F
100
AcDbEntity
  8
0
  6
Continuous
 62
     7
370
    18
100
AcDbCircle
 10
22.2852272
 20
23.968978712
 30
0.0
 40
0.0875250645514605
  0
CIRCLE
  5
1A1
330
1F
100
AcDbEntity
  8
0
  6
Continuous
 62
     7
370
    18
100
AcDbCircle
 10
26.9033727228
 20
23.968978712
 30
0.0
 40
0.0875250645514605
  0
CIRCLE
  5
1A2
330
1F
100
AcDbEntity
  8
0
  6
Continuous
 62
     7
370
    18
100
AcDbCircle
 10
28.4742711078
 20
22.1415718756
 30
0.0
 40
0.087525064551464
  0
CIRCLE
  5
1A3
330
1F
100
AcDbEntity
  8
0
  6
Continuous
 62
     7
370
    18
100
AcDbCircle
 10
13.0489361542
 20
23.968978712
 30
0.0
 40
0.0875250645514605
  0
CIRCLE
  5
1A4
330
1F
100
AcDbEntity
  8
0
  6
Continuous
 62
     7
370
    18
100
AcDbCircle
 10
17.6670816771
 20
23.968978712
 30
0.0
 40
0.0875250645514605
  0
CIRCLE
  5
1A5
330
1F
100
AcDbEntity
  8
0
  6
Continuous
 62
     7
370
    18
100
AcDbCircle
 10
11.4780377693
 20
18.0958120427
 30
0.0
 40
0.0875250645514605
  0
CIRCLE
  5
1A6
330
1F
100
AcDbEntity
  8
0
  6
Continuous
 62
     7
370
    18
100
AcDbCircle
 10
13.0489361542
 20
12.2226453734
 30
0.0
 40
0.0875250645514605
  0
CIRCLE
  5
1A7
330
1F
100
AcDbEntity
  8
0
  6
Continuous
 62
     7
370
    18
100
AcDbCircle
 10
11.4780377693
 20
14.0500522098
 30
0.0
 40
0.0875250645514623
  0
CIRCLE
  5
1A8
330
1F
100
AcDbEntity
  8
0
  6
Continuous
 62
     7
370
    18
100
AcDbCircle
 10
17.6670816771
 20
12.2226453734
 30
0.0
 40
0.0875250645514605
  0
CIRCLE
  5
1A9
330
1F
100
AcDbEntity
  8
0
  6
Continuous
 62
     7
370
    18
100
AcDbCircle
 10
22.2852272
 20
12.2226453734
 30
0.0
 40
0.0875250645514605
  0
CIRCLE
  5
1AA
330
1F
100
AcDbEntity
  8
0
  6
Continuous
 62
     7
370
    18
100
AcDbCircle
 10
28.4742711078
 20
14.0500522098
 30
0.0
 40
0.0875250645514623
  0
LINE
  5
1AB
330
1F
100
AcDbEntity
  8
0
  6
Continuous
 62
     7
370
    18
100
AcDbLine
 10
12.1797604949
 20
24.1832722107
 30
0.0
 11
27.7725483821
 21
24.1832722107
 31
0.0
  0
ARC
  5
1AC
330
1F
100
AcDbEntity
  8
0
  6
Continuous
 62
     7
370
    18
100
AcDbCircle
 10
12.1797604949
 20
23.2672559863
 30
0.0
 40
0.9160162243652703
100
AcDbArc
 50
89.9999999997
 51
180.0
  0
LINE
  5
1AD
330
1F
100
AcDbEntity
  8
0
  6
Continuous
 62
     7
370
    18
100
AcDbLine
 10
11.2637442706
 20
12.9243680991
 30
0.0
 11
11.2637442706
 21
23.2672559863
 31
0.0
  0
ARC
  5
1AE
330
1F
100
AcDbEntity
  8
0
  6
Continuous
 62
     7
370
    18
100
AcDbCircle
 10
12.1797604949
 20
12.9243680991
 30
0.0
 40
0.9160162243652739
100
AcDbArc
 50
180.0
 51
269.9999999997
  0
LINE
  5
1AF
330
1F
100
AcDbEntity
  8
0
  6
Continuous
 62
     7
370
    18
100
AcDbLine
 10
27.7725483822
 20
12.0083518747
 30
0.0
 11
12.1797604949
 21
12.0083518747
 31
0.0
  0
ARC
  5
1B0
330
1F
100
AcDbEntity
  8
0
  6
Continuous
 62
     7
370
    18
100
AcDbCircle
 10
27.7725483822
 20
12.9243680991
 30
0.0
 40
0.9160162243652756
100
AcDbArc
 50
270.0000000003
 51
0.0
  0
LINE
  5
1B1
330
1F
100
AcDbEntity
  8
0
  6
Continuous
 62
     7
370
    18
100
AcDbLine
 10
28.6885646065
 20
23.2672559863
 30
0.0
 11
28.6885646065
 21
12.9243680991
 31
0.0
  0
ARC
  5
1B2
330
1F
100
AcDbEntity
  8
0
  6
Continuous
 62
     7
370
    18
100
AcDbCircle
 10
27.7725483822
 20
23.2672559863
 30
0.0
 40
0.9160162243652685
100
AcDbArc
 50
0.0
 51
90.0000000003
  0
DIMENSION
  5
1B3
330
1F
100
AcDbEntity
  8
DIMENSION
100
AcDbDimension
  2
_D
 10
11.2637442706
 20
24.6302444473
 30
0.0
 11
8.4445611927
 21
24.6302444473
 31
0.0
 70
   160
  1
<>
 71
     2
 42
-1.0
  3
SLDDIMSTYLE0
100
AcDbAlignedDimension
 13
11.4780377693
 23
21.954046811
 33
0.0
 14
11.2637442706
 24
23.2672559863
 34
0.0
100
AcDbRotatedDimension
  0
DIMENSION
  5
1C9
330
1F
100
AcDbEntity
  8
DIMENSION
100
AcDbDimension
  2
_D_1
 10
28.6885646065
 20
27.3348621848
 30
0.0
 11
19.5441087412
 21
27.3348621848
 31
0.0
 70
   160
  1
<>
 71
     2
 42
-1.0
  3
SLDDIMSTYLE1
100
AcDbAlignedDimension
 13
11.2637442706
 23
23.2672559863
 33
0.0
 14
28.6885646065
 24
23.2672559863
 34
0.0
100
AcDbRotatedDimension
  0
DIMENSION
  5
1DE
330
1F
100
AcDbEntity
  8
DIMENSION
100
AcDbDimension
  2
_D_2
 10
28.4742711078
 20
25.7580753603
 30
0.0
 11
19.5441087412
 21
25.7580753603
 31
0.0
 70
   160
  1
<>
 71
     2
 42
-1.0
  3
SLDDIMSTYLE1
100
AcDbAlignedDimension
 13
11.2637442706
 23
23.2672559863
 33
0.0
 14
28.4742711078
 24
21.954046811
 34
0.0
100
AcDbRotatedDimension
  0
DIMENSION
  5
1F2
330
1F
100
AcDbEntity
  8
DIMENSION
100
AcDbDimension
  2
_D_3
 10
35.2972273058
 20
12.0083518747
 30
0.0
 11
35.2972273058
 21
18.1463503349
 31
0.0
 70
   160
  1
<>
 71
     2
 42
-1.0
  3
SLDDIMSTYLE1
100
AcDbAlignedDimension
 13
27.7725483821
 23
24.1832722107
 33
0.0
 14
27.7725483822
 24
12.0083518747
 34
0.0
 50
90.0
100
AcDbRotatedDimension
  0
DIMENSION
  5
206
330
1F
100
AcDbEntity
  8
DIMENSION
100
AcDbDimension
  2
_D_4
 10
32.8537145802
 20
12.0083518747
 30
0.0
 11
32.8537145802
 21
18.1463503349
 31
0.0
 70
   160
  1
<>
 71
     2
 42
-1.0
  3
SLDDIMSTYLE1
100
AcDbAlignedDimension
 13
26.7158476583
 23
23.968978712
 33
0.0
 14
27.7725483822
 24
12.0083518747
 34
0.0
 50
90.0
100
AcDbRotatedDimension
  0
DIMENSION
  5
21A
330
1F
100
AcDbEntity
  8
DIMENSION
100
AcDbDimension
  2
_D_5
 10
29.737010079
 20
12.0083518747
 30
0.0
 11
29.737010079
 21
10.4335487251
 31
0.0
 70
   160
  1
<>
 71
     2
 42
-1.0
  3
SLDDIMSTYLE0
100
AcDbAlignedDimension
 13
26.7158476583
 23
12.2226453734
 33
0.0
 14
27.7725483822
 24
12.0083518747
 34
0.0
 50
90.0
100
AcDbRotatedDimension
  0
DIMENSION
  5
22F
330
1F
100
AcDbEntity
  8
DIMENSION
100
AcDbDimension
  2
_D_6
 10
9.6889411209
 20
14.0500522098
 30
0.0
 11
9.6889411209
 21
13.0879414312
 31
0.0
 70
   160
  1
<>
 71
     2
 42
-1.0
  3
SLDDIMSTYLE0
100
AcDbAlignedDimension
 13
12.1797604949
 23
12.0083518747
 33
0.0
 14
11.4780377693
 24
14.0500522098
 34
0.0
 50
90.0
100
AcDbRotatedDimension
  0
DIMENSION
  5
243
330
1F
100
AcDbEntity
  8
DIMENSION
100
AcDbDimension
  2
_D_7
 10
7.3012174909
 20
18.0958120427
 30
0.0
 11
7.3012174909
 21
15.7328099956
 31
0.0
 70
   160
  1
<>
 71
     2
 42
-1.0
  3
SLDDIMSTYLE1
100
AcDbAlignedDimension
 13
12.1797604949
 23
12.0083518747
 33
0.0
 14
11.4780377693
 24
18.0958120427
 34
0.0
 50
90.0
100
AcDbRotatedDimension
  0
DIMENSION
  5
257
330
1F
100
AcDbEntity
  8
DIMENSION
100
AcDbDimension
  2
_D_8
 10
4.4673080352
 20
22.1415718756
 30
0.0
 11
4.4673080352
 21
17.3514226733
 31
0.0
 70
   160
  1
<>
 71
     2
 42
-1.0
  3
SLDDIMSTYLE1
100
AcDbAlignedDimension
 13
12.1797604949
 23
12.0083518747
 33
0.0
 14
11.4780377693
 24
22.1415718756
 34
0.0
 50
90.0
100
AcDbRotatedDimension
  0
DIMENSION
  5
26B
330
1F
100
AcDbEntity
  8
DIMENSION
100
AcDbDimension
  2
_D_9
 10
13.0489361542
 20
10.4335487251
 30
0.0
 11
12.1844072683
 21
10.4335487251
 31
0.0
 70
   160
  1
<>
 71
     2
 42
-1.0
  3
SLDDIMSTYLE0
100
AcDbAlignedDimension
 13
11.2637442706
 23
12.9243680991
 33
0.0
 14
13.0489361542
 24
12.2226453734
 34
0.0
100
AcDbRotatedDimension
  0
DIMENSION
  5
27F
330
1F
100
AcDbEntity
  8
DIMENSION
100
AcDbDimension
  2
_D_10
 10
17.6670816771
 20
8.5437849456
 30
0.0
 11
14.3662300224
 21
8.5437849456
 31
0.0
 70
   160
  1
<>
 71
     2
 42
-1.0
  3
SLDDIMSTYLE1
100
AcDbAlignedDimension
 13
11.2637442706
 23
12.9243680991
 33
0.0
 14
17.6670816771
 24
12.2226453734
 34
0.0
 50
0.0
100
AcDbRotatedDimension
  0
DIMENSION
  5
293
330
1F
100
AcDbEntity
  8
DIMENSION
100
AcDbDimension
  2
_D_11
 10
22.2852272
 20
6.6540211661
 30
0.0
 11
16.859935551
 21
6.6540211661
 31
0.0
 70
   160
  1
<>
 71
     2
 42
-1.0
  3
SLDDIMSTYLE1
100
AcDbAlignedDimension
 13
11.2637442706
 23
12.9243680991
 33
0.0
 14
22.2852272
 24
12.2226453734
 34
0.0
 50
0.0
100
AcDbRotatedDimension
  0
DIMENSION
  5
2A7
330
1F
100
AcDbEntity
  8
DIMENSION
100
AcDbDimension
  2
_D_12
 10
26.9033727228
 20
4.7642573865
 30
0.0
 11
19.5441087412
 21
4.7642573865
 31
0.0
 70
   160
  1
<>
 71
     2
 42
-1.0
  3
SLDDIMSTYLE2
100
AcDbAlignedDimension
 13
11.2637442706
 23
12.9243680991
 33
0.0
 14
26.9033727228
 24
12.2226453734
 34
0.0
 50
0.0
100
AcDbRotatedDimension
  0
DIMENSION
  5
2BC
330
1F
100
AcDbEntity
  8
DIMENSION
100
AcDbDimension
  2
_D_13
 10
27.7725483822
 20
12.9243680991
 30
0.0
 11
30.849942369
 21
7.995807513
 31
0.0
 70
   164
  1
<>
 71
     1
 42
-1.0
  3
SLDDIMSTYLE3
100
AcDbRadialDimension
 15
28.0096308267
 25
12.0395643707
 35
0.0
 40
0.0
  0
DIMENSION
  5
2CC
330
1F
100
AcDbEntity
  8
DIMENSION
100
AcDbDimension
  2
_D_14
 10
28.3984721784
 20
14.0938147421
 30
0.0
 11
30.921695504
 21
13.6083872677
 31
0.0
 70
   163
  1
<>
 71
     1
 42
-1.0
  3
SLDDIMSTYLE4
100
AcDbDiametricDimension
 15
28.5500700372
 25
14.0062896776
 35
0.0
 40
0.0
  0
INSERT
  5
2F6
330
1F
100
AcDbEntity
  8
DIMENSION
100
AcDbBlockReference
  2
SW_CENTERMARKSYMBOL_0
 10
28.4742711078
 20
14.0500522098
 30
0.0
  0
INSERT
  5
317
330
1F
100
AcDbEntity
  8
DIMENSION
100
AcDbBlockReference
  2
SW_CENTERMARKSYMBOL_1
 10
26.9033727228
 20
23.968978712
 30
0.0
  0
INSERT
  5
331
330
1F
100
AcDbEntity
  8
DIMENSION
100
AcDbBlockReference
  2
SW_CENTERMARKSYMBOL_2
 10
11.4780377693
 20
22.1415718756
 30
0.0
  0
INSERT
  5
352
330
1F
100
AcDbEntity
  8
DIMENSION
100
AcDbBlockReference
  2
SW_CENTERMARKSYMBOL_3
 10
13.0489361542
 20
12.2226453734
 30
0.0
  0
LINE
  5
353
330
1F
100
AcDbEntity
  8
0
  6
Continuous
 62
     7
370
    18
100
AcDbLine
 10
38.6146262695
 20
24.1832722107
 30
0.0
 11
38.4271262695
 21
24.1832722107
 31
0.0
  0
LINE
  5
354
330
1F
100
AcDbEntity
  8
0
  6
Continuous
 62
     7
370
    18
100
AcDbLine
 10
38.6146262695
 20
24.1832722107
 30
0.0
 11
38.6146262695
 21
23.2672559863
 31
0.0
  0
LINE
  5
355
330
1F
100
AcDbEntity
  8
0
  6
Continuous
 62
     7
370
    18
100
AcDbLine
 10
38.6146262695
 20
23.2672559863
 30
0.0
 11
38.4271262695
 21
23.2672559863
 31
0.0
  0
LINE
  5
356
330
1F
100
AcDbEntity
  8
0
  6
Continuous
 62
     7
370
    18
100
AcDbLine
 10
38.4271262695
 20
24.1832722107
 30
0.0
 11
38.4271262695
 21
23.2672559863
 31
0.0
  0
LINE
  5
357
330
1F
100
AcDbEntity
  8
0
  6
Continuous
 62
     7
370
    18
100
AcDbLine
 10
38.6146262695
 20
23.2672559863
 30
0.0
 11
38.6146262695
 21
12.9243680991
 31
0.0
  0
LINE
  5
358
330
1F
100
AcDbEntity
  8
0
  6
Continuous
 62
     7
370
    18
100
AcDbLine
 10
38.6146262695
 20
12.9243680991
 30
0.0
 11
38.4271262695
 21
12.9243680991
 31
0.0
  0
LINE
  5
359
330
1F
100
AcDbEntity
  8
0
  6
Continuous
 62
     7
370
    18
100
AcDbLine
 10
38.4271262695
 20
23.2672559863
 30
0.0
 11
38.4271262695
 21
12.9243680991
 31
0.0
  0
LINE
  5
35A
330
1F
100
AcDbEntity
  8
0
  6
Continuous
 62
     7
370
    18
100
AcDbLine
 10
38.6146262695
 20
12.0083518747
 30
0.0
 11
38.4271262695
 21
12.0083518747
 31
0.0
  0
LINE
  5
35B
330
1F
100
AcDbEntity
  8
0
  6
Continuous
 62
     7
370
    18
100
AcDbLine
 10
38.4271262695
 20
12.9243680991
 30
0.0
 11
38.4271262695
 21
12.0083518747
 31
0.0
  0
LINE
  5
35C
330
1F
100
AcDbEntity
  8
0
  6
Continuous
 62
     7
370
    18
100
AcDbLine
 10
38.6146262695
 20
12.9243680991
 30
0.0
 11
38.6146262695
 21
12.0083518747
 31
0.0
  0
DIMENSION
  5
35D
330
1F
100
AcDbEntity
  8
DIMENSION
100
AcDbDimension
  2
_D_15
 10
38.6146262695
 20
26.4316084726
 30
0.0
 11
40.8149600521
 21
26.4316084726
 31
0.0
 70
   160
  1
<>
 71
     2
 42
-1.0
  3
SLDDIMSTYLE0
100
AcDbAlignedDimension
 13
38.4271262695
 23
24.1832722107
 33
0.0
 14
38.6146262695
 24
24.1832722107
 34
0.0
100
AcDbRotatedDimension
  0
ENDSEC
  0
SECTION
  2
OBJECTS
  0
DICTIONARY
  5
C
330
0
100
AcDbDictionary
281
     1
  3
ACAD_GROUP
350
D
  3
ACAD_LAYOUT
350
1A
  3
ACAD_MLINESTYLE
350
17
  3
ACAD_PLOTSETTINGS
350
19
  3
ACAD_PLOTSTYLENAME
350
E
  3
ACAD_SCALELIST
350
47
  0
DICTIONARY
  5
D
102
{ACAD_REACTORS
330
C
102
}
330
C
100
AcDbDictionary
281
     1
  0
DICTIONARY
  5
1A
102
{ACAD_REACTORS
330
C
102
}
330
C
100
AcDbDictionary
281
     1
  3
Layout1
350
1E
  3
Layout2
350
26
  3
Model
350
22
  0
DICTIONARY
  5
17
102
{ACAD_REACTORS
330
C
102
}
330
C
100
AcDbDictionary
281
     1
  3
Standard
350
18
  0
DICTIONARY
  5
19
102
{ACAD_REACTORS
330
C
102
}
330
C
100
AcDbDictionary
281
     1
  0
ACDBDICTIONARYWDFLT
  5
E
102
{ACAD_REACTORS
330
C
102
}
330
C
100
AcDbDictionary
281
     1
  3
Normal
350
F
100
AcDbDictionaryWithDefault
340
F
  0
DICTIONARY
  5
47
102
{ACAD_REACTORS
330
C
102
}
330
C
100
AcDbDictionary
281
     1
  3
A0
350
48
  3
A1
350
49
  3
A2
350
4A
  3
A3
350
4B
  3
A4
350
4C
  3
A5
350
4D
  3
A6
350
4E
  3
A7
350
4F
  3
A8
350
50
  3
A9
350
51
  3
B0
350
52
  3
B1
350
53
  3
B2
350
54
  3
B3
350
55
  3
B4
350
56
  3
B5
350
57
  3
B6
350
58
  3
B7
350
59
  3
B8
350
5A
  3
B9
350
5B
  3
C0
350
5C
  3
C1
350
5D
  3
C2
350
5E
  3
C3
350
5F
  3
C4
350
60
  3
C5
350
61
  3
C6
350
62
  3
C7
350
63
  3
C8
350
64
  3
C9
350
65
  3
D0
350
66
  3
D1
350
67
  3
D2
350
68
  0
LAYOUT
  5
1E
102
{ACAD_REACTORS
330
1A
102
}
330
1A
100
AcDbPlotSettings
  1

  2
none_device
  4

  6

 40
0.0
 41
0.0
 42
0.0
 43
0.0
 44
0.0
 45
0.0
 46
0.0
 47
0.0
 48
0.0
 49
0.0
140
0.0
141
0.0
142
1.0
143
1.0
 70
   688
 72
     0
 73
     0
 74
     5
  7

 75
    16
147
1.0
148
0.0
149
0.0
100
AcDbLayout
  1
Layout1
 70
     1
 71
     1
 10
0.0
 20
0.0
 11
12.0
 21
9.0
 12
0.0
 22
0.0
 32
0.0
 14
1.0000000000E+20
 24
1.0000000000E+20
 34
1.0000000000E+20
 15
-1.0000000000E+20
 25
-1.0000000000E+20
 35
-1.0000000000E+20
146
0.0
 13
0.0
 23
0.0
 33
0.0
 16
1.0
 26
0.0
 36
0.0
 17
0.0
 27
1.0
 37
0.0
 76
     0
330
1B
  0
LAYOUT
  5
26
102
{ACAD_REACTORS
330
1A
102
}
330
1A
100
AcDbPlotSettings
  1

  2
none_device
  4

  6

 40
0.0
 41
0.0
 42
0.0
 43
0.0
 44
0.0
 45
0.0
 46
0.0
 47
0.0
 48
0.0
 49
0.0
140
0.0
141
0.0
142
1.0
143
1.0
 70
   688
 72
     0
 73
     0
 74
     5
  7

 75
    16
147
1.0
148
0.0
149
0.0
100
AcDbLayout
  1
Layout2
 70
     1
 71
     2
 10
0.0
 20
0.0
 11
0.0
 21
0.0
 12
0.0
 22
0.0
 32
0.0
 14
0.0
 24
0.0
 34
0.0
 15
0.0
 25
0.0
 35
0.0
146
0.0
 13
0.0
 23
0.0
 33
0.0
 16
1.0
 26
0.0
 36
0.0
 17
0.0
 27
1.0
 37
0.0
 76
     0
330
23
  0
LAYOUT
  5
22
102
{ACAD_REACTORS
330
1A
102
}
330
1A
100
AcDbPlotSettings
  1

  2
none_device
  4
Letter_(8.50_x_11.00_Inches)
  6

 40
6.35
 41
6.35
 42
6.35000508
 43
6.35000508
 44
215.9
 45
279.4
 46
0.0
 47
0.0
 48
0.0
 49
0.0
140
0.0
141
0.0
142
1.0
143
1.0
 70
  1712
 72
     0
 73
     0
 74
     0
  7

 75
     0
147
1.0
148
0.0
149
0.0
100
AcDbLayout
  1
Model
 70
     1
 71
     0
 10
0.0
 20
0.0
 11
44.0
 21
34.0
 12
0.0
 22
0.0
 32
0.0
 14
0.0
 24
0.0
 34
0.0
 15
44.0
 25
34.0
 35
0.0
146
0.0
 13
0.0
 23
0.0
 33
0.0
 16
1.0
 26
0.0
 36
0.0
 17
0.0
 27
1.0
 37
0.0
 76
     0
330
1F
331
29
  0
MLINESTYLE
  5
18
102
{ACAD_REACTORS
330
17
102
}
330
17
100
AcDbMlineStyle
  2
Standard
 70
     0
  3

 62
   256
 51
90.0
 52
90.0
 71
     2
 49
0.5
 62
   256
  6
BYLAYER
 49
-0.5
 62
   256
  6
BYLAYER
  0
ACDBPLACEHOLDER
  5
F
102
{ACAD_REACTORS
330
E
102
}
330
E
  0
SCALE
  5
48
102
{ACAD_REACTORS
330
47
102
}
330
47
100
AcDbScale
 70
     0
300
1:1
140
1.0
141
1.0
290
     1
  0
SCALE
  5
49
102
{ACAD_REACTORS
330
47
102
}
330
47
100
AcDbScale
 70
     0
300
1:2
140
1.0
141
2.0
290
     0
  0
SCALE
  5
4A
102
{ACAD_REACTORS
330
47
102
}
330
47
100
AcDbScale
 70
     0
300
1:4
140
1.0
141
4.0
290
     0
  0
SCALE
  5
4B
102
{ACAD_REACTORS
330
47
102
}
330
47
100
AcDbScale
 70
     0
300
1:5
140
1.0
141
5.0
290
     0
  0
SCALE
  5
4C
102
{ACAD_REACTORS
330
47
102
}
330
47
100
AcDbScale
 70
     0
300
1:8
140
1.0
141
8.0
290
     0
  0
SCALE
  5
4D
102
{ACAD_REACTORS
330
47
102
}
330
47
100
AcDbScale
 70
     0
300
1:10
140
1.0
141
10.0
290
     0
  0
SCALE
  5
4E
102
{ACAD_REACTORS
330
47
102
}
330
47
100
AcDbScale
 70
     0
300
1:16
140
1.0
141
16.0
290
     0
  0
SCALE
  5
4F
102
{ACAD_REACTORS
330
47
102
}
330
47
100
AcDbScale
 70
     0
300
1:20
140
1.0
141
20.0
290
     0
  0
SCALE
  5
50
102
{ACAD_REACTORS
330
47
102
}
330
47
100
AcDbScale
 70
     0
300
1:30
140
1.0
141
30.0
290
     0
  0
SCALE
  5
51
102
{ACAD_REACTORS
330
47
102
}
330
47
100
AcDbScale
 70
     0
300
1:40
140
1.0
141
40.0
290
     0
  0
SCALE
  5
52
102
{ACAD_REACTORS
330
47
102
}
330
47
100
AcDbScale
 70
     0
300
1:50
140
1.0
141
50.0
290
     0
  0
SCALE
  5
53
102
{ACAD_REACTORS
330
47
102
}
330
47
100
AcDbScale
 70
     0
300
1:100
140
1.0
141
100.0
290
     0
  0
SCALE
  5
54
102
{ACAD_REACTORS
330
47
102
}
330
47
100
AcDbScale
 70
     0
300
2:1
140
2.0
141
1.0
290
     0
  0
SCALE
  5
55
102
{ACAD_REACTORS
330
47
102
}
330
47
100
AcDbScale
 70
     0
300
4:1
140
4.0
141
1.0
290
     0
  0
SCALE
  5
56
102
{ACAD_REACTORS
330
47
102
}
330
47
100
AcDbScale
 70
     0
300
8:1
140
8.0
141
1.0
290
     0
  0
SCALE
  5
57
102
{ACAD_REACTORS
330
47
102
}
330
47
100
AcDbScale
 70
     0
300
10:1
140
10.0
141
1.0
290
     0
  0
SCALE
  5
58
102
{ACAD_REACTORS
330
47
102
}
330
47
100
AcDbScale
 70
     0
300
100:1
140
100.0
141
1.0
290
     0
  0
SCALE
  5
59
102
{ACAD_REACTORS
330
47
102
}
330
47
100
AcDbScale
 70
     0
300
1/128" = 1'-0"
140
0.0078125
141
12.0
290
     0
  0
SCALE
  5
5A
102
{ACAD_REACTORS
330
47
102
}
330
47
100
AcDbScale
 70
     0
300
1/64" = 1'-0"
140
0.015625
141
12.0
290
     0
  0
SCALE
  5
5B
102
{ACAD_REACTORS
330
47
102
}
330
47
100
AcDbScale
 70
     0
300
1/32" = 1'-0"
140
0.03125
141
12.0
290
     0
  0
SCALE
  5
5C
102
{ACAD_REACTORS
330
47
102
}
330
47
100
AcDbScale
 70
     0
300
1/16" = 1'-0"
140
0.0625
141
12.0
290
     0
  0
SCALE
  5
5D
102
{ACAD_REACTORS
330
47
102
}
330
47
100
AcDbScale
 70
     0
300
3/32" = 1'-0"
140
0.09375
141
12.0
290
     0
  0
SCALE
  5
5E
102
{ACAD_REACTORS
330
47
102
}
330
47
100
AcDbScale
 70
     0
300
1/8" = 1'-0"
140
0.125
141
12.0
290
     0
  0
SCALE
  5
5F
102
{ACAD_REACTORS
330
47
102
}
330
47
100
AcDbScale
 70
     0
300
3/16" = 1'-0"
140
0.1875
141
12.0
290
     0
  0
SCALE
  5
60
102
{ACAD_REACTORS
330
47
102
}
330
47
100
AcDbScale
 70
     0
300
1/4" = 1'-0"
140
0.25
141
12.0
290
     0
  0
SCALE
  5
61
102
{ACAD_REACTORS
330
47
102
}
330
47
100
AcDbScale
 70
     0
300
3/8" = 1'-0"
140
0.375
141
12.0
290
     0
  0
SCALE
  5
62
102
{ACAD_REACTORS
330
47
102
}
330
47
100
AcDbScale
 70
     0
300
1/2" = 1'-0"
140
0.5
141
12.0
290
     0
  0
SCALE
  5
63
102
{ACAD_REACTORS
330
47
102
}
330
47
100
AcDbScale
 70
     0
300
3/4" = 1'-0"
140
0.75
141
12.0
290
     0
  0
SCALE
  5
64
102
{ACAD_REACTORS
330
47
102
}
330
47
100
AcDbScale
 70
     0
300
1" = 1'-0"
140
1.0
141
12.0
290
     0
  0
SCALE
  5
65
102
{ACAD_REACTORS
330
47
102
}
330
47
100
AcDbScale
 70
     0
300
1-1/2" = 1'-0"
140
1.5
141
12.0
290
     0
  0
SCALE
  5
66
102
{ACAD_REACTORS
330
47
102
}
330
47
100
AcDbScale
 70
     0
300
3" = 1'-0"
140
3.0
141
12.0
290
     0
  0
SCALE
  5
67
102
{ACAD_REACTORS
330
47
102
}
330
47
100
AcDbScale
 70
     0
300
6" = 1'-0"
140
6.0
141
12.0
290
     0
  0
SCALE
  5
68
102
{ACAD_REACTORS
330
47
102
}
330
47
100
AcDbScale
 70
     0
300
1'-0" = 1'-0"
140
12.0
141
12.0
290
     0
  0
ENDSEC
  0
EOF
