  0
SECTION
  2
HEADER
  9
$ACADVER
  1
AC1018
  9
$ACADMAINTVER
 70
     0
  9
$DWGCODEPAGE
  3
ANSI_1252
  9
$INSBASE
 10
0.0
 20
0.0
 30
0.0
  9
$EXTMIN
 10
0.0
 20
0.0
 30
0.0
  9
$EXTMAX
 10
55.0
 20
42.5
 30
0.0
  9
$LIMMIN
 10
0.0
 20
0.0
  9
$LIMMAX
 10
55.0
 20
42.5
  9
$ORTHOMODE
 70
     0
  9
$REGENMODE
 70
     1
  9
$FILLMODE
 70
     1
  9
$QTEXTMODE
 70
     0
  9
$MIRRTEXT
 70
     1
  9
$LTSCALE
 40
5.0
  9
$ATTMODE
 70
     1
  9
$TEXTSIZE
 40
0.5555555556
  9
$TRACEWID
 40
0.05
  9
$TEXTSTYLE
  7
Standard
  9
$CLAYER
  8
0
  9
$CELTYPE
  6
ByLayer
  9
$CECOLOR
 62
   256
  9
$CELTSCALE
 40
1.0
  9
$DISPSILH
 70
     0
  9
$DIMSCALE
 40
1.0
  9
$DIMASZ
 40
0.4166666667
  9
$DIMEXO
 40
0.25
  9
$DIMDLI
 40
0.38
  9
$DIMRND
 40
0.0
  9
$DIMDLE
 40
0.0
  9
$DIMEXE
 40
0.625
  9
$DIMTP
 40
0.0
  9
$DIMTM
 40
0.0
  9
$DIMTXT
 40
0.5555555556
  9
$DIMCEN
 40
0.09
  9
$DIMTSZ
 40
0.0
  9
$DIMTOL
 70
     0
  9
$DIMLIM
 70
     0
  9
$DIMTIH
 70
     1
  9
$DIMTOH
 70
     1
  9
$DIMSE1
 70
     0
  9
$DIMSE2
 70
     0
  9
$DIMTAD
 70
     0
  9
$DIMZIN
 70
     0
  9
$DIMBLK
  1

  9
$DIMASO
 70
     1
  9
$DIMSHO
 70
     1
  9
$DIMPOST
  1

  9
$DIMAPOST
  1

  9
$DIMALT
 70
     0
  9
$DIMALTD
 70
     2
  9
$DIMALTF
 40
25.4
  9
$DIMLFAC
 40
1.0
  9
$DIMTOFL
 70
     0
  9
$DIMTVP
 40
0.0
  9
$DIMTIX
 70
     0
  9
$DIMSOXD
 70
     0
  9
$DIMSAH
 70
     0
  9
$DIMBLK1
  1

  9
$DIMBLK2
  1

  9
$DIMSTYLE
  2
Standard
  9
$DIMCLRD
 70
     0
  9
$DIMCLRE
 70
     0
  9
$DIMCLRT
 70
     0
  9
$DIMTFAC
 40
1.0
  9
$DIMGAP
 40
0.3
  9
$DIMJUST
 70
     0
  9
$DIMSD1
 70
     0
  9
$DIMSD2
 70
     0
  9
$DIMTOLJ
 70
     1
  9
$DIMTZIN
 70
     0
  9
$DIMALTZ
 70
     0
  9
$DIMALTTZ
 70
     0
  9
$DIMUPT
 70
     0
  9
$DIMDEC
 70
     3
  9
$DIMTDEC
 70
     3
  9
$DIMALTU
 70
     2
  9
$DIMALTTD
 70
     2
  9
$DIMTXSTY
  7
Standard
  9
$DIMAUNIT
 70
     0
  9
$DIMADEC
 70
     2
  9
$DIMALTRND
 40
0.0
  9
$DIMAZIN
 70
     0
  9
$DIMDSEP
 70
    46
  9
$DIMATFIT
 70
     3
  9
$DIMFRAC
 70
     0
  9
$DIMLDRBLK
  1

  9
$DIMLUNIT
 70
     2
  9
$DIMLWD
 70
    -2
  9
$DIMLWE
 70
    -2
  9
$DIMTMOVE
 70
     0
  9
$LUNITS
 70
     2
  9
$LUPREC
 70
     3
  9
$SKETCHINC
 40
0.1
  9
$FILLETRAD
 40
0.5
  9
$AUNITS
 70
     0
  9
$AUPREC
 70
     2
  9
$MENU
  1
.
  9
$ELEVATION
 40
0.0
  9
$PELEVATION
 40
0.0
  9
$THICKNESS
 40
0.0
  9
$LIMCHECK
 70
     0
  9
$CHAMFERA
 40
0.0
  9
$CHAMFERB
 40
0.0
  9
$CHAMFERC
 40
0.0
  9
$CHAMFERD
 40
0.0
  9
$SKPOLY
 70
     0
  9
$TDCREATE
 40
2458788.681596724
  9
$TDUCREATE
 40
2458788.848263391
  9
$TDUPDATE
 40
2458788.681600949
  9
$TDUUPDATE
 40
2458788.848267616
  9
$TDINDWG
 40
0.0000000116
  9
$TDUSRTIMER
 40
0.0000000116
  9
$USRTIMER
 70
     1
  9
$ANGBASE
 50
0.0
  9
$ANGDIR
 70
     0
  9
$PDMODE
 70
     0
  9
$PDSIZE
 40
-1.0
  9
$PLINEWID
 40
0.0
  9
$SPLFRAME
 70
     0
  9
$SPLINETYPE
 70
     6
  9
$SPLINESEGS
 70
     8
  9
$HANDSEED
  5
44F
  9
$SURFTAB1
 70
     6
  9
$SURFTAB2
 70
     6
  9
$SURFTYPE
 70
     6
  9
$SURFU
 70
     6
  9
$SURFV
 70
     6
  9
$UCSBASE
  2

  9
$UCSNAME
  2

  9
$UCSORG
 10
0.0
 20
0.0
 30
0.0
  9
$UCSXDIR
 10
1.0
 20
0.0
 30
0.0
  9
$UCSYDIR
 10
0.0
 20
1.0
 30
0.0
  9
$UCSORTHOREF
  2

  9
$UCSORTHOVIEW
 70
     0
  9
$UCSORGTOP
 10
0.0
 20
0.0
 30
0.0
  9
$UCSORGBOTTOM
 10
0.0
 20
0.0
 30
0.0
  9
$UCSORGLEFT
 10
0.0
 20
0.0
 30
0.0
  9
$UCSORGRIGHT
 10
0.0
 20
0.0
 30
0.0
  9
$UCSORGFRONT
 10
0.0
 20
0.0
 30
0.0
  9
$UCSORGBACK
 10
0.0
 20
0.0
 30
0.0
  9
$PUCSBASE
  2

  9
$PUCSNAME
  2

  9
$PUCSORG
 10
0.0
 20
0.0
 30
0.0
  9
$PUCSXDIR
 10
1.0
 20
0.0
 30
0.0
  9
$PUCSYDIR
 10
0.0
 20
1.0
 30
0.0
  9
$PUCSORTHOREF
  2

  9
$PUCSORTHOVIEW
 70
     0
  9
$PUCSORGTOP
 10
0.0
 20
0.0
 30
0.0
  9
$PUCSORGBOTTOM
 10
0.0
 20
0.0
 30
0.0
  9
$PUCSORGLEFT
 10
0.0
 20
0.0
 30
0.0
  9
$PUCSORGRIGHT
 10
0.0
 20
0.0
 30
0.0
  9
$PUCSORGFRONT
 10
0.0
 20
0.0
 30
0.0
  9
$PUCSORGBACK
 10
0.0
 20
0.0
 30
0.0
  9
$USERI1
 70
     0
  9
$USERI2
 70
     0
  9
$USERI3
 70
     0
  9
$USERI4
 70
     0
  9
$USERI5
 70
     0
  9
$USERR1
 40
0.0
  9
$USERR2
 40
0.0
  9
$USERR3
 40
0.0
  9
$USERR4
 40
0.0
  9
$USERR5
 40
0.0
  9
$WORLDVIEW
 70
     1
  9
$SHADEDGE
 70
     3
  9
$SHADEDIF
 70
    70
  9
$TILEMODE
 70
     1
  9
$MAXACTVP
 70
    64
  9
$PINSBASE
 10
0.0
 20
0.0
 30
0.0
  9
$PLIMCHECK
 70
     0
  9
$PEXTMIN
 10
1.0000000000E+20
 20
1.0000000000E+20
 30
1.0000000000E+20
  9
$PEXTMAX
 10
-1.0000000000E+20
 20
-1.0000000000E+20
 30
-1.0000000000E+20
  9
$PLIMMIN
 10
0.0
 20
0.0
  9
$PLIMMAX
 10
12.0
 20
9.0
  9
$UNITMODE
 70
     0
  9
$VISRETAIN
 70
     1
  9
$PLINEGEN
 70
     0
  9
$PSLTSCALE
 70
     1
  9
$TREEDEPTH
 70
  3020
  9
$CMLSTYLE
  2
Standard
  9
$CMLJUST
 70
     0
  9
$CMLSCALE
 40
1.0
  9
$PROXYGRAPHICS
 70
     1
  9
$MEASUREMENT
 70
     0
  9
$CELWEIGHT
370
    -1
  9
$ENDCAPS
280
     0
  9
$JOINSTYLE
280
     0
  9
$LWDISPLAY
290
     1
  9
$INSUNITS
 70
     1
  9
$HYPERLINKBASE
  1

  9
$STYLESHEET
  1

  9
$XEDIT
290
     1
  9
$CEPSNTYPE
380
     0
  9
$PSTYLEMODE
290
     1
  9
$FINGERPRINTGUID
  2
{67F30F1E-8409-4A19-930F-F081DC859EC2}
  9
$VERSIONGUID
  2
{FAEB1C32-E019-11D5-929B-00C0DF256EC4}
  9
$EXTNAMES
290
     1
  9
$PSVPSCALE
 40
0.0
  9
$OLESTARTUP
290
     0
  9
$SORTENTS
280
   127
  9
$INDEXCTL
280
     0
  9
$HIDETEXT
280
     1
  9
$XCLIPFRAME
290
     0
  9
$HALOGAP
280
     0
  9
$OBSCOLOR
 70
   257
  9
$OBSLTYPE
280
     0
  9
$INTERSECTIONDISPLAY
280
     0
  9
$INTERSECTIONCOLOR
 70
   257
  9
$DIMASSOC
280
     2
  9
$PROJECTNAME
  1

  0
ENDSEC
  0
SECTION
  2
CLASSES
  0
CLASS
  1
ACDBDICTIONARYWDFLT
  2
AcDbDictionaryWithDefault
  3
ObjectDBX Classes
 90
        0
 91
        4
280
     0
281
     0
  0
CLASS
  1
VISUALSTYLE
  2
AcDbVisualStyle
  3
ObjectDBX Classes
 90
     4095
 91
        4
280
     0
281
     0
  0
CLASS
  1
MATERIAL
  2
AcDbMaterial
  3
ObjectDBX Classes
 90
     1153
 91
        4
280
     0
281
     0
  0
CLASS
  1
SCALE
  2
AcDbScale
  3
ObjectDBX Classes
 90
     1153
 91
        4
280
     0
281
     0
  0
CLASS
  1
TABLESTYLE
  2
AcDbTableStyle
  3
ObjectDBX Classes
 90
     4095
 91
        4
280
     0
281
     0
  0
CLASS
  1
MLEADERSTYLE
  2
AcDbMLeaderStyle
  3
ACDB_MLEADERSTYLE_CLASS
 90
     4095
 91
        4
280
     0
281
     0
  0
CLASS
  1
SUN
  2
AcDbSun
  3
SCENEOE
 90
     1153
 91
        4
280
     0
281
     0
  0
CLASS
  1
DICTIONARYVAR
  2
AcDbDictionaryVar
  3
ObjectDBX Classes
 90
        0
 91
        4
280
     0
281
     0
  0
CLASS
  1
CELLSTYLEMAP
  2
AcDbCellStyleMap
  3
ObjectDBX Classes
 90
     1152
 91
        4
280
     0
281
     0
  0
ENDSEC
  0
SECTION
  2
TABLES
  0
TABLE
  2
VPORT
  5
8
330
0
100
AcDbSymbolTable
 70
     1
  0
VPORT
  5
29
330
8
100
AcDbSymbolTableRecord
100
AcDbViewportTableRecord
  2
*Active
 70
     0
 10
0.0
 20
0.0
 11
1.0
 21
1.0
 12
27.5
 22
21.25
 13
0.0
 23
0.0
 14
0.5
 24
0.5
 15
0.5
 25
0.5
 16
0.0
 26
0.0
 36
1.0
 17
0.0
 27
0.0
 37
0.0
 40
42.5
 41
1.2941176471
 42
50.0
 43
0.0
 44
0.0
 50
0.0
 51
0.0
 71
     0
 72
  2000
 73
     1
 74
     3
 75
     0
 76
     0
 77
     0
 78
     0
281
     0
 65
     1
110
0.0
120
0.0
130
0.0
111
1.0
121
0.0
131
0.0
112
0.0
122
1.0
132
0.0
 79
     0
146
0.0
  0
ENDTAB
  0
TABLE
  2
LTYPE
  5
5
330
0
100
AcDbSymbolTable
 70
     6
  0
LTYPE
  5
14
330
5
100
AcDbSymbolTableRecord
100
AcDbLinetypeTableRecord
  2
ByBlock
 70
     0
  3

 72
    65
 73
     0
 40
0.0
  0
LTYPE
  5
15
330
5
100
AcDbSymbolTableRecord
100
AcDbLinetypeTableRecord
  2
ByLayer
 70
     0
  3

 72
    65
 73
     0
 40
0.0
  0
LTYPE
  5
16
330
5
100
AcDbSymbolTableRecord
100
AcDbLinetypeTableRecord
  2
Continuous
 70
     0
  3
Solid line
 72
    65
 73
     0
 40
0.0
  0
LTYPE
  5
6E
330
5
100
AcDbSymbolTableRecord
100
AcDbLinetypeTableRecord
  2
HIDDEN
 70
     0
  3
Hidden __ __ __ __ __ __ __ __ __ __ __ __ __ __
 72
    65
 73
     2
 40
0.075
 49
0.05
 74
     0
 49
-0.025
 74
     0
  0
LTYPE
  5
6F
330
5
100
AcDbSymbolTableRecord
100
AcDbLinetypeTableRecord
  2
PHANTOM
 70
     0
  3
Phantom ______  __  __  ______  __  __  ______
 72
    65
 73
     6
 40
0.5
 49
0.25
 74
     0
 49
-0.05
 74
     0
 49
0.05
 74
     0
 49
-0.05
 74
     0
 49
0.05
 74
     0
 49
-0.05
 74
     0
  0
LTYPE
  5
70
330
5
100
AcDbSymbolTableRecord
100
AcDbLinetypeTableRecord
  2
CENTER
 70
     0
  3
Center ____ _ ____ _ ____ _ ____ _ ____ _ ____
 72
    65
 73
     4
 40
0.4
 49
0.25
 74
     0
 49
-0.05
 74
     0
 49
0.05
 74
     0
 49
-0.05
 74
     0
  0
LTYPE
  5
71
330
5
100
AcDbSymbolTableRecord
100
AcDbLinetypeTableRecord
  2
CENTERX2
 70
     0
  3
Center (2x) ________  __  ________  __  _____
 72
    65
 73
     4
 40
0.8
 49
0.5
 74
     0
 49
-0.1
 74
     0
 49
0.1
 74
     0
 49
-0.1
 74
     0
  0
LTYPE
  5
72
330
5
100
AcDbSymbolTableRecord
100
AcDbLinetypeTableRecord
  2
DOT2
 70
     0
  3
Dot (.5x) ........................................
 72
    65
 73
     2
 40
0.025
 49
0.0
 74
     0
 49
-0.025
 74
     0
  0
ENDTAB
  0
TABLE
  2
LAYER
  5
2
330
0
100
AcDbSymbolTable
 70
     9
  0
LAYER
  5
10
330
2
100
AcDbSymbolTableRecord
100
AcDbLayerTableRecord
  2
0
 70
     0
 62
     7
  6
Continuous
370
    -3
390
F
  0
LAYER
  5
73
330
2
100
AcDbSymbolTableRecord
100
AcDbLayerTableRecord
  2
FORMAT
 70
     0
 62
     7
  6
Continuous
370
    -3
390
F
  0
LAYER
  5
74
330
2
100
AcDbSymbolTableRecord
100
AcDbLayerTableRecord
  2
SLD-0
 70
     0
 62
   179
  6
Continuous
370
    -3
390
F
  0
LAYER
  5
75
330
2
100
AcDbSymbolTableRecord
100
AcDbLayerTableRecord
  2
LAYER1
 70
     0
 62
   179
  6
Continuous
370
    -3
390
F
  0
LAYER
  5
76
330
2
100
AcDbSymbolTableRecord
100
AcDbLayerTableRecord
  2
UNASSIGNED
 70
     0
 62
   179
  6
Continuous
370
    -3
390
F
  0
LAYER
  5
77
330
2
100
AcDbSymbolTableRecord
100
AcDbLayerTableRecord
  2
DIMENSION
 70
     0
 62
     5
  6
Continuous
370
    -3
390
F
  0
LAYER
  5
78
330
2
100
AcDbSymbolTableRecord
100
AcDbLayerTableRecord
  2
FRAME
 70
     0
 62
     8
  6
PHANTOM
370
    35
390
F
  0
LAYER
  5
79
330
2
100
AcDbSymbolTableRecord
100
AcDbLayerTableRecord
  2
ALERT
 70
     0
 62
     1
  6
Continuous
370
   100
390
F
  0
LAYER
  5
7A
330
2
100
AcDbSymbolTableRecord
100
AcDbLayerTableRecord
  2
NOTE
 70
     0
 62
     7
  6
Continuous
370
    -3
390
F
  0
ENDTAB
  0
TABLE
  2
STYLE
  5
3
330
0
100
AcDbSymbolTable
 70
     3
  0
STYLE
  5
11
330
3
100
AcDbSymbolTableRecord
100
AcDbTextStyleTableRecord
  2
Standard
 70
     0
 40
0.0
 41
1.0
 50
0.0
 71
     0
 42
0.5555555556
  3
txt
  4

  0
STYLE
  5
172
330
3
100
AcDbSymbolTableRecord
100
AcDbTextStyleTableRecord
  2
SLDTEXTSTYLE0
 70
     0
 40
0.0
 41
0.605
 50
0.0
 71
     0
 42
0.5555555556
  3
TXT
  4

  0
STYLE
  5
1E1
330
3
100
AcDbSymbolTableRecord
100
AcDbTextStyleTableRecord
  2
SLDTEXTSTYLE1
 70
     0
 40
0.0
 41
0.75
 50
0.0
 71
     0
 42
0.5555555556
  3
TXT
  4

  0
ENDTAB
  0
TABLE
  2
VIEW
  5
6
330
0
100
AcDbSymbolTable
 70
     0
  0
ENDTAB
  0
TABLE
  2
UCS
  5
7
330
0
100
AcDbSymbolTable
 70
     0
  0
ENDTAB
  0
TABLE
  2
APPID
  5
9
330
0
100
AcDbSymbolTable
 70
     2
  0
APPID
  5
12
330
9
100
AcDbSymbolTableRecord
100
AcDbRegAppTableRecord
  2
ACAD
 70
     0
  0
APPID
  5
449
330
9
100
AcDbSymbolTableRecord
100
AcDbRegAppTableRecord
  2
ACAD_MLEADERVER
 70
     0
  0
ENDTAB
  0
TABLE
  2
DIMSTYLE
  5
A
330
0
100
AcDbSymbolTable
 70
     6
100
AcDbDimStyleTable
  0
DIMSTYLE
105
27
330
A
100
AcDbSymbolTableRecord
100
AcDbDimStyleTableRecord
  2
Standard
 70
     0
178
     0
340
11
  0
DIMSTYLE
105
1E2
102
{ACAD_REACTORS
330
1E0
330
1F6
330
2B9
330
2CD
330
2F5
102
}
330
A
100
AcDbSymbolTableRecord
100
AcDbDimStyleTableRecord
  2
SLDDIMSTYLE0
 70
     0
 41
0.4166666667
 44
0.0
 45
0.000000001
 78
    12
 79
     3
140
0.4166666667
147
0.1041666667
148
0.000000001
170
     1
173
     1
178
     0
271
     3
272
     3
276
     2
284
    12
340
1E1
  0
DIMSTYLE
105
20B
102
{ACAD_REACTORS
330
20A
330
21F
330
231
330
245
102
}
330
A
100
AcDbSymbolTableRecord
100
AcDbDimStyleTableRecord
  2
SLDDIMSTYLE1
 70
     0
 41
0.4166666667
 44
0.0
 45
0.000000001
 78
     4
 79
     1
140
0.4166666667
147
0.1041666667
148
0.000000001
170
     1
173
     1
178
     0
271
     3
272
     3
276
     2
284
    12
340
1E1
  0
DIMSTYLE
105
258
102
{ACAD_REACTORS
330
257
330
26D
330
280
330
309
102
}
330
A
100
AcDbSymbolTableRecord
100
AcDbDimStyleTableRecord
  2
SLDDIMSTYLE2
 70
     0
 41
0.4166666667
 44
0.0
 45
0.000000001
 78
     4
 79
     1
140
0.4166666667
147
0.1041666667
148
0.000000001
170
     1
172
     1
173
     1
178
     0
271
     3
272
     3
276
     2
284
    12
289
     0
340
1E1
  0
DIMSTYLE
105
294
102
{ACAD_REACTORS
330
293
102
}
330
A
100
AcDbSymbolTableRecord
100
AcDbDimStyleTableRecord
  2
SLDDIMSTYLE3
 70
     0
 41
0.4166666667
 44
0.0
 45
0.000000001
 78
    12
 79
     3
140
0.4166666667
141
0.0
147
0.1041666667
148
0.000000001
170
     1
173
     1
178
     0
271
     3
272
     3
276
     2
284
    12
340
1E1
  0
DIMSTYLE
105
2A5
102
{ACAD_REACTORS
330
2A4
330
2E1
330
430
102
}
330
A
100
AcDbSymbolTableRecord
100
AcDbDimStyleTableRecord
  2
SLDDIMSTYLE4
 70
     0
 41
0.4166666667
 44
0.0
 45
0.000000001
 78
    12
 79
     3
140
0.4166666667
147
0.1041666667
148
0.000000001
170
     1
172
     1
173
     1
178
     0
271
     3
272
     3
276
     2
284
    12
289
     0
340
1E1
  0
ENDTAB
  0
TABLE
  2
BLOCK_RECORD
  5
1
330
0
100
AcDbSymbolTable
 70
    44
  0
BLOCK_RECORD
  5
1F
330
1
100
AcDbSymbolTableRecord
100
AcDbBlockTableRecord
  2
*Model_Space
340
22
  0
BLOCK_RECORD
  5
1B
330
1
100
AcDbSymbolTableRecord
100
AcDbBlockTableRecord
  2
*Paper_Space
340
1E
  0
BLOCK_RECORD
  5
23
330
1
100
AcDbSymbolTableRecord
100
AcDbBlockTableRecord
  2
*Paper_Space0
340
26
  0
BLOCK_RECORD
  5
7B
330
1
100
AcDbSymbolTableRecord
100
AcDbBlockTableRecord
  2
Block16_1
340
0
102
{BLKREFS
331
162
102
}
  0
BLOCK_RECORD
  5
A7
330
1
100
AcDbSymbolTableRecord
100
AcDbBlockTableRecord
  2
Block17_1_1_1_1
340
0
102
{BLKREFS
331
171
102
}
  0
BLOCK_RECORD
  5
174
330
1
100
AcDbSymbolTableRecord
100
AcDbBlockTableRecord
  2
SW_NOTE_0
340
0
102
{BLKREFS
331
17B
102
}
  0
BLOCK_RECORD
  5
184
330
1
100
AcDbSymbolTableRecord
100
AcDbBlockTableRecord
  2
SW_NOTE_1
340
0
102
{BLKREFS
331
18C
102
}
  0
BLOCK_RECORD
  5
18D
330
1
100
AcDbSymbolTableRecord
100
AcDbBlockTableRecord
  2
SW_NOTE_2
340
0
102
{BLKREFS
331
192
102
}
  0
BLOCK_RECORD
  5
194
330
1
100
AcDbSymbolTableRecord
100
AcDbBlockTableRecord
  2
SW_NOTE_3
340
0
102
{BLKREFS
331
199
102
}
  0
BLOCK_RECORD
  5
1E3
330
1
100
AcDbSymbolTableRecord
100
AcDbBlockTableRecord
  2
_D
340
0
  0
BLOCK_RECORD
  5
1F7
330
1
100
AcDbSymbolTableRecord
100
AcDbBlockTableRecord
  2
_D_1
340
0
  0
BLOCK_RECORD
  5
20C
330
1
100
AcDbSymbolTableRecord
100
AcDbBlockTableRecord
  2
_D_2
340
0
  0
BLOCK_RECORD
  5
220
330
1
100
AcDbSymbolTableRecord
100
AcDbBlockTableRecord
  2
_D_3
340
0
  0
BLOCK_RECORD
  5
232
330
1
100
AcDbSymbolTableRecord
100
AcDbBlockTableRecord
  2
_D_4
340
0
  0
BLOCK_RECORD
  5
246
330
1
100
AcDbSymbolTableRecord
100
AcDbBlockTableRecord
  2
_D_5
340
0
  0
BLOCK_RECORD
  5
259
330
1
100
AcDbSymbolTableRecord
100
AcDbBlockTableRecord
  2
_D_6
340
0
  0
BLOCK_RECORD
  5
26E
330
1
100
AcDbSymbolTableRecord
100
AcDbBlockTableRecord
  2
_D_7
340
0
  0
BLOCK_RECORD
  5
281
330
1
100
AcDbSymbolTableRecord
100
AcDbBlockTableRecord
  2
_D_8
340
0
  0
BLOCK_RECORD
  5
295
330
1
100
AcDbSymbolTableRecord
100
AcDbBlockTableRecord
  2
_D_9
340
0
  0
BLOCK_RECORD
  5
2A6
330
1
100
AcDbSymbolTableRecord
100
AcDbBlockTableRecord
  2
_D_10
340
0
  0
BLOCK_RECORD
  5
2BA
330
1
100
AcDbSymbolTableRecord
100
AcDbBlockTableRecord
  2
_D_11
340
0
  0
BLOCK_RECORD
  5
2CE
330
1
100
AcDbSymbolTableRecord
100
AcDbBlockTableRecord
  2
_D_12
340
0
  0
BLOCK_RECORD
  5
2E2
330
1
100
AcDbSymbolTableRecord
100
AcDbBlockTableRecord
  2
_D_13
340
0
  0
BLOCK_RECORD
  5
2F6
330
1
100
AcDbSymbolTableRecord
100
AcDbBlockTableRecord
  2
_D_14
340
0
  0
BLOCK_RECORD
  5
30A
330
1
100
AcDbSymbolTableRecord
100
AcDbBlockTableRecord
  2
_D_15
340
0
  0
BLOCK_RECORD
  5
31E
330
1
100
AcDbSymbolTableRecord
100
AcDbBlockTableRecord
  2
SW_CENTERMARKSYMBOL_0
340
0
102
{BLKREFS
331
329
102
}
  0
BLOCK_RECORD
  5
32A
330
1
100
AcDbSymbolTableRecord
100
AcDbBlockTableRecord
  2
SW_CENTERMARKSYMBOL_1
340
0
102
{BLKREFS
331
335
102
}
  0
BLOCK_RECORD
  5
336
330
1
100
AcDbSymbolTableRecord
100
AcDbBlockTableRecord
  2
SW_CENTERMARKSYMBOL_2
340
0
102
{BLKREFS
331
341
102
}
  0
BLOCK_RECORD
  5
342
330
1
100
AcDbSymbolTableRecord
100
AcDbBlockTableRecord
  2
SW_CENTERMARKSYMBOL_3
340
0
102
{BLKREFS
331
34D
102
}
  0
BLOCK_RECORD
  5
34E
330
1
100
AcDbSymbolTableRecord
100
AcDbBlockTableRecord
  2
SW_CENTERMARKSYMBOL_4
340
0
102
{BLKREFS
331
359
102
}
  0
BLOCK_RECORD
  5
35A
330
1
100
AcDbSymbolTableRecord
100
AcDbBlockTableRecord
  2
SW_CENTERMARKSYMBOL_5
340
0
102
{BLKREFS
331
365
102
}
  0
BLOCK_RECORD
  5
366
330
1
100
AcDbSymbolTableRecord
100
AcDbBlockTableRecord
  2
SW_CENTERMARKSYMBOL_6
340
0
102
{BLKREFS
331
371
102
}
  0
BLOCK_RECORD
  5
372
330
1
100
AcDbSymbolTableRecord
100
AcDbBlockTableRecord
  2
SW_CENTERMARKSYMBOL_7
340
0
102
{BLKREFS
331
37D
102
}
  0
BLOCK_RECORD
  5
37E
330
1
100
AcDbSymbolTableRecord
100
AcDbBlockTableRecord
  2
SW_CENTERMARKSYMBOL_8
340
0
102
{BLKREFS
331
389
102
}
  0
BLOCK_RECORD
  5
38A
330
1
100
AcDbSymbolTableRecord
100
AcDbBlockTableRecord
  2
SW_CENTERMARKSYMBOL_9
340
0
102
{BLKREFS
331
395
102
}
  0
BLOCK_RECORD
  5
396
330
1
100
AcDbSymbolTableRecord
100
AcDbBlockTableRecord
  2
SW_CENTERMARKSYMBOL_10
340
0
102
{BLKREFS
331
3A1
102
}
  0
BLOCK_RECORD
  5
3A2
330
1
100
AcDbSymbolTableRecord
100
AcDbBlockTableRecord
  2
SW_CENTERMARKSYMBOL_11
340
0
102
{BLKREFS
331
3AD
102
}
  0
BLOCK_RECORD
  5
3AE
330
1
100
AcDbSymbolTableRecord
100
AcDbBlockTableRecord
  2
SW_CENTERMARKSYMBOL_12
340
0
102
{BLKREFS
331
3B9
102
}
  0
BLOCK_RECORD
  5
3BA
330
1
100
AcDbSymbolTableRecord
100
AcDbBlockTableRecord
  2
SW_CENTERMARKSYMBOL_13
340
0
102
{BLKREFS
331
3C5
102
}
  0
BLOCK_RECORD
  5
3C6
330
1
100
AcDbSymbolTableRecord
100
AcDbBlockTableRecord
  2
SW_CENTERMARKSYMBOL_14
340
0
102
{BLKREFS
331
3D1
102
}
  0
BLOCK_RECORD
  5
3D2
330
1
100
AcDbSymbolTableRecord
100
AcDbBlockTableRecord
  2
SW_CENTERMARKSYMBOL_15
340
0
102
{BLKREFS
331
3DD
102
}
  0
BLOCK_RECORD
  5
3DE
330
1
100
AcDbSymbolTableRecord
100
AcDbBlockTableRecord
  2
SW_CENTERMARKSYMBOL_16
340
0
102
{BLKREFS
331
3E9
102
}
  0
BLOCK_RECORD
  5
3EA
330
1
100
AcDbSymbolTableRecord
100
AcDbBlockTableRecord
  2
SW_CENTERMARKSYMBOL_17
340
0
102
{BLKREFS
331
3F5
102
}
  0
BLOCK_RECORD
  5
3F6
330
1
100
AcDbSymbolTableRecord
100
AcDbBlockTableRecord
  2
SW_CENTERMARKSYMBOL_18
340
0
102
{BLKREFS
331
401
102
}
  0
BLOCK_RECORD
  5
402
330
1
100
AcDbSymbolTableRecord
100
AcDbBlockTableRecord
  2
SW_CENTERMARKSYMBOL_19
340
0
102
{BLKREFS
331
40D
102
}
  0
BLOCK_RECORD
  5
431
330
1
100
AcDbSymbolTableRecord
100
AcDbBlockTableRecord
  2
_D_16
340
0
  0
ENDTAB
  0
ENDSEC
  0
SECTION
  2
BLOCKS
  0
BLOCK
  5
20
330
1F
100
AcDbEntity
  8
0
100
AcDbBlockBegin
  2
*Model_Space
 70
     0
 10
0.0
 20
0.0
 30
0.0
  3
*Model_Space
  1

  0
ENDBLK
  5
21
330
1F
100
AcDbEntity
  8
0
100
AcDbBlockEnd
  0
BLOCK
  5
1C
330
1B
100
AcDbEntity
 67
     1
  8
0
100
AcDbBlockBegin
  2
*Paper_Space
 70
     0
 10
0.0
 20
0.0
 30
0.0
  3
*Paper_Space
  1

  0
ENDBLK
  5
1D
330
1B
100
AcDbEntity
 67
     1
  8
0
100
AcDbBlockEnd
  0
BLOCK
  5
24
330
23
100
AcDbEntity
  8
0
100
AcDbBlockBegin
  2
*Paper_Space0
 70
     0
 10
0.0
 20
0.0
 30
0.0
  3
*Paper_Space0
  1

  0
ENDBLK
  5
25
330
23
100
AcDbEntity
  8
0
100
AcDbBlockEnd
  0
BLOCK
  5
7C
330
7B
100
AcDbEntity
  8
0
100
AcDbBlockBegin
  2
Block16_1
 70
     0
 10
0.0
 20
0.0
 30
0.0
  3
Block16_1
  1

  0
ARC
  5
7E
330
7B
100
AcDbEntity
  8
0
  6
Continuous
 62
     7
370
    18
100
AcDbCircle
 10
0.2404361168
 20
0.8949842324
 30
0.0
 40
0.2404361168168564
100
AcDbArc
 50
150.0
 51
240.0
  0
ARC
  5
7F
330
7B
100
AcDbEntity
  8
0
  6
Continuous
 62
     7
370
    18
100
AcDbCircle
 10
1.3741467091
 20
0.2404361168
 30
0.0
 40
0.2404361168168554
100
AcDbArc
 50
240.0
 51
330.0
  0
ARC
  5
80
330
7B
100
AcDbEntity
  8
0
  6
Continuous
 62
     7
370
    18
100
AcDbCircle
 10
1.7889845208
 20
0.9589562837
 30
0.0
 40
0.2404361168168607
100
AcDbArc
 50
330.0
 51
60.0
  0
ARC
  5
81
330
7B
100
AcDbEntity
  8
0
  6
Continuous
 62
     7
370
    18
100
AcDbCircle
 10
1.284200949
 20
1.3596199378
 30
0.0
 40
0.4960716034218698
100
AcDbArc
 50
347.0973347856
 51
132.9026652144
  0
ARC
  5
82
330
7B
100
AcDbEntity
  8
0
  6
Continuous
 62
     7
370
    18
100
AcDbCircle
 10
0.6552739286
 20
1.6135043993
 30
0.0
 40
0.2404361168168511
100
AcDbArc
 50
60.0
 51
150.0
  0
ARC
  5
83
330
7B
100
AcDbEntity
  8
0
  6
Continuous
 62
     7
370
    18
100
AcDbCircle
 10
1.2782059771
 20
1.3566366635
 30
0.0
 40
0.3038116960658321
100
AcDbArc
 50
359.895142647
 51
120.104857353
  0
ARC
  5
84
330
7B
100
AcDbEntity
  8
0
  6
Continuous
 62
     7
370
    18
100
AcDbCircle
 10
0.6552135503
 20
1.6116860916
 30
0.0
 40
0.0493855668656345
100
AcDbArc
 50
60.0
 51
150.0
  0
ARC
  5
85
330
7B
100
AcDbEntity
  8
0
  6
Continuous
 62
     7
370
    18
100
AcDbCircle
 10
1.788218752
 20
0.9575452335
 30
0.0
 40
0.0493855668656102
100
AcDbArc
 50
330.0
 51
60.0
  0
ARC
  5
86
330
7B
100
AcDbEntity
  8
0
  6
Continuous
 62
     7
370
    18
100
AcDbCircle
 10
1.3733809402
 20
0.2390250666
 30
0.0
 40
0.0493855668656062
100
AcDbArc
 50
240.0
 51
330.0
  0
ARC
  5
87
330
7B
100
AcDbEntity
  8
0
  6
Continuous
 62
     7
370
    18
100
AcDbCircle
 10
0.2403757386
 20
0.8931659247
 30
0.0
 40
0.0493855668656078
100
AcDbArc
 50
150.0
 51
240.0
  0
ARC
  5
88
330
7B
100
AcDbEntity
  8
SLD-0
  6
Continuous
 62
   250
420
  1644836
370
    25
100
AcDbCircle
 10
1.2782059771
 20
1.3566366635
 30
0.0
 40
0.3038116960658321
100
AcDbArc
 50
359.895142647
 51
120.104857353
  0
ARC
  5
89
330
7B
100
AcDbEntity
  8
SLD-0
  6
Continuous
 62
   250
420
  1644836
370
    25
100
AcDbCircle
 10
0.6552739286
 20
1.6135043993
 30
0.0
 40
0.2404361168168511
100
AcDbArc
 50
60.0
 51
150.0
  0
ARC
  5
8A
330
7B
100
AcDbEntity
  8
SLD-0
  6
Continuous
 62
   250
420
  1644836
370
    25
100
AcDbCircle
 10
0.6552135503
 20
1.6116860916
 30
0.0
 40
0.0493855668656345
100
AcDbArc
 50
60.0
 51
150.0
  0
ARC
  5
8B
330
7B
100
AcDbEntity
  8
SLD-0
  6
Continuous
 62
   250
420
  1644836
370
    25
100
AcDbCircle
 10
1.284200949
 20
1.3596199378
 30
0.0
 40
0.4960716034218698
100
AcDbArc
 50
347.0973347856
 51
132.9026652144
  0
ARC
  5
8C
330
7B
100
AcDbEntity
  8
SLD-0
  6
Continuous
 62
   250
420
  1644836
370
    25
100
AcDbCircle
 10
1.7889845208
 20
0.9589562837
 30
0.0
 40
0.2404361168168607
100
AcDbArc
 50
330.0
 51
60.0
  0
ARC
  5
8D
330
7B
100
AcDbEntity
  8
SLD-0
  6
Continuous
 62
   250
420
  1644836
370
    25
100
AcDbCircle
 10
1.3741467091
 20
0.2404361168
 30
0.0
 40
0.2404361168168554
100
AcDbArc
 50
240.0
 51
330.0
  0
ARC
  5
8E
330
7B
100
AcDbEntity
  8
SLD-0
  6
Continuous
 62
   250
420
  1644836
370
    25
100
AcDbCircle
 10
0.2404361168
 20
0.8949842324
 30
0.0
 40
0.2404361168168564
100
AcDbArc
 50
150.0
 51
240.0
  0
ARC
  5
8F
330
7B
100
AcDbEntity
  8
SLD-0
  6
Continuous
 62
   250
420
  1644836
370
    25
100
AcDbCircle
 10
0.2403757386
 20
0.8931659247
 30
0.0
 40
0.0493855668656078
100
AcDbArc
 50
150.0
 51
240.0
  0
ARC
  5
90
330
7B
100
AcDbEntity
  8
SLD-0
  6
Continuous
 62
   250
420
  1644836
370
    25
100
AcDbCircle
 10
1.3733809402
 20
0.2390250666
 30
0.0
 40
0.0493855668656062
100
AcDbArc
 50
240.0
 51
330.0
  0
ARC
  5
91
330
7B
100
AcDbEntity
  8
SLD-0
  6
Continuous
 62
   250
420
  1644836
370
    25
100
AcDbCircle
 10
1.788218752
 20
0.9575452335
 30
0.0
 40
0.0493855668656102
100
AcDbArc
 50
330.0
 51
60.0
  0
LINE
  5
92
330
7B
100
AcDbEntity
  8
0
  6
Continuous
 62
     7
370
    18
100
AcDbLine
 10
0.4470501434
 20
1.7337224577
 30
0.0
 11
0.0322123317
 21
1.0152022908
 31
0.0
  0
LINE
  5
93
330
7B
100
AcDbEntity
  8
0
  6
Continuous
 62
     7
370
    18
100
AcDbLine
 10
0.1202180584
 20
0.6867604473
 30
0.0
 11
1.2539286507
 21
0.0322123317
 31
0.0
  0
LINE
  5
94
330
7B
100
AcDbEntity
  8
0
  6
Continuous
 62
     7
370
    18
100
AcDbLine
 10
1.5823704942
 20
0.1202180584
 30
0.0
 11
1.997208306
 21
0.8387382253
 31
0.0
  0
LINE
  5
95
330
7B
100
AcDbEntity
  8
0
  6
Continuous
 62
     7
370
    18
100
AcDbLine
 10
1.9092025792
 20
1.1671800688
 30
0.0
 11
1.7677471454
 21
1.2488494017
 31
0.0
  0
LINE
  5
96
330
7B
100
AcDbEntity
  8
0
  6
Continuous
 62
     7
370
    18
100
AcDbLine
 10
0.9464977525
 20
1.7229979597
 30
0.0
 11
0.775491987
 21
1.8217281845
 31
0.0
  0
LINE
  5
97
330
7B
100
AcDbEntity
  8
0
  6
Continuous
 62
     7
370
    18
100
AcDbLine
 10
1.5820171644
 20
1.3560806562
 30
0.0
 11
1.125818867
 21
1.619466866
 31
0.0
  0
LINE
  5
98
330
7B
100
AcDbEntity
  8
0
  6
Continuous
 62
     7
370
    18
100
AcDbLine
 10
0.6799063338
 20
1.6544552471
 30
0.0
 11
1.8129115354
 21
1.0003143889
 31
0.0
  0
LINE
  5
99
330
7B
100
AcDbEntity
  8
0
  6
Continuous
 62
     7
370
    18
100
AcDbLine
 10
1.8309879075
 20
0.93285245
 30
0.0
 11
1.4161500957
 21
0.2143322831
 31
0.0
  0
LINE
  5
9A
330
7B
100
AcDbEntity
  8
0
  6
Continuous
 62
     7
370
    18
100
AcDbLine
 10
1.3486881568
 20
0.1962559111
 30
0.0
 11
0.2156829551
 21
0.8503967692
 31
0.0
  0
LINE
  5
9B
330
7B
100
AcDbEntity
  8
0
  6
Continuous
 62
     7
370
    18
100
AcDbLine
 10
0.1976065831
 20
0.9178587082
 30
0.0
 11
0.6124443949
 21
1.636378875
 31
0.0
  0
LINE
  5
9C
330
7B
100
AcDbEntity
  8
SLD-0
  6
Continuous
 62
   250
420
  1644836
370
    25
100
AcDbLine
 10
0.775491987
 20
1.8217281845
 30
0.0
 11
0.9464977525
 21
1.7229979597
 31
0.0
  0
LINE
  5
9D
330
7B
100
AcDbEntity
  8
SLD-0
  6
Continuous
 62
   250
420
  1644836
370
    25
100
AcDbLine
 10
1.7677471454
 20
1.2488494017
 30
0.0
 11
1.9092025792
 21
1.1671800688
 31
0.0
  0
LINE
  5
9E
330
7B
100
AcDbEntity
  8
SLD-0
  6
Continuous
 62
   250
420
  1644836
370
    25
100
AcDbLine
 10
1.5823704942
 20
0.1202180584
 30
0.0
 11
1.997208306
 21
0.8387382253
 31
0.0
  0
LINE
  5
9F
330
7B
100
AcDbEntity
  8
SLD-0
  6
Continuous
 62
   250
420
  1644836
370
    25
100
AcDbLine
 10
0.1202180584
 20
0.6867604473
 30
0.0
 11
1.2539286507
 21
0.0322123317
 31
0.0
  0
LINE
  5
A0
330
7B
100
AcDbEntity
  8
SLD-0
  6
Continuous
 62
   250
420
  1644836
370
    25
100
AcDbLine
 10
0.0322123317
 20
1.0152022908
 30
0.0
 11
0.4470501434
 21
1.7337224577
 31
0.0
  0
LINE
  5
A1
330
7B
100
AcDbEntity
  8
SLD-0
  6
Continuous
 62
   250
420
  1644836
370
    25
100
AcDbLine
 10
0.1976065831
 20
0.9178587082
 30
0.0
 11
0.6124443949
 21
1.636378875
 31
0.0
  0
LINE
  5
A2
330
7B
100
AcDbEntity
  8
SLD-0
  6
Continuous
 62
   250
420
  1644836
370
    25
100
AcDbLine
 10
0.2156829551
 20
0.8503967692
 30
0.0
 11
1.3486881568
 21
0.1962559111
 31
0.0
  0
LINE
  5
A3
330
7B
100
AcDbEntity
  8
SLD-0
  6
Continuous
 62
   250
420
  1644836
370
    25
100
AcDbLine
 10
1.4161500957
 20
0.2143322831
 30
0.0
 11
1.8309879075
 21
0.93285245
 31
0.0
  0
LINE
  5
A4
330
7B
100
AcDbEntity
  8
SLD-0
  6
Continuous
 62
   250
420
  1644836
370
    25
100
AcDbLine
 10
0.6799063338
 20
1.6544552471
 30
0.0
 11
1.8129115354
 21
1.0003143889
 31
0.0
  0
LINE
  5
A5
330
7B
100
AcDbEntity
  8
SLD-0
  6
Continuous
 62
   250
420
  1644836
370
    25
100
AcDbLine
 10
1.125818867
 20
1.619466866
 30
0.0
 11
1.5820171644
 21
1.3560806562
 31
0.0
  0
HATCH
  5
A6
330
7B
100
AcDbEntity
  8
0
  6
Continuous
 62
   250
420
  1644836
100
AcDbHatch
 10
0.0
 20
0.0
 30
0.0
210
0.0
220
0.0
230
1.0
  2
SOLID
 70
     1
 71
     0
 91
        3
 92
        0
 93
       10
 72
     1
 10
0.9464977524785402
 20
1.722997959732597
 11
0.7754919869916995
 21
1.821728184469394
 72
     2
 10
0.6552739285832766
 20
1.613504399318717
 40
0.2404361168168494
 50
60.0000000000006
 51
150.0000000000006
 73
     1
 72
     1
 10
0.4470501434326005
 20
1.73372245772714
 11
0.0322123316661779
 21
1.015202290846986
 72
     2
 10
0.2404361168168568
 20
0.8949842324385551
 40
0.2404361168168491
 50
149.9999999999992
 51
239.9999999999992
 73
     1
 72
     1
 10
0.1202180584084311
 20
0.6867604472878927
 11
1.253928650663704
 21
0.0322123316661751
 72
     2
 10
1.374146709072129
 20
0.2404361168168568
 40
0.2404361168168546
 50
240.0000000000017
 51
330.0000000000005
 73
     1
 72
     1
 10
1.582370494222806
 20
0.1202180584084284
 11
1.997208305989234
 21
0.8387382252885961
 72
     2
 10
1.788984520838547
 20
0.9589562836970217
 40
0.2404361168168598
 50
330.0000000000021
 51
420.000000000003
 73
     1
 72
     1
 10
1.909202579246969
 20
1.167180068847709
 11
1.767747145353436
 21
1.248849401684473
 72
     2
 10
1.284200948961552
 20
1.359619937823315
 40
0.4960716034218693
 50
347.0973347856244
 51
492.9026652143789
 73
     1
 97
        0
 92
        0
 93
        2
 72
     1
 10
1.582017164424302
 20
1.356080656170487
 11
1.125818867031153
 21
1.619466865974257
 72
     2
 10
1.278205977134789
 20
1.356636663484796
 40
0.3038116960658246
 50
239.8951426469622
 51
360.1048573530383
 73
     0
 97
        0
 92
        0
 93
        8
 72
     1
 10
1.348688156766101
 20
0.1962559110899075
 11
0.2156829551494919
 21
0.8503967692365035
 72
     2
 10
0.2403757385822911
 20
0.8931659247224175
 40
0.0493855668655997
 50
119.9999999999938
 51
210.0000000000093
 73
     0
 72
     1
 10
0.1976065830963975
 20
0.9178587081552196
 11
0.6124443948628064
 21
1.636378875035368
 72
     2
 10
0.655213550348737
 20
1.611686091602544
 40
0.0493855668656252
 50
210.0000000000098
 51
300.0000000000125
 73
     0
 72
     1
 10
0.6799063337815526
 20
1.654455247088456
 11
1.812911535398141
 21
1.000314388941873
 72
     2
 10
1.78821875196532
 20
0.9575452334559865
 40
0.0493855668656039
 50
300.0000000000325
 51
389.999999999993
 73
     0
 72
     1
 10
1.830987907451237
 20
0.9328524500231873
 11
1.416150095684809
 21
0.2143322831430196
 72
     2
 10
1.373380940198901
 20
0.2390250665758216
 40
0.0493855668656047
 50
30.00000000000062
 51
119.9999999999953
 73
     0
 97
        0
 75
     0
 76
     1
 98
        1
 10
0.0
 20
0.0
  0
ENDBLK
  5
7D
330
7B
100
AcDbEntity
  8
0
100
AcDbBlockEnd
  0
BLOCK
  5
A8
330
A7
100
AcDbEntity
  8
0
100
AcDbBlockBegin
  2
Block17_1_1_1_1
 70
     0
 10
0.0
 20
0.0
 30
0.0
  3
Block17_1_1_1_1
  1

  0
LINE
  5
AA
330
A7
100
AcDbEntity
  8
0
  6
Continuous
 62
     1
370
    18
100
AcDbLine
 10
8.2436186569
 20
0.5972121148
 30
0.0
 11
8.4917348952
 21
0.6055167572
 31
0.0
  0
LINE
  5
AB
330
A7
100
AcDbEntity
  8
0
  6
Continuous
 62
     1
370
    18
100
AcDbLine
 10
8.6342979242
 20
0.4567553357
 30
0.0
 11
8.6342979242
 21
0.262258202
 31
0.0
  0
LINE
  5
AC
330
A7
100
AcDbEntity
  8
0
  6
Continuous
 62
     1
370
    18
100
AcDbLine
 10
8.6324323885
 20
1.2227081567
 30
0.0
 11
8.6324323885
 21
1.0335067371
 31
0.0
  0
LINE
  5
AD
330
A7
100
AcDbEntity
  8
0
  6
Continuous
 62
     1
370
    18
100
AcDbLine
 10
8.6324323885
 20
0.8813753157
 30
0.0
 11
8.7669314893
 21
0.8515267456
 31
0.0
  0
LINE
  5
AE
330
A7
100
AcDbEntity
  8
0
  6
Continuous
 62
     1
370
    18
100
AcDbLine
 10
8.6795522077
 20
0.262258202
 30
0.0
 11
8.6795522077
 21
0.453505693
 31
0.0
  0
LINE
  5
AF
330
A7
100
AcDbEntity
  8
0
  6
Continuous
 62
     1
370
    18
100
AcDbLine
 10
8.6980872069
 20
0.6274217562
 30
0.0
 11
8.5285641791
 21
0.6691856828
 31
0.0
  0
LINE
  5
B0
330
A7
100
AcDbEntity
  8
0
  6
Continuous
 62
     1
370
    18
100
AcDbLine
 10
8.6793114935
 20
1.0318217371
 30
0.0
 11
8.6793114935
 21
1.2227081567
 31
0.0
  0
LINE
  5
B1
330
A7
100
AcDbEntity
  8
0
  6
Continuous
 62
     1
370
    18
100
AcDbLine
 10
9.0513955831
 20
0.9147142427
 30
0.0
 11
8.8065289875
 21
0.9014749576
 31
0.0
  0
LINE
  5
B2
330
A7
100
AcDbEntity
  8
0
  6
Continuous
 62
     1
370
    18
100
AcDbLine
 10
7.0662249623
 20
0.6376521129
 30
0.0
 11
7.3210812003
 21
0.6256163991
 31
0.0
  0
LINE
  5
B3
330
A7
100
AcDbEntity
  8
0
  6
Continuous
 62
     1
370
    18
100
AcDbLine
 10
6.9187272907
 20
0.2620174877
 30
0.0
 11
6.9187272907
 21
0.4827524773
 31
0.0
  0
LINE
  5
B4
330
A7
100
AcDbEntity
  8
0
  6
Continuous
 62
     1
370
    18
100
AcDbLine
 10
6.9187272907
 20
1.0130460237
 30
0.0
 11
6.9187272907
 21
1.2227081567
 31
0.0
  0
LINE
  5
B5
330
A7
100
AcDbEntity
  8
0
  6
Continuous
 62
     1
370
    18
100
AcDbLine
 10
7.3144615578
 20
0.8830603156
 30
0.0
 11
7.0612301411
 21
0.8695803162
 31
0.0
  0
LINE
  5
B6
330
A7
100
AcDbEntity
  8
0
  6
Continuous
 62
     1
370
    18
100
AcDbLine
 10
7.8683451031
 20
0.8759592445
 30
0.0
 11
7.8683451031
 21
0.6985528243
 31
0.0
  0
LINE
  5
B7
330
A7
100
AcDbEntity
  8
0
  6
Continuous
 62
     1
370
    18
100
AcDbLine
 10
8.1684556247
 20
0.8568224597
 30
0.0
 11
8.1684556247
 21
0.4650599781
 31
0.0
  0
LINE
  5
B8
330
A7
100
AcDbEntity
  8
0
  6
Continuous
 62
     1
370
    18
100
AcDbLine
 10
8.2020954445
 20
0.2865703437
 30
0.0
 11
7.927079386
 21
0.2865703437
 31
0.0
  0
LINE
  5
B9
330
A7
100
AcDbEntity
  8
0
  6
Continuous
 62
     1
370
    18
100
AcDbLine
 10
7.906859387
 20
0.421129623
 30
0.0
 11
7.906859387
 21
0.8859488869
 31
0.0
  0
LINE
  5
BA
330
A7
100
AcDbEntity
  8
0
  6
Continuous
 62
     1
370
    18
100
AcDbLine
 10
7.6202890434
 20
0.9027988861
 30
0.0
 11
7.382222626
 21
0.9021971004
 31
0.0
  0
LINE
  5
BB
330
A7
100
AcDbEntity
  8
0
  6
Continuous
 62
     1
370
    18
100
AcDbLine
 10
6.8750376499
 20
1.2227081567
 30
0.0
 11
6.8750376499
 21
1.0136478094
 31
0.0
  0
LINE
  5
BC
330
A7
100
AcDbEntity
  8
0
  6
Continuous
 62
     1
370
    18
100
AcDbLine
 10
6.8750376499
 20
0.4827524773
 30
0.0
 11
6.8750376499
 21
0.2620174877
 31
0.0
  0
LINE
  5
BD
330
A7
100
AcDbEntity
  8
0
  6
Continuous
 62
     1
370
    18
100
AcDbLine
 10
10.023821073
 20
0.6648528259
 30
0.0
 11
9.4302196724
 21
0.6648528259
 31
0.0
  0
LINE
  5
BE
330
A7
100
AcDbEntity
  8
0
  6
Continuous
 62
     1
370
    18
100
AcDbLine
 10
9.4302196724
 20
0.8610349595
 30
0.0
 11
9.7521148358
 21
0.8610349595
 31
0.0
  0
LINE
  5
BF
330
A7
100
AcDbEntity
  8
0
  6
Continuous
 62
     1
370
    18
100
AcDbLine
 10
9.7521148358
 20
0.5695299732
 30
0.0
 11
10.0137110735
 21
0.5509949741
 31
0.0
  0
LINE
  5
C0
330
A7
100
AcDbEntity
  8
0
  6
Continuous
 62
   250
420
  1644836
370
    18
100
AcDbLine
 10
3.4376378118
 20
0.2862092722
 30
0.0
 11
3.4376378118
 21
1.4702226093
 31
0.0
  0
LINE
  5
C1
330
A7
100
AcDbEntity
  8
0
  6
Continuous
 62
   250
420
  1644836
370
    18
100
AcDbLine
 10
3.694841014
 20
0.2862092722
 30
0.0
 11
3.4376378118
 21
0.2862092722
 31
0.0
  0
LINE
  5
C2
330
A7
100
AcDbEntity
  8
0
  6
Continuous
 62
   250
420
  1644836
370
    18
100
AcDbLine
 10
3.694841014
 20
1.4702226093
 30
0.0
 11
3.694841014
 21
0.2862092722
 31
0.0
  0
LINE
  5
C3
330
A7
100
AcDbEntity
  8
0
  6
Continuous
 62
   250
420
  1644836
370
    18
100
AcDbLine
 10
3.4376378118
 20
1.4702226093
 30
0.0
 11
3.694841014
 21
1.4702226093
 31
0.0
  0
LINE
  5
C4
330
A7
100
AcDbEntity
  8
0
  6
Continuous
 62
   250
420
  1644836
370
    18
100
AcDbLine
 10
2.7574093616
 20
0.0
 30
0.0
 11
2.497829106
 21
0.0
 31
0.0
  0
LINE
  5
C5
330
A7
100
AcDbEntity
  8
0
  6
Continuous
 62
   250
420
  1644836
370
    18
100
AcDbLine
 10
2.497829106
 20
1.1935817295
 30
0.0
 11
2.7574093616
 21
1.1935817295
 31
0.0
  0
LINE
  5
C6
330
A7
100
AcDbEntity
  8
0
  6
Continuous
 62
   250
420
  1644836
370
    18
100
AcDbLine
 10
2.497829106
 20
0.0
 30
0.0
 11
2.497829106
 21
1.1935817295
 31
0.0
  0
LINE
  5
C7
330
A7
100
AcDbEntity
  8
0
  6
Continuous
 62
   250
420
  1644836
370
    18
100
AcDbLine
 10
2.7574093616
 20
1.1935817295
 30
0.0
 11
2.7574093616
 21
0.0
 31
0.0
  0
LINE
  5
C8
330
A7
100
AcDbEntity
  8
0
  6
Continuous
 62
   250
420
  1644836
370
    18
100
AcDbLine
 10
2.8007981096
 20
0.3085956998
 30
0.0
 11
2.8007981096
 21
0.526321761
 31
0.0
  0
LINE
  5
C9
330
A7
100
AcDbEntity
  8
0
  6
Continuous
 62
   250
420
  1644836
370
    18
100
AcDbLine
 10
2.8007981096
 20
0.9610517405
 30
0.0
 11
2.8007981096
 21
1.1637331595
 31
0.0
  0
LINE
  5
CA
330
A7
100
AcDbEntity
  8
0
  6
Continuous
 62
   250
420
  1644836
370
    18
100
AcDbLine
 10
4.6000169535
 20
0.8568224597
 30
0.0
 11
4.6000169535
 21
0.4650599781
 31
0.0
  0
LINE
  5
CB
330
A7
100
AcDbEntity
  8
0
  6
Continuous
 62
   250
420
  1644836
370
    18
100
AcDbLine
 10
4.6335665055
 20
0.2865703437
 30
0.0
 11
4.3586106255
 21
0.2865703437
 31
0.0
  0
LINE
  5
CC
330
A7
100
AcDbEntity
  8
0
  6
Continuous
 62
   250
420
  1644836
370
    18
100
AcDbLine
 10
4.3384808944
 20
0.421129623
 30
0.0
 11
4.3384808944
 21
0.8859488869
 31
0.0
  0
LINE
  5
CD
330
A7
100
AcDbEntity
  8
0
  6
Continuous
 62
   250
420
  1644836
370
    18
100
AcDbLine
 10
4.0518804614
 20
0.9027988861
 30
0.0
 11
3.8137839548
 21
0.9021971004
 31
0.0
  0
LINE
  5
CE
330
A7
100
AcDbEntity
  8
0
  6
Continuous
 62
   250
420
  1644836
370
    18
100
AcDbLine
 10
5.0639034495
 20
1.2227081567
 30
0.0
 11
5.0639034495
 21
1.0335067371
 31
0.0
  0
LINE
  5
CF
330
A7
100
AcDbEntity
  8
0
  6
Continuous
 62
   250
420
  1644836
370
    18
100
AcDbLine
 10
5.0639034495
 20
0.8813753157
 30
0.0
 11
5.1984025503
 21
0.8515267456
 31
0.0
  0
LINE
  5
D0
330
A7
100
AcDbEntity
  8
0
  6
Continuous
 62
   250
420
  1644836
370
    18
100
AcDbLine
 10
5.111053358
 20
0.262258202
 30
0.0
 11
5.111053358
 21
0.453505693
 31
0.0
  0
LINE
  5
D1
330
A7
100
AcDbEntity
  8
0
  6
Continuous
 62
   250
420
  1644836
370
    18
100
AcDbLine
 10
5.1296184464
 20
0.6274217562
 30
0.0
 11
4.9600352401
 21
0.6691856828
 31
0.0
  0
LINE
  5
D2
330
A7
100
AcDbEntity
  8
0
  6
Continuous
 62
   250
420
  1644836
370
    18
100
AcDbLine
 10
5.1107524651
 20
1.0318217371
 30
0.0
 11
5.1107524651
 21
1.2227081567
 31
0.0
  0
LINE
  5
D3
330
A7
100
AcDbEntity
  8
0
  6
Continuous
 62
   250
420
  1644836
370
    18
100
AcDbLine
 10
5.482866644
 20
0.9147142427
 30
0.0
 11
5.2381805841
 21
0.9014749576
 31
0.0
  0
LINE
  5
D4
330
A7
100
AcDbEntity
  8
0
  6
Continuous
 62
   250
420
  1644836
370
    18
100
AcDbLine
 10
6.3611126742
 20
0.2862092722
 30
0.0
 11
6.1015625078
 21
0.2862092722
 31
0.0
  0
LINE
  5
D5
330
A7
100
AcDbEntity
  8
0
  6
Continuous
 62
   250
420
  1644836
370
    18
100
AcDbLine
 10
6.3611126742
 20
1.1935817295
 30
0.0
 11
6.3611126742
 21
0.2862092722
 31
0.0
  0
LINE
  5
D6
330
A7
100
AcDbEntity
  8
0
  6
Continuous
 62
   250
420
  1644836
370
    18
100
AcDbLine
 10
6.1015625078
 20
1.1935817295
 30
0.0
 11
6.3611126742
 21
1.1935817295
 31
0.0
  0
LINE
  5
D7
330
A7
100
AcDbEntity
  8
0
  6
Continuous
 62
   250
420
  1644836
370
    18
100
AcDbLine
 10
6.1015625078
 20
0.2862092722
 30
0.0
 11
6.1015625078
 21
1.1935817295
 31
0.0
  0
LINE
  5
D8
330
A7
100
AcDbEntity
  8
0
  6
Continuous
 62
   250
420
  1644836
370
    18
100
AcDbLine
 10
6.3611126742
 20
1.2400395844
 30
0.0
 11
6.1015625078
 21
1.2400395844
 31
0.0
  0
LINE
  5
D9
330
A7
100
AcDbEntity
  8
0
  6
Continuous
 62
   250
420
  1644836
370
    18
100
AcDbLine
 10
6.3611126742
 20
1.469981895
 30
0.0
 11
6.3611126742
 21
1.2400395844
 31
0.0
  0
LINE
  5
DA
330
A7
100
AcDbEntity
  8
0
  6
Continuous
 62
   250
420
  1644836
370
    18
100
AcDbLine
 10
6.1015625078
 20
1.469981895
 30
0.0
 11
6.3611126742
 21
1.469981895
 31
0.0
  0
LINE
  5
DB
330
A7
100
AcDbEntity
  8
0
  6
Continuous
 62
   250
420
  1644836
370
    18
100
AcDbLine
 10
6.1015625078
 20
1.2400395844
 30
0.0
 11
6.1015625078
 21
1.469981895
 31
0.0
  0
LINE
  5
DC
330
A7
100
AcDbEntity
  8
0
  6
Continuous
 62
   250
420
  1644836
370
    18
100
AcDbLine
 10
5.5036884288
 20
0.9995660244
 30
0.0
 11
5.5036884288
 21
1.1935817295
 31
0.0
  0
LINE
  5
DD
330
A7
100
AcDbEntity
  8
0
  6
Continuous
 62
   250
420
  1644836
370
    18
100
AcDbLine
 10
5.5036884288
 20
1.1935817295
 30
0.0
 11
5.6294616371
 21
1.1935817295
 31
0.0
  0
LINE
  5
DE
330
A7
100
AcDbEntity
  8
0
  6
Continuous
 62
   250
420
  1644836
370
    18
100
AcDbLine
 10
5.6294616371
 20
1.1935817295
 30
0.0
 11
5.6294616371
 21
1.3579895789
 31
0.0
  0
LINE
  5
DF
330
A7
100
AcDbEntity
  8
0
  6
Continuous
 62
   250
420
  1644836
370
    18
100
AcDbLine
 10
5.6294616371
 20
1.3579895789
 30
0.0
 11
5.889071982
 21
1.3579895789
 31
0.0
  0
LINE
  5
E0
330
A7
100
AcDbEntity
  8
0
  6
Continuous
 62
   250
420
  1644836
370
    18
100
AcDbLine
 10
5.889071982
 20
1.3579895789
 30
0.0
 11
5.889071982
 21
1.1935817295
 31
0.0
  0
LINE
  5
E1
330
A7
100
AcDbEntity
  8
0
  6
Continuous
 62
   250
420
  1644836
370
    18
100
AcDbLine
 10
5.889071982
 20
1.1935817295
 30
0.0
 11
6.060099474
 21
1.1935817295
 31
0.0
  0
LINE
  5
E2
330
A7
100
AcDbEntity
  8
0
  6
Continuous
 62
   250
420
  1644836
370
    18
100
AcDbLine
 10
6.060099474
 20
1.1935817295
 30
0.0
 11
6.060099474
 21
0.9995660244
 31
0.0
  0
LINE
  5
E3
330
A7
100
AcDbEntity
  8
0
  6
Continuous
 62
   250
420
  1644836
370
    18
100
AcDbLine
 10
6.060099474
 20
0.9995660244
 30
0.0
 11
5.889071982
 21
0.9995660244
 31
0.0
  0
LINE
  5
E4
330
A7
100
AcDbEntity
  8
0
  6
Continuous
 62
   250
420
  1644836
370
    18
100
AcDbLine
 10
5.889071982
 20
0.9995660244
 30
0.0
 11
5.889071982
 21
0.6232092564
 31
0.0
  0
LINE
  5
E5
330
A7
100
AcDbEntity
  8
0
  6
Continuous
 62
   250
420
  1644836
370
    18
100
AcDbLine
 10
6.060099474
 20
0.4909367626
 30
0.0
 11
6.060099474
 21
0.2906624863
 31
0.0
  0
LINE
  5
E6
330
A7
100
AcDbEntity
  8
0
  6
Continuous
 62
   250
420
  1644836
370
    18
100
AcDbLine
 10
5.6294616371
 20
0.5311360464
 30
0.0
 11
5.6294616371
 21
0.9995660244
 31
0.0
  0
LINE
  5
E7
330
A7
100
AcDbEntity
  8
0
  6
Continuous
 62
   250
420
  1644836
370
    18
100
AcDbLine
 10
5.6294616371
 20
0.9995660244
 30
0.0
 11
5.5036884288
 21
0.9995660244
 31
0.0
  0
LINE
  5
E8
330
A7
100
AcDbEntity
  8
0
  6
Continuous
 62
   250
420
  1644836
370
    18
100
AcDbLine
 10
4.6751498964
 20
0.5972121148
 30
0.0
 11
4.9232059561
 21
0.6055167572
 31
0.0
  0
LINE
  5
E9
330
A7
100
AcDbEntity
  8
0
  6
Continuous
 62
   250
420
  1644836
370
    18
100
AcDbLine
 10
5.0657388958
 20
0.4567553357
 30
0.0
 11
5.0657388958
 21
0.262258202
 31
0.0
  0
LINE
  5
EA
330
A7
100
AcDbEntity
  8
0
  6
Continuous
 62
   250
420
  1644836
370
    18
100
AcDbLine
 10
4.2999064319
 20
0.8759592445
 30
0.0
 11
4.2999064319
 21
0.6985528243
 31
0.0
  0
SPLINE
  5
EB
330
A7
100
AcDbEntity
  8
0
  6
Continuous
 62
     1
370
    18
100
AcDbSpline
210
0.0
220
0.0
230
1.0
 70
     8
 71
     3
 72
     8
 73
     4
 74
     0
 42
0.000000001
 43
0.00000001
 40
0.0
 40
0.0
 40
0.0
 40
0.0
 40
0.25
 40
0.25
 40
0.25
 40
0.25
 10
8.634297924164704
 20
0.2622582019596584
 30
0.0
 10
8.357476508631391
 20
0.2839224866535712
 30
0.0
 10
8.256978299079025
 20
0.4030760524701079
 30
0.0
 10
8.243618656851137
 20
0.5972121147549319
 30
0.0
  0
SPLINE
  5
EC
330
A7
100
AcDbEntity
  8
0
  6
Continuous
 62
     1
370
    18
100
AcDbSpline
210
0.0
220
0.0
230
1.0
 70
     8
 71
     3
 72
     8
 73
     4
 74
     0
 42
0.000000001
 43
0.00000001
 40
0.5
 40
0.5
 40
0.5
 40
0.5
 40
0.75
 40
0.75
 40
0.75
 40
0.75
 10
8.491734895165033
 20
0.6055167572209607
 30
0.0
 10
8.505094537392944
 20
0.5270439037741552
 30
0.0
 10
8.52188435803072
 20
0.4785399774871932
 30
0.0
 10
8.634297924164704
 20
0.4567553356561301
 30
0.0
  0
SPLINE
  5
ED
330
A7
100
AcDbEntity
  8
0
  6
Continuous
 62
     1
370
    18
100
AcDbSpline
210
0.0
220
0.0
230
1.0
 70
     8
 71
     3
 72
     8
 73
     4
 74
     0
 42
0.000000001
 43
0.00000001
 40
0.0
 40
0.0
 40
0.0
 40
0.0
 40
0.0714285714285714
 40
0.0714285714285714
 40
0.0714285714285714
 40
0.0714285714285714
 10
8.528564179144675
 20
0.66918568279363
 30
0.0
 10
8.424876505456874
 20
0.6974696100328768
 30
0.0
 10
8.272745084050753
 20
0.7393538937744721
 30
0.0
 10
8.272745084050753
 20
0.9332492417849844
 30
0.0
  0
SPLINE
  5
EE
330
A7
100
AcDbEntity
  8
0
  6
Continuous
 62
     1
370
    18
100
AcDbSpline
210
0.0
220
0.0
230
1.0
 70
     8
 71
     3
 72
     8
 73
     4
 74
     0
 42
0.000000001
 43
0.00000001
 40
0.0714285714285714
 40
0.0714285714285714
 40
0.0714285714285714
 40
0.0714285714285714
 40
0.1428571428571428
 40
0.1428571428571428
 40
0.1428571428571428
 40
0.1428571428571428
 10
8.272745084050753
 20
0.9332492417849844
 30
0.0
 10
8.272745084050753
 20
0.9799478110140686
 30
0.0
 10
8.281109905085367
 20
1.053606378973352
 30
0.0
 10
8.339663652327506
 20
1.117215125977419
 30
0.0
  0
SPLINE
  5
EF
330
A7
100
AcDbEntity
  8
0
  6
Continuous
 62
     1
370
    18
100
AcDbSpline
210
0.0
220
0.0
230
1.0
 70
     8
 71
     3
 72
     8
 73
     4
 74
     0
 42
0.000000001
 43
0.00000001
 40
0.1428571428571428
 40
0.1428571428571428
 40
0.1428571428571428
 40
0.1428571428571428
 40
0.2142857142857144
 40
0.2142857142857144
 40
0.2142857142857144
 40
0.2142857142857144
 10
8.339663652327506
 20
1.117215125977419
 30
0.0
 10
8.42824650529816
 20
1.21103351441575
 30
0.0
 10
8.557088820658356
 20
1.217713335529763
 30
0.0
 10
8.632432388538266
 20
1.222708156723103
 30
0.0
  0
SPLINE
  5
F0
330
A7
100
AcDbEntity
  8
0
  6
Continuous
 62
     1
370
    18
100
AcDbSpline
210
0.0
220
0.0
230
1.0
 70
     8
 71
     3
 72
     8
 73
     4
 74
     0
 42
0.000000001
 43
0.00000001
 40
0.2857142857142856
 40
0.2857142857142856
 40
0.2857142857142856
 40
0.2857142857142856
 40
0.3571428571428568
 40
0.3571428571428568
 40
0.3571428571428568
 40
0.3571428571428568
 10
8.632432388538266
 20
1.033506737062908
 30
0.0
 10
8.577128284000207
 20
1.030136737221638
 30
0.0
 10
8.520259536678706
 20
1.01509209507307
 30
0.0
 10
8.520259536678706
 20
0.9582835263201775
 30
0.0
  0
SPLINE
  5
F1
330
A7
100
AcDbEntity
  8
0
  6
Continuous
 62
     1
370
    18
100
AcDbSpline
210
0.0
220
0.0
230
1.0
 70
     8
 71
     3
 72
     8
 73
     4
 74
     0
 42
0.000000001
 43
0.00000001
 40
0.3571428571428568
 40
0.3571428571428568
 40
0.3571428571428568
 40
0.3571428571428568
 40
0.4285714285714288
 40
0.4285714285714288
 40
0.4285714285714288
 40
0.4285714285714288
 10
8.520259536678706
 20
0.9582835263201775
 30
0.0
 10
8.520259536678706
 20
0.9130292427373019
 30
0.0
 10
8.553598463679862
 20
0.9030396003506984
 30
0.0
 10
8.632432388538266
 20
0.8813753156567528
 30
0.0
  0
SPLINE
  5
F2
330
A7
100
AcDbEntity
  8
0
  6
Continuous
 62
     1
370
    18
100
AcDbSpline
210
0.0
220
0.0
230
1.0
 70
     8
 71
     3
 72
     8
 73
     4
 74
     0
 42
0.000000001
 43
0.00000001
 40
0.5
 40
0.5
 40
0.5
 40
0.5
 40
0.5714285714285712
 40
0.5714285714285712
 40
0.5714285714285712
 40
0.5714285714285712
 10
8.766931489346307
 20
0.8515267456339943
 30
0.0
 10
8.882955769595918
 20
0.8246871040410433
 30
0.0
 10
9.077934331841096
 20
0.7828028202994808
 30
0.0
 10
9.077934331841096
 20
0.5638731877537753
 30
0.0
  0
SPLINE
  5
F3
330
A7
100
AcDbEntity
  8
0
  6
Continuous
 62
     1
370
    18
100
AcDbSpline
210
0.0
220
0.0
230
1.0
 70
     8
 71
     3
 72
     8
 73
     4
 74
     0
 42
0.000000001
 43
0.00000001
 40
0.5714285714285712
 40
0.5714285714285712
 40
0.5714285714285712
 40
0.5714285714285712
 40
0.6428571428571423
 40
0.6428571428571423
 40
0.6428571428571423
 40
0.6428571428571423
 10
9.077934331841096
 20
0.5638731877537753
 30
0.0
 10
9.077934331841096
 20
0.4501356931107742
 30
0.0
 10
9.020764691676654
 20
0.3578217688872759
 30
0.0
 10
8.906425411347671
 20
0.3058274856218502
 30
0.0
  0
SPLINE
  5
F4
330
A7
100
AcDbEntity
  8
0
  6
Continuous
 62
     1
370
    18
100
AcDbSpline
210
0.0
220
0.0
230
1.0
 70
     8
 71
     3
 72
     8
 73
     4
 74
     0
 42
0.000000001
 43
0.00000001
 40
0.6428571428571423
 40
0.6428571428571423
 40
0.6428571428571423
 40
0.6428571428571423
 40
0.7142857142857135
 40
0.7142857142857135
 40
0.7142857142857135
 40
0.7142857142857135
 10
8.906425411347671
 20
0.3058274856218502
 30
0.0
 10
8.815615951338998
 20
0.2639432018803314
 30
0.0
 10
8.718307205922205
 20
0.2622582019596584
 30
0.0
 10
8.679552207747525
 20
0.2622582019596584
 30
0.0
  0
SPLINE
  5
F5
330
A7
100
AcDbEntity
  8
0
  6
Continuous
 62
     1
370
    18
100
AcDbSpline
210
0.0
220
0.0
230
1.0
 70
     8
 71
     3
 72
     8
 73
     4
 74
     0
 42
0.000000001
 43
0.00000001
 40
0.7857142857142847
 40
0.7857142857142847
 40
0.7857142857142847
 40
0.7857142857142847
 40
0.8571428571428577
 40
0.8571428571428577
 40
0.8571428571428577
 40
0.8571428571428577
 10
8.679552207747525
 20
0.4535056929520109
 30
0.0
 10
8.71481684894373
 20
0.4550703357354789
 30
0.0
 10
8.813991129986968
 20
0.4634953353386472
 30
0.0
 10
8.813991129986968
 20
0.540283188864867
 30
0.0
  0
SPLINE
  5
F6
330
A7
100
AcDbEntity
  8
0
  6
Continuous
 62
     1
370
    18
100
AcDbSpline
210
0.0
220
0.0
230
1.0
 70
     8
 71
     3
 72
     8
 73
     4
 74
     0
 42
0.000000001
 43
0.00000001
 40
0.8571428571428577
 40
0.8571428571428577
 40
0.8571428571428577
 40
0.8571428571428577
 40
0.9285714285714288
 40
0.9285714285714288
 40
0.9285714285714288
 40
0.9285714285714288
 10
8.813991129986968
 20
0.540283188864867
 30
0.0
 10
8.813991129986968
 20
0.5955271148343244
 30
0.0
 10
8.756821489822444
 20
0.6122567569035215
 30
0.0
 10
8.69808720687454
 20
0.6274217561892834
 30
0.0
  0
SPLINE
  5
F7
330
A7
100
AcDbEntity
  8
0
  6
Continuous
 62
     1
370
    18
100
AcDbSpline
210
0.0
220
0.0
230
1.0
 70
     8
 71
     3
 72
     8
 73
     4
 74
     0
 42
0.000000001
 43
0.00000001
 40
0.0
 40
0.0
 40
0.0
 40
0.0
 40
0.2
 40
0.2
 40
0.2
 40
0.2
 10
8.806528987481254
 20
0.9014749575672413
 30
0.0
 10
8.803158987639984
 20
1.011842452368995
 30
0.0
 10
8.714455777532125
 20
1.025202094596911
 30
0.0
 10
8.679311493473152
 20
1.031821737142311
 30
0.0
  0
SPLINE
  5
F8
330
A7
100
AcDbEntity
  8
0
  6
Continuous
 62
     1
370
    18
100
AcDbSpline
210
0.0
220
0.0
230
1.0
 70
     8
 71
     3
 72
     8
 73
     4
 74
     0
 42
0.000000001
 43
0.00000001
 40
0.3999999999999999
 40
0.3999999999999999
 40
0.3999999999999999
 40
0.3999999999999999
 40
0.5999999999999996
 40
0.5999999999999996
 40
0.5999999999999996
 40
0.5999999999999996
 10
8.679311493473152
 20
1.222708156723103
 30
0.0
 10
8.783179702866711
 20
1.217713335529763
 30
0.0
 10
8.883677912419044
 20
1.192558693857354
 30
0.0
 10
8.95751701608411
 20
1.123834768522819
 30
0.0
  0
SPLINE
  5
F9
330
A7
100
AcDbEntity
  8
0
  6
Continuous
 62
     1
370
    18
100
AcDbSpline
210
0.0
220
0.0
230
1.0
 70
     8
 71
     3
 72
     8
 73
     4
 74
     0
 42
0.000000001
 43
0.00000001
 40
0.5999999999999996
 40
0.5999999999999996
 40
0.5999999999999996
 40
0.5999999999999996
 40
0.7999999999999998
 40
0.7999999999999998
 40
0.7999999999999998
 40
0.7999999999999998
 10
8.95751701608411
 20
1.123834768522819
 30
0.0
 10
9.027865762770736
 20
1.056976378814655
 30
0.0
 10
9.04471576197712
 20
0.9833178108553708
 30
0.0
 10
9.051395583091075
 20
0.9147142426579749
 30
0.0
  0
SPLINE
  5
FA
330
A7
100
AcDbEntity
  8
0
  6
Continuous
 62
     1
370
    18
100
AcDbSpline
210
0.0
220
0.0
230
1.0
 70
     8
 71
     3
 72
     8
 73
     4
 74
     0
 42
0.000000001
 43
0.00000001
 40
0.0
 40
0.0
 40
0.0
 40
0.0
 40
0.25
 40
0.25
 40
0.25
 40
0.25
 10
6.918727290681269
 20
0.4827524772888429
 30
0.0
 10
7.014230679040273
 20
0.4979174765745392
 30
0.0
 10
7.047870498884442
 20
0.548467474193669
 30
0.0
 10
7.066224962305672
 20
0.6376521128502531
 30
0.0
  0
SPLINE
  5
FB
330
A7
100
AcDbEntity
  8
0
  6
Continuous
 62
     1
370
    18
100
AcDbSpline
210
0.0
220
0.0
230
1.0
 70
     8
 71
     3
 72
     8
 73
     4
 74
     0
 42
0.000000001
 43
0.00000001
 40
0.5
 40
0.5
 40
0.5
 40
0.5
 40
0.75
 40
0.75
 40
0.75
 40
0.75
 10
7.321081200302102
 20
0.6256163991314382
 30
0.0
 10
7.299296558471022
 20
0.4589217641255027
 30
0.0
 10
7.190433527884112
 20
0.2754974870503483
 30
0.0
 10
6.918727290681269
 20
0.2620174876852922
 30
0.0
  0
SPLINE
  5
FC
330
A7
100
AcDbEntity
  8
0
  6
Continuous
 62
     1
370
    18
100
AcDbSpline
210
0.0
220
0.0
230
1.0
 70
     8
 71
     3
 72
     8
 73
     4
 74
     0
 42
0.000000001
 43
0.00000001
 40
0.0
 40
0.0
 40
0.0
 40
0.0
 40
0.2
 40
0.2
 40
0.2
 40
0.2
 10
7.061230141112365
 20
0.8695803162123369
 30
0.0
 10
7.039385320712647
 20
0.9779619182504705
 30
0.0
 10
6.985766216095252
 20
0.9996863815129748
 30
0.0
 10
6.918727290681269
 20
1.013046023740892
 30
0.0
  0
SPLINE
  5
FD
330
A7
100
AcDbEntity
  8
0
  6
Continuous
 62
     1
370
    18
100
AcDbSpline
210
0.0
220
0.0
230
1.0
 70
     8
 71
     3
 72
     8
 73
     4
 74
     0
 42
0.000000001
 43
0.00000001
 40
0.3999999999999999
 40
0.3999999999999999
 40
0.3999999999999999
 40
0.3999999999999999
 40
0.5999999999999996
 40
0.5999999999999996
 40
0.5999999999999996
 40
0.5999999999999996
 10
6.918727290681269
 20
1.222708156723103
 30
0.0
 10
7.062915141033004
 20
1.219398335450393
 30
0.0
 10
7.146743887084704
 20
1.164515480892463
 30
0.0
 10
7.192058349236142
 20
1.124496732777337
 30
0.0
  0
SPLINE
  5
FE
330
A7
100
AcDbEntity
  8
0
  6
Continuous
 62
     1
370
    18
100
AcDbSpline
210
0.0
220
0.0
230
1.0
 70
     8
 71
     3
 72
     8
 73
     4
 74
     0
 42
0.000000001
 43
0.00000001
 40
0.5999999999999996
 40
0.5999999999999996
 40
0.5999999999999996
 40
0.5999999999999996
 40
0.7999999999999998
 40
0.7999999999999998
 40
0.7999999999999998
 40
0.7999999999999998
 10
7.192058349236142
 20
1.124496732777337
 30
0.0
 10
7.289306916084366
 20
1.037839594001697
 30
0.0
 10
7.30441173680152
 20
0.9413131699765596
 30
0.0
 10
7.314461557756719
 20
0.8830603155774148
 30
0.0
  0
SPLINE
  5
FF
330
A7
100
AcDbEntity
  8
0
  6
Continuous
 62
     1
370
    18
100
AcDbSpline
210
0.0
220
0.0
230
1.0
 70
     8
 71
     3
 72
     8
 73
     4
 74
     0
 42
0.000000001
 43
0.00000001
 40
0.0
 40
0.0
 40
0.0
 40
0.0
 40
0.0909090909090909
 40
0.0909090909090909
 40
0.0909090909090909
 40
0.0909090909090909
 10
7.868345103097719
 20
0.6985528242675905
 30
0.0
 10
7.844875461345977
 20
0.6916924674479011
 30
0.0
 10
7.731017609565782
 20
0.6700281827539447
 30
0.0
 10
7.70417796797276
 20
0.6632881830713729
 30
0.0
  0
SPLINE
  5
100
330
A7
100
AcDbEntity
  8
0
  6
Continuous
 62
     1
370
    18
100
AcDbSpline
210
0.0
220
0.0
230
1.0
 70
     8
 71
     3
 72
     8
 73
     4
 74
     0
 42
0.000000001
 43
0.00000001
 40
0.0909090909090909
 40
0.0909090909090909
 40
0.0909090909090909
 40
0.0909090909090909
 40
0.1818181818181819
 40
0.1818181818181819
 40
0.1818181818181819
 40
0.1818181818181819
 10
7.70417796797276
 20
0.6632881830713729
 30
0.0
 10
7.632084042796906
 20
0.643188541160939
 30
0.0
 10
7.593449401759452
 20
0.6146638996472932
 30
0.0
 10
7.593449401759452
 20
0.557855330894346
 30
0.0
  0
SPLINE
  5
101
330
A7
100
AcDbEntity
  8
0
  6
Continuous
 62
     1
370
    18
100
AcDbSpline
210
0.0
220
0.0
230
1.0
 70
     8
 71
     3
 72
     8
 73
     4
 74
     0
 42
0.000000001
 43
0.00000001
 40
0.1818181818181819
 40
0.1818181818181819
 40
0.1818181818181819
 40
0.1818181818181819
 40
0.2727272727272729
 40
0.2727272727272729
 40
0.2727272727272729
 40
0.2727272727272729
 10
7.593449401759452
 20
0.557855330894346
 30
0.0
 10
7.593449401759452
 20
0.5009264050042485
 30
0.0
 10
7.638763863910881
 20
0.4607271211833698
 30
0.0
 10
7.714167610359402
 20
0.4607271211833698
 30
0.0
  0
SPLINE
  5
102
330
A7
100
AcDbEntity
  8
0
  6
Continuous
 62
     1
370
    18
100
AcDbSpline
210
0.0
220
0.0
230
1.0
 70
     8
 71
     3
 72
     8
 73
     4
 74
     0
 42
0.000000001
 43
0.00000001
 40
0.2727272727272729
 40
0.2727272727272729
 40
0.2727272727272729
 40
0.2727272727272729
 40
0.3636363636363638
 40
0.3636363636363638
 40
0.3636363636363638
 40
0.3636363636363638
 10
7.714167610359402
 20
0.4607271211833698
 30
0.0
 10
7.747626894497769
 20
0.4607271211833698
 30
0.0
 10
7.809731177286987
 20
0.4674671208658869
 30
0.0
 10
7.868345103097719
 20
0.5109160473908956
 30
0.0
  0
SPLINE
  5
103
330
A7
100
AcDbEntity
  8
0
  6
Continuous
 62
     1
370
    18
100
AcDbSpline
210
0.0
220
0.0
230
1.0
 70
     8
 71
     3
 72
     8
 73
     4
 74
     0
 42
0.000000001
 43
0.00000001
 40
0.3636363636363638
 40
0.3636363636363638
 40
0.3636363636363638
 40
0.3636363636363638
 40
0.454545454545455
 40
0.454545454545455
 40
0.454545454545455
 40
0.454545454545455
 10
7.868345103097719
 20
0.5109160473908956
 30
0.0
 10
7.865035281825052
 20
0.4807064059566205
 30
0.0
 10
7.863410460473004
 20
0.4523021215801359
 30
0.0
 10
7.863410460473004
 20
0.4237774800664901
 30
0.0
  0
SPLINE
  5
104
330
A7
100
AcDbEntity
  8
0
  6
Continuous
 62
     1
370
    18
100
AcDbSpline
210
0.0
220
0.0
230
1.0
 70
     8
 71
     3
 72
     8
 73
     4
 74
     0
 42
0.000000001
 43
0.00000001
 40
0.454545454545455
 40
0.454545454545455
 40
0.454545454545455
 40
0.454545454545455
 40
0.5454545454545459
 40
0.5454545454545459
 40
0.5454545454545459
 40
0.5454545454545459
 10
7.863410460473004
 20
0.4237774800664901
 30
0.0
 10
7.863410460473004
 20
0.4086124807807829
 30
0.0
 10
7.868345103097719
 20
0.3363981984677075
 30
0.0
 10
7.868345103097719
 20
0.3212331991819456
 30
0.0
  0
SPLINE
  5
105
330
A7
100
AcDbEntity
  8
0
  6
Continuous
 62
     1
370
    18
100
AcDbSpline
210
0.0
220
0.0
230
1.0
 70
     8
 71
     3
 72
     8
 73
     4
 74
     0
 42
0.000000001
 43
0.00000001
 40
0.5454545454545459
 40
0.5454545454545459
 40
0.5454545454545459
 40
0.5454545454545459
 40
0.6363636363636367
 40
0.6363636363636367
 40
0.6363636363636367
 40
0.6363636363636367
 10
7.868345103097719
 20
0.3212331991819456
 30
0.0
 10
7.789631535376532
 20
0.2574439164721368
 30
0.0
 10
7.670598326697232
 20
0.2574439164721368
 30
0.0
 10
7.645443685024823
 20
0.2574439164721368
 30
0.0
  0
SPLINE
  5
106
330
A7
100
AcDbEntity
  8
0
  6
Continuous
 62
     1
370
    18
100
AcDbSpline
210
0.0
220
0.0
230
1.0
 70
     8
 71
     3
 72
     8
 73
     4
 74
     0
 42
0.000000001
 43
0.00000001
 40
0.6363636363636367
 40
0.6363636363636367
 40
0.6363636363636367
 40
0.6363636363636367
 40
0.7272727272727275
 40
0.7272727272727275
 40
0.7272727272727275
 40
0.7272727272727275
 10
7.645443685024823
 20
0.2574439164721368
 30
0.0
 10
7.474416193080131
 20
0.2574439164721368
 30
0.0
 10
7.331913342649069
 20
0.363237840060724
 30
0.0
 10
7.331913342649069
 20
0.5494303312911996
 30
0.0
  0
SPLINE
  5
107
330
A7
100
AcDbEntity
  8
0
  6
Continuous
 62
     1
370
    18
100
AcDbSpline
210
0.0
220
0.0
230
1.0
 70
     8
 71
     3
 72
     8
 73
     4
 74
     0
 42
0.000000001
 43
0.00000001
 40
0.7272727272727275
 40
0.7272727272727275
 40
0.7272727272727275
 40
0.7272727272727275
 40
0.8181818181818183
 40
0.8181818181818183
 40
0.8181818181818183
 40
0.8181818181818183
 10
7.331913342649069
 20
0.5494303312911996
 30
0.0
 10
7.331913342649069
 20
0.7636660354865119
 30
0.0
 10
7.51142601276554
 20
0.8072353191487366
 30
0.0
 10
7.596939758737919
 20
0.8257703182757242
 30
0.0
  0
SPLINE
  5
108
330
A7
100
AcDbEntity
  8
0
  6
Continuous
 62
     1
370
    18
100
AcDbSpline
210
0.0
220
0.0
230
1.0
 70
     8
 71
     3
 72
     8
 73
     4
 74
     0
 42
0.000000001
 43
0.00000001
 40
0.8181818181818183
 40
0.8181818181818183
 40
0.8181818181818183
 40
0.8181818181818183
 40
0.9090909090909101
 40
0.9090909090909101
 40
0.9090909090909101
 40
0.9090909090909101
 10
7.596939758737919
 20
0.8257703182757242
 30
0.0
 10
7.633769042717525
 20
0.8340749607417203
 30
0.0
 10
7.824835998004127
 20
0.8659696020966247
 30
0.0
 10
7.868345103097719
 20
0.8759592444832828
 30
0.0
  0
SPLINE
  5
109
330
A7
100
AcDbEntity
  8
0
  6
Continuous
 62
     1
370
    18
100
AcDbSpline
210
0.0
220
0.0
230
1.0
 70
     8
 71
     3
 72
     8
 73
     4
 74
     0
 42
0.000000001
 43
0.00000001
 40
0.0
 40
0.0
 40
0.0
 40
0.0
 40
0.0909090909090909
 40
0.0909090909090909
 40
0.0909090909090909
 40
0.0909090909090909
 10
7.3822226259938
 20
0.9021971003904166
 30
0.0
 10
7.395702625358918
 20
1.110535304863461
 30
0.0
 10
7.534775297380111
 20
1.217893871235549
 30
0.0
 10
7.77121689338671
 20
1.217893871235549
 30
0.0
  0
SPLINE
  5
10A
330
A7
100
AcDbEntity
  8
0
  6
Continuous
 62
     1
370
    18
100
AcDbSpline
210
0.0
220
0.0
230
1.0
 70
     8
 71
     3
 72
     8
 73
     4
 74
     0
 42
0.000000001
 43
0.00000001
 40
0.0909090909090909
 40
0.0909090909090909
 40
0.0909090909090909
 40
0.0909090909090909
 40
0.1818181818181819
 40
0.1818181818181819
 40
0.1818181818181819
 40
0.1818181818181819
 10
7.77121689338671
 20
1.217893871235549
 30
0.0
 10
7.868345103097719
 20
1.217893871235549
 30
0.0
 10
7.970528312570703
 20
1.204413871870471
 30
0.0
 10
8.049422415997732
 20
1.147364588843157
 30
0.0
  0
SPLINE
  5
10B
330
A7
100
AcDbEntity
  8
0
  6
Continuous
 62
     1
370
    18
100
AcDbSpline
210
0.0
220
0.0
230
1.0
 70
     8
 71
     3
 72
     8
 73
     4
 74
     0
 42
0.000000001
 43
0.00000001
 40
0.1818181818181819
 40
0.1818181818181819
 40
0.1818181818181819
 40
0.1818181818181819
 40
0.2727272727272729
 40
0.2727272727272729
 40
0.2727272727272729
 40
0.2727272727272729
 10
8.049422415997732
 20
1.147364588843157
 30
0.0
 10
8.161775803563028
 20
1.068530663984693
 30
0.0
 10
8.16514580340433
 20
0.957681740634251
 30
0.0
 10
8.168455624676987
 20
0.8568224596703468
 30
0.0
  0
SPLINE
  5
10C
330
A7
100
AcDbEntity
  8
0
  6
Continuous
 62
     1
370
    18
100
AcDbSpline
210
0.0
220
0.0
230
1.0
 70
     8
 71
     3
 72
     8
 73
     4
 74
     0
 42
0.000000001
 43
0.00000001
 40
0.3636363636363638
 40
0.3636363636363638
 40
0.3636363636363638
 40
0.3636363636363638
 40
0.454545454545455
 40
0.454545454545455
 40
0.454545454545455
 40
0.454545454545455
 10
8.168455624676987
 20
0.4650599781221371
 30
0.0
 10
8.168455624676987
 20
0.3792453393068006
 30
0.0
 10
8.171945981655448
 20
0.3403699839949472
 30
0.0
 10
8.202095444521172
 20
0.2865703436717201
 30
0.0
  0
SPLINE
  5
10D
330
A7
100
AcDbEntity
  8
0
  6
Continuous
 62
     1
370
    18
100
AcDbSpline
210
0.0
220
0.0
230
1.0
 70
     8
 71
     3
 72
     8
 73
     4
 74
     0
 42
0.000000001
 43
0.00000001
 40
0.5454545454545459
 40
0.5454545454545459
 40
0.5454545454545459
 40
0.5454545454545459
 40
0.6363636363636367
 40
0.6363636363636367
 40
0.6363636363636367
 40
0.6363636363636367
 10
7.92707938604569
 20
0.2865703436717201
 30
0.0
 10
7.913539208111981
 20
0.3185853421638514
 30
0.0
 10
7.908544386918669
 20
0.3403699839949472
 30
0.0
 10
7.906859386998023
 20
0.4211296230483522
 30
0.0
  0
SPLINE
  5
10E
330
A7
100
AcDbEntity
  8
0
  6
Continuous
 62
     1
370
    18
100
AcDbSpline
210
0.0
220
0.0
230
1.0
 70
     8
 71
     3
 72
     8
 73
     4
 74
     0
 42
0.000000001
 43
0.00000001
 40
0.7272727272727275
 40
0.7272727272727275
 40
0.7272727272727275
 40
0.7272727272727275
 40
0.8181818181818183
 40
0.8181818181818183
 40
0.8181818181818183
 40
0.8181818181818183
 10
7.906859386998023
 20
0.885948886869941
 30
0.0
 10
7.908544386918669
 20
0.9345731702940643
 30
0.0
 10
7.910229386839315
 20
1.016656737856538
 30
0.0
 10
7.77121689338671
 20
1.016656737856538
 30
0.0
  0
SPLINE
  5
10F
330
A7
100
AcDbEntity
  8
0
  6
Continuous
 62
     1
370
    18
100
AcDbSpline
210
0.0
220
0.0
230
1.0
 70
     8
 71
     3
 72
     8
 73
     4
 74
     0
 42
0.000000001
 43
0.00000001
 40
0.8181818181818183
 40
0.8181818181818183
 40
0.8181818181818183
 40
0.8181818181818183
 40
0.9090909090909101
 40
0.9090909090909101
 40
0.9090909090909101
 40
0.9090909090909101
 10
7.77121689338671
 20
1.016656737856538
 30
0.0
 10
7.742632073304456
 20
1.016656737856538
 30
0.0
 10
7.623659043193703
 20
1.013166380878075
 30
0.0
 10
7.620289043352452
 20
0.9027988860762993
 30
0.0
  0
SPLINE
  5
110
330
A7
100
AcDbEntity
  8
0
  6
Continuous
 62
     1
370
    18
100
AcDbSpline
210
0.0
220
0.0
230
1.0
 70
     8
 71
     3
 72
     8
 73
     4
 74
     0
 42
0.000000001
 43
0.00000001
 40
0.0
 40
0.0
 40
0.0
 40
0.0
 40
0.1428571428571429
 40
0.1428571428571429
 40
0.1428571428571429
 40
0.1428571428571429
 10
6.875037649881927
 20
0.2620174876852922
 30
0.0
 10
6.549471593787256
 20
0.2720071300719285
 30
0.0
 10
6.441932491709446
 20
0.5163321185643766
 30
0.0
 10
6.441932491709446
 20
0.7383910366769634
 30
0.0
  0
SPLINE
  5
111
330
A7
100
AcDbEntity
  8
0
  6
Continuous
 62
     1
370
    18
100
AcDbSpline
210
0.0
220
0.0
230
1.0
 70
     8
 71
     3
 72
     8
 73
     4
 74
     0
 42
0.000000001
 43
0.00000001
 40
0.1428571428571429
 40
0.1428571428571429
 40
0.1428571428571429
 40
0.1428571428571429
 40
0.2857142857142858
 40
0.2857142857142858
 40
0.2857142857142858
 40
0.2857142857142858
 10
6.441932491709446
 20
0.7383910366769634
 30
0.0
 10
6.441932491709446
 20
1.080446020566369
 30
0.0
 10
6.66874551674099
 20
1.216088514177704
 30
0.0
 10
6.875037649881927
 20
1.222708156723103
 30
0.0
  0
SPLINE
  5
112
330
A7
100
AcDbEntity
  8
0
  6
Continuous
 62
     1
370
    18
100
AcDbSpline
210
0.0
220
0.0
230
1.0
 70
     8
 71
     3
 72
     8
 73
     4
 74
     0
 42
0.000000001
 43
0.00000001
 40
0.4285714285714288
 40
0.4285714285714288
 40
0.4285714285714288
 40
0.4285714285714288
 40
0.5714285714285716
 40
0.5714285714285716
 40
0.5714285714285716
 40
0.5714285714285716
 10
6.875037649881927
 20
1.013647809426829
 30
0.0
 10
6.72747979968893
 20
0.9901179891064685
 30
0.0
 10
6.710810336188305
 20
0.834195317878969
 30
0.0
 10
6.710810336188305
 20
0.7452513934967074
 30
0.0
  0
SPLINE
  5
113
330
A7
100
AcDbEntity
  8
0
  6
Continuous
 62
     1
370
    18
100
AcDbSpline
210
0.0
220
0.0
230
1.0
 70
     8
 71
     3
 72
     8
 73
     4
 74
     0
 42
0.000000001
 43
0.00000001
 40
0.5714285714285716
 40
0.5714285714285716
 40
0.5714285714285716
 40
0.5714285714285716
 40
0.7142857142857144
 40
0.7142857142857144
 40
0.7142857142857144
 40
0.7142857142857144
 10
6.710810336188305
 20
0.7452513934967074
 30
0.0
 10
6.710810336188305
 20
0.7046910382641592
 30
0.0
 10
6.71243515754036
 20
0.6139417568241726
 30
0.0
 10
6.760939083827248
 20
0.5500321169771261
 30
0.0
  0
SPLINE
  5
114
330
A7
100
AcDbEntity
  8
0
  6
Continuous
 62
     1
370
    18
100
AcDbSpline
210
0.0
220
0.0
230
1.0
 70
     8
 71
     3
 72
     8
 73
     4
 74
     0
 42
0.000000001
 43
0.00000001
 40
0.7142857142857144
 40
0.7142857142857144
 40
0.7142857142857144
 40
0.7142857142857144
 40
0.8571428571428577
 40
0.8571428571428577
 40
0.8571428571428577
 40
0.8571428571428577
 10
6.760939083827248
 20
0.5500321169771261
 30
0.0
 10
6.799694082001976
 20
0.4996024764951685
 30
0.0
 10
6.846513008368259
 20
0.4878074770506979
 30
0.0
 10
6.875037649881927
 20
0.4827524772888429
 30
0.0
  0
SPLINE
  5
115
330
A7
100
AcDbEntity
  8
0
  6
Continuous
 62
     1
370
    18
100
AcDbSpline
210
0.0
220
0.0
230
1.0
 70
     8
 71
     3
 72
     8
 73
     4
 74
     0
 42
0.000000001
 43
0.00000001
 40
0.0
 40
0.0
 40
0.0
 40
0.0
 40
0.0625
 40
0.0625
 40
0.0625
 40
0.0625
 10
10.01371107348089
 20
0.5509949740746457
 30
0.0
 10
10.00203643117364
 20
0.5209056897775319
 30
0.0
 10
9.981816432125973
 20
0.4690317636492894
 30
0.0
 10
9.934816970053895
 20
0.4122231948963859
 30
0.0
  0
SPLINE
  5
116
330
A7
100
AcDbEntity
  8
0
  6
Continuous
 62
     1
370
    18
100
AcDbSpline
210
0.0
220
0.0
230
1.0
 70
     8
 71
     3
 72
     8
 73
     4
 74
     0
 42
0.000000001
 43
0.00000001
 40
0.0625
 40
0.0625
 40
0.0625
 40
0.0625
 40
0.125
 40
0.125
 40
0.125
 40
0.125
 10
9.934816970053895
 20
0.4122231948963859
 30
0.0
 10
9.847618224160906
 20
0.3085956997772151
 30
0.0
 10
9.713540373333032
 20
0.2620174876852922
 30
0.0
 10
9.577777522584487
 20
0.2620174876852922
 30
0.0
  0
SPLINE
  5
117
330
A7
100
AcDbEntity
  8
0
  6
Continuous
 62
     1
370
    18
100
AcDbSpline
210
0.0
220
0.0
230
1.0
 70
     8
 71
     3
 72
     8
 73
     4
 74
     0
 42
0.000000001
 43
0.00000001
 40
0.125
 40
0.125
 40
0.125
 40
0.125
 40
0.1875
 40
0.1875
 40
0.1875
 40
0.1875
 10
9.577777522584487
 20
0.2620174876852922
 30
0.0
 10
9.269181822833486
 20
0.2620174876852922
 30
0.0
 10
9.113259151605888
 20
0.4805860488194483
 30
0.0
 10
9.113259151605888
 20
0.7370671081678617
 30
0.0
  0
SPLINE
  5
118
330
A7
100
AcDbEntity
  8
0
  6
Continuous
 62
     1
370
    18
100
AcDbSpline
210
0.0
220
0.0
230
1.0
 70
     8
 71
     3
 72
     8
 73
     4
 74
     0
 42
0.000000001
 43
0.00000001
 40
0.1875
 40
0.1875
 40
0.1875
 40
0.1875
 40
0.25
 40
0.25
 40
0.25
 40
0.25
 10
9.113259151605888
 20
0.7370671081678617
 30
0.0
 10
9.113259151605888
 20
1.01918423773746
 30
0.0
 10
9.302641106971826
 20
1.222587799585909
 30
0.0
 10
9.58102716528861
 20
1.222587799585909
 30
0.0
  0
SPLINE
  5
119
330
A7
100
AcDbEntity
  8
0
  6
Continuous
 62
     1
370
    18
100
AcDbSpline
210
0.0
220
0.0
230
1.0
 70
     8
 71
     3
 72
     8
 73
     4
 74
     0
 42
0.000000001
 43
0.00000001
 40
0.25
 40
0.25
 40
0.25
 40
0.25
 40
0.3125
 40
0.3125
 40
0.3125
 40
0.3125
 10
9.58102716528861
 20
1.222587799585909
 30
0.0
 10
9.74044019349464
 20
1.222587799585909
 30
0.0
 10
9.852793581060034
 20
1.15193816005628
 30
0.0
 10
9.918147506553323
 20
1.06287387853689
 30
0.0
  0
SPLINE
  5
11A
330
A7
100
AcDbEntity
  8
0
  6
Continuous
 62
     1
370
    18
100
AcDbSpline
210
0.0
220
0.0
230
1.0
 70
     8
 71
     3
 72
     8
 73
     4
 74
     0
 42
0.000000001
 43
0.00000001
 40
0.3125
 40
0.3125
 40
0.3125
 40
0.3125
 40
0.375
 40
0.375
 40
0.375
 40
0.375
 10
9.918147506553323
 20
1.06287387853689
 30
0.0
 10
9.998666431332357
 20
0.9568392406739146
 30
0.0
 10
10.02382107300473
 20
0.809040676206549
 30
0.0
 10
10.02382107300473
 20
0.664852825854841
 30
0.0
  0
SPLINE
  5
11B
330
A7
100
AcDbEntity
  8
0
  6
Continuous
 62
     1
370
    18
100
AcDbSpline
210
0.0
220
0.0
230
1.0
 70
     8
 71
     3
 72
     8
 73
     4
 74
     0
 42
0.000000001
 43
0.00000001
 40
0.4375
 40
0.4375
 40
0.4375
 40
0.4375
 40
0.5
 40
0.5
 40
0.5
 40
0.5
 10
9.430219672391575
 20
0.664852825854841
 30
0.0
 10
9.423359315571776
 20
0.6949421101519657
 30
0.0
 10
9.421674315651133
 20
0.7202171089615033
 30
0.0
 10
9.419989315730561
 20
0.7587313928618291
 30
0.0
  0
SPLINE
  5
11C
330
A7
100
AcDbEntity
  8
0
  6
Continuous
 62
     1
370
    18
100
AcDbSpline
210
0.0
220
0.0
230
1.0
 70
     8
 71
     3
 72
     8
 73
     4
 74
     0
 42
0.000000001
 43
0.00000001
 40
0.5
 40
0.5
 40
0.5
 40
0.5
 40
0.5625
 40
0.5625
 40
0.5625
 40
0.5625
 10
9.419989315730561
 20
0.7587313928618291
 30
0.0
 10
9.419989315730561
 20
0.7958013911158154
 30
0.0
 10
9.421674315651133
 20
0.8258906754129073
 30
0.0
 10
9.430219672391575
 20
0.86103495947192
 30
0.0
  0
SPLINE
  5
11D
330
A7
100
AcDbEntity
  8
0
  6
Continuous
 62
     1
370
    18
100
AcDbSpline
210
0.0
220
0.0
230
1.0
 70
     8
 71
     3
 72
     8
 73
     4
 74
     0
 42
0.000000001
 43
0.00000001
 40
0.625
 40
0.625
 40
0.625
 40
0.625
 40
0.6875
 40
0.6875
 40
0.6875
 40
0.6875
 10
9.752114835801928
 20
0.86103495947192
 30
0.0
 10
9.743750014767306
 20
0.9082149572497693
 30
0.0
 10
9.726900015560924
 20
0.9384245986840991
 30
0.0
 10
9.715225373253652
 20
0.9551542407532198
 30
0.0
  0
SPLINE
  5
11E
330
A7
100
AcDbEntity
  8
0
  6
Continuous
 62
     1
370
    18
100
AcDbSpline
210
0.0
220
0.0
230
1.0
 70
     8
 71
     3
 72
     8
 73
     4
 74
     0
 42
0.000000001
 43
0.00000001
 40
0.6875
 40
0.6875
 40
0.6875
 40
0.6875
 40
0.75
 40
0.75
 40
0.75
 40
0.75
 10
9.715225373253652
 20
0.9551542407532198
 30
0.0
 10
9.685075910387978
 20
0.9955942388485848
 30
0.0
 10
9.633081627122579
 20
1.01918423773746
 30
0.0
 10
9.577777522584487
 20
1.01918423773746
 30
0.0
  0
SPLINE
  5
11F
330
A7
100
AcDbEntity
  8
0
  6
Continuous
 62
     1
370
    18
100
AcDbSpline
210
0.0
220
0.0
230
1.0
 70
     8
 71
     3
 72
     8
 73
     4
 74
     0
 42
0.000000001
 43
0.00000001
 40
0.75
 40
0.75
 40
0.75
 40
0.75
 40
0.8125
 40
0.8125
 40
0.8125
 40
0.8125
 10
9.577777522584487
 20
1.01918423773746
 30
0.0
 10
9.48221395565693
 20
1.01918423773746
 30
0.0
 10
9.374855389284882
 20
0.9585242405945439
 30
0.0
 10
9.374855389284882
 20
0.7519913931792463
 30
0.0
  0
SPLINE
  5
120
330
A7
100
AcDbEntity
  8
0
  6
Continuous
 62
     1
370
    18
100
AcDbSpline
210
0.0
220
0.0
230
1.0
 70
     8
 71
     3
 72
     8
 73
     4
 74
     0
 42
0.000000001
 43
0.00000001
 40
0.8125
 40
0.8125
 40
0.8125
 40
0.8125
 40
0.875
 40
0.875
 40
0.875
 40
0.875
 10
9.374855389284882
 20
0.7519913931792463
 30
0.0
 10
9.374855389284882
 20
0.6229685421133002
 30
0.0
 10
9.421674315651133
 20
0.4707167635699733
 30
0.0
 10
9.584397165129891
 20
0.4707167635699733
 30
0.0
  0
SPLINE
  5
121
330
A7
100
AcDbEntity
  8
0
  6
Continuous
 62
     1
370
    18
100
AcDbSpline
210
0.0
220
0.0
230
1.0
 70
     8
 71
     3
 72
     8
 73
     4
 74
     0
 42
0.000000001
 43
0.00000001
 40
0.875
 40
0.875
 40
0.875
 40
0.875
 40
0.9375
 40
0.9375
 40
0.9375
 40
0.9375
 10
9.584397165129891
 20
0.4707167635699733
 30
0.0
 10
9.701745373888544
 20
0.4707167635699733
 30
0.0
 10
9.74044019349464
 20
0.5459399743127141
 30
0.0
 10
9.752114835801928
 20
0.5695299732016552
 30
0.0
  0
SPLINE
  5
122
330
A7
100
AcDbEntity
  8
0
  6
Continuous
 62
   250
420
  1644836
370
    18
100
AcDbSpline
210
0.0
220
0.0
230
1.0
 70
     8
 71
     3
 72
     8
 73
     4
 74
     0
 42
0.000000001
 43
0.00000001
 40
0.0
 40
0.0
 40
0.0
 40
0.0
 40
0.1
 40
0.1
 40
0.1
 40
0.1
 10
2.800798109633261
 20
1.163733159500751
 30
0.0
 10
2.85261185719285
 20
1.205737800379463
 30
0.0
 10
2.919440157616684
 20
1.222587799585909
 30
0.0
 10
2.986178190187672
 20
1.222587799585909
 30
0.0
  0
SPLINE
  5
123
330
A7
100
AcDbEntity
  8
0
  6
Continuous
 62
   250
420
  1644836
370
    18
100
AcDbSpline
210
0.0
220
0.0
230
1.0
 70
     8
 71
     3
 72
     8
 73
     4
 74
     0
 42
0.000000001
 43
0.00000001
 40
0.1
 40
0.1
 40
0.1
 40
0.1
 40
0.2
 40
0.2
 40
0.2
 40
0.2
 10
2.986178190187672
 20
1.222587799585909
 30
0.0
 10
3.215789518658809
 20
1.222587799585909
 30
0.0
 10
3.36370844026335
 20
1.029534951535701
 30
0.0
 10
3.36370844026335
 20
0.7435663935760454
 30
0.0
  0
SPLINE
  5
124
330
A7
100
AcDbEntity
  8
0
  6
Continuous
 62
   250
420
  1644836
370
    18
100
AcDbSpline
210
0.0
220
0.0
230
1.0
 70
     8
 71
     3
 72
     8
 73
     4
 74
     0
 42
0.000000001
 43
0.00000001
 40
0.2
 40
0.2
 40
0.2
 40
0.2
 40
0.2999999999999998
 40
0.2999999999999998
 40
0.2999999999999998
 40
0.2999999999999998
 10
3.36370844026335
 20
0.7435663935760454
 30
0.0
 10
3.36370844026335
 20
0.4359335509225319
 30
0.0
 10
3.180434609609748
 20
0.2668317731728138
 30
0.0
 10
2.974473458596085
 20
0.2668317731728138
 30
0.0
  0
SPLINE
  5
125
330
A7
100
AcDbEntity
  8
0
  6
Continuous
 62
   250
420
  1644836
370
    18
100
AcDbSpline
210
0.0
220
0.0
230
1.0
 70
     8
 71
     3
 72
     8
 73
     4
 74
     0
 42
0.000000001
 43
0.00000001
 40
0.2999999999999998
 40
0.2999999999999998
 40
0.2999999999999998
 40
0.2999999999999998
 40
0.3999999999999999
 40
0.3999999999999999
 40
0.3999999999999999
 40
0.3999999999999999
 10
2.974473458596085
 20
0.2668317731728138
 30
0.0
 10
2.886010962762588
 20
0.2668317731728138
 30
0.0
 10
2.827547483373362
 20
0.2953564146864596
 30
0.0
 10
2.800798109633261
 20
0.3085956997772151
 30
0.0
  0
SPLINE
  5
126
330
A7
100
AcDbEntity
  8
0
  6
Continuous
 62
   250
420
  1644836
370
    18
100
AcDbSpline
210
0.0
220
0.0
230
1.0
 70
     8
 71
     3
 72
     8
 73
     4
 74
     0
 42
0.000000001
 43
0.00000001
 40
0.5
 40
0.5
 40
0.5
 40
0.5
 40
0.5999999999999996
 40
0.5999999999999996
 40
0.5999999999999996
 40
0.5999999999999996
 10
2.800798109633261
 20
0.5263217609510128
 30
0.0
 10
2.820897751543703
 20
0.5079071189611973
 30
0.0
 10
2.847647125283804
 20
0.4827524772888429
 30
0.0
 10
2.912730247218446
 20
0.4827524772888429
 30
0.0
  0
SPLINE
  5
127
330
A7
100
AcDbEntity
  8
0
  6
Continuous
 62
   250
420
  1644836
370
    18
100
AcDbSpline
210
0.0
220
0.0
230
1.0
 70
     8
 71
     3
 72
     8
 73
     4
 74
     0
 42
0.000000001
 43
0.00000001
 40
0.5999999999999996
 40
0.5999999999999996
 40
0.5999999999999996
 40
0.5999999999999996
 40
0.7000000000000002
 40
0.7000000000000002
 40
0.7000000000000002
 40
0.7000000000000002
 10
2.912730247218446
 20
0.4827524772888429
 30
0.0
 10
3.027942116792035
 20
0.4827524772888429
 30
0.0
 10
3.099735149124911
 20
0.588185329465826
 30
0.0
 10
3.099735149124911
 20
0.7501860361214121
 30
0.0
  0
SPLINE
  5
128
330
A7
100
AcDbEntity
  8
0
  6
Continuous
 62
   250
420
  1644836
370
    18
100
AcDbSpline
210
0.0
220
0.0
230
1.0
 70
     8
 71
     3
 72
     8
 73
     4
 74
     0
 42
0.000000001
 43
0.00000001
 40
0.7000000000000002
 40
0.7000000000000002
 40
0.7000000000000002
 40
0.7000000000000002
 40
0.7999999999999998
 40
0.7999999999999998
 40
0.7999999999999998
 40
0.7999999999999998
 10
3.099735149124911
 20
0.7501860361214121
 30
0.0
 10
3.099735149124911
 20
0.9074928144266706
 30
0.0
 10
3.037961848462977
 20
1.009555666762417
 30
0.0
 10
2.924434978810022
 20
1.009555666762417
 30
0.0
  0
SPLINE
  5
129
330
A7
100
AcDbEntity
  8
0
  6
Continuous
 62
   250
420
  1644836
370
    18
100
AcDbSpline
210
0.0
220
0.0
230
1.0
 70
     8
 71
     3
 72
     8
 73
     4
 74
     0
 42
0.000000001
 43
0.00000001
 40
0.7999999999999998
 40
0.7999999999999998
 40
0.7999999999999998
 40
0.7999999999999998
 40
0.9000000000000004
 40
0.9000000000000004
 40
0.9000000000000004
 40
0.9000000000000004
 10
2.924434978810022
 20
1.009555666762417
 30
0.0
 10
2.85261185719285
 20
1.009555666762417
 30
0.0
 10
2.814187841145457
 20
0.9744113827033717
 30
0.0
 10
2.800798109633261
 20
0.9610517404755097
 30
0.0
  0
SPLINE
  5
12A
330
A7
100
AcDbEntity
  8
0
  6
Continuous
 62
   250
420
  1644836
370
    18
100
AcDbSpline
210
0.0
220
0.0
230
1.0
 70
     8
 71
     3
 72
     8
 73
     4
 74
     0
 42
0.000000001
 43
0.00000001
 40
0.0
 40
0.0
 40
0.0
 40
0.0
 40
0.0909090909090909
 40
0.0909090909090909
 40
0.0909090909090909
 40
0.0909090909090909
 10
3.813783954779352
 20
0.9021971003904166
 30
0.0
 10
3.827203775575893
 20
1.110535304863461
 30
0.0
 10
3.966366715449936
 20
1.217893871235549
 30
0.0
 10
4.202718043603674
 20
1.217893871235549
 30
0.0
  0
SPLINE
  5
12B
330
A7
100
AcDbEntity
  8
0
  6
Continuous
 62
   250
420
  1644836
370
    18
100
AcDbSpline
210
0.0
220
0.0
230
1.0
 70
     8
 71
     3
 72
     8
 73
     4
 74
     0
 42
0.000000001
 43
0.00000001
 40
0.0909090909090909
 40
0.0909090909090909
 40
0.0909090909090909
 40
0.0909090909090909
 40
0.1818181818181819
 40
0.1818181818181819
 40
0.1818181818181819
 40
0.1818181818181819
 10
4.202718043603674
 20
1.217893871235549
 30
0.0
 10
4.299906431883294
 20
1.217893871235549
 30
0.0
 10
4.402149819924785
 20
1.204413871870471
 30
0.0
 10
4.480983744783201
 20
1.147364588843157
 30
0.0
  0
SPLINE
  5
12C
330
A7
100
AcDbEntity
  8
0
  6
Continuous
 62
   250
420
  1644836
370
    18
100
AcDbSpline
210
0.0
220
0.0
230
1.0
 70
     8
 71
     3
 72
     8
 73
     4
 74
     0
 42
0.000000001
 43
0.00000001
 40
0.1818181818181819
 40
0.1818181818181819
 40
0.1818181818181819
 40
0.1818181818181819
 40
0.2727272727272729
 40
0.2727272727272729
 40
0.2727272727272729
 40
0.2727272727272729
 10
4.480983744783201
 20
1.147364588843157
 30
0.0
 10
4.593337132348579
 20
1.068530663984693
 30
0.0
 10
4.596677042905569
 20
0.957681740634251
 30
0.0
 10
4.60001695346256
 20
0.8568224596703468
 30
0.0
  0
SPLINE
  5
12D
330
A7
100
AcDbEntity
  8
0
  6
Continuous
 62
   250
420
  1644836
370
    18
100
AcDbSpline
210
0.0
220
0.0
230
1.0
 70
     8
 71
     3
 72
     8
 73
     4
 74
     0
 42
0.000000001
 43
0.00000001
 40
0.3636363636363638
 40
0.3636363636363638
 40
0.3636363636363638
 40
0.3636363636363638
 40
0.454545454545455
 40
0.454545454545455
 40
0.454545454545455
 40
0.454545454545455
 10
4.60001695346256
 20
0.4650599781221371
 30
0.0
 10
4.60001695346256
 20
0.3792453393068006
 30
0.0
 10
4.603417042588098
 20
0.3403699839949472
 30
0.0
 10
4.633566505453809
 20
0.2865703436717201
 30
0.0
  0
SPLINE
  5
12E
330
A7
100
AcDbEntity
  8
0
  6
Continuous
 62
   250
420
  1644836
370
    18
100
AcDbSpline
210
0.0
220
0.0
230
1.0
 70
     8
 71
     3
 72
     8
 73
     4
 74
     0
 42
0.000000001
 43
0.00000001
 40
0.5454545454545459
 40
0.5454545454545459
 40
0.5454545454545459
 40
0.5454545454545459
 40
0.6363636363636367
 40
0.6363636363636367
 40
0.6363636363636367
 40
0.6363636363636367
 10
4.358610625546905
 20
0.2865703436717201
 30
0.0
 10
4.345190804750458
 20
0.3185853421638514
 30
0.0
 10
4.340135804988515
 20
0.3403699839949472
 30
0.0
 10
4.338480894352198
 20
0.4211296230483522
 30
0.0
  0
SPLINE
  5
12F
330
A7
100
AcDbEntity
  8
0
  6
Continuous
 62
   250
420
  1644836
370
    18
100
AcDbSpline
210
0.0
220
0.0
230
1.0
 70
     8
 71
     3
 72
     8
 73
     4
 74
     0
 42
0.000000001
 43
0.00000001
 40
0.7272727272727275
 40
0.7272727272727275
 40
0.7272727272727275
 40
0.7272727272727275
 40
0.8181818181818183
 40
0.8181818181818183
 40
0.8181818181818183
 40
0.8181818181818183
 10
4.338480894352198
 20
0.885948886869941
 30
0.0
 10
4.340135804988515
 20
0.9345731702940643
 30
0.0
 10
4.341790715624854
 20
1.016656737856538
 30
0.0
 10
4.202718043603674
 20
1.016656737856538
 30
0.0
  0
SPLINE
  5
130
330
A7
100
AcDbEntity
  8
0
  6
Continuous
 62
   250
420
  1644836
370
    18
100
AcDbSpline
210
0.0
220
0.0
230
1.0
 70
     8
 71
     3
 72
     8
 73
     4
 74
     0
 42
0.000000001
 43
0.00000001
 40
0.8181818181818183
 40
0.8181818181818183
 40
0.8181818181818183
 40
0.8181818181818183
 40
0.9090909090909101
 40
0.9090909090909101
 40
0.9090909090909101
 40
0.9090909090909101
 10
4.202718043603674
 20
1.016656737856538
 30
0.0
 10
4.174223491374352
 20
1.016656737856538
 30
0.0
 10
4.055190282695015
 20
1.013166380878075
 30
0.0
 10
4.051880461422277
 20
0.9027988860762993
 30
0.0
  0
SPLINE
  5
131
330
A7
100
AcDbEntity
  8
0
  6
Continuous
 62
   250
420
  1644836
370
    18
100
AcDbSpline
210
0.0
220
0.0
230
1.0
 70
     8
 71
     3
 72
     8
 73
     4
 74
     0
 42
0.000000001
 43
0.00000001
 40
0.0
 40
0.0
 40
0.0
 40
0.0
 40
0.0714285714285714
 40
0.0714285714285714
 40
0.0714285714285714
 40
0.0714285714285714
 10
4.96003524007736
 20
0.66918568279363
 30
0.0
 10
4.856407744958151
 20
0.6974696100328768
 30
0.0
 10
4.704246234267701
 20
0.7393538937744721
 30
0.0
 10
4.704246234267701
 20
0.9332492417849844
 30
0.0
  0
SPLINE
  5
132
330
A7
100
AcDbEntity
  8
0
  6
Continuous
 62
   250
420
  1644836
370
    18
100
AcDbSpline
210
0.0
220
0.0
230
1.0
 70
     8
 71
     3
 72
     8
 73
     4
 74
     0
 42
0.000000001
 43
0.00000001
 40
0.0714285714285714
 40
0.0714285714285714
 40
0.0714285714285714
 40
0.0714285714285714
 40
0.1428571428571428
 40
0.1428571428571428
 40
0.1428571428571428
 40
0.1428571428571428
 10
4.704246234267701
 20
0.9332492417849844
 30
0.0
 10
4.704246234267701
 20
0.9799478110140686
 30
0.0
 10
4.712611055302299
 20
1.053606378973352
 30
0.0
 10
4.771104623975876
 20
1.117215125977419
 30
0.0
  0
SPLINE
  5
133
330
A7
100
AcDbEntity
  8
0
  6
Continuous
 62
   250
420
  1644836
370
    18
100
AcDbSpline
210
0.0
220
0.0
230
1.0
 70
     8
 71
     3
 72
     8
 73
     4
 74
     0
 42
0.000000001
 43
0.00000001
 40
0.1428571428571428
 40
0.1428571428571428
 40
0.1428571428571428
 40
0.1428571428571428
 40
0.2142857142857144
 40
0.2142857142857144
 40
0.2142857142857144
 40
0.2142857142857144
 10
4.771104623975876
 20
1.117215125977419
 30
0.0
 10
4.859747655515092
 20
1.21103351441575
 30
0.0
 10
4.988559881590973
 20
1.217713335529763
 30
0.0
 10
5.063903449470914
 20
1.222708156723103
 30
0.0
  0
SPLINE
  5
134
330
A7
100
AcDbEntity
  8
0
  6
Continuous
 62
   250
420
  1644836
370
    18
100
AcDbSpline
210
0.0
220
0.0
230
1.0
 70
     8
 71
     3
 72
     8
 73
     4
 74
     0
 42
0.000000001
 43
0.00000001
 40
0.2857142857142856
 40
0.2857142857142856
 40
0.2857142857142856
 40
0.2857142857142856
 40
0.3571428571428568
 40
0.3571428571428568
 40
0.3571428571428568
 40
0.3571428571428568
 10
5.063903449470914
 20
1.033506737062908
 30
0.0
 10
5.008629434217149
 20
1.030136737221638
 30
0.0
 10
4.951670419042756
 20
1.01509209507307
 30
0.0
 10
4.951670419042756
 20
0.9582835263201775
 30
0.0
  0
SPLINE
  5
135
330
A7
100
AcDbEntity
  8
0
  6
Continuous
 62
   250
420
  1644836
370
    18
100
AcDbSpline
210
0.0
220
0.0
230
1.0
 70
     8
 71
     3
 72
     8
 73
     4
 74
     0
 42
0.000000001
 43
0.00000001
 40
0.3571428571428568
 40
0.3571428571428568
 40
0.3571428571428568
 40
0.3571428571428568
 40
0.4285714285714288
 40
0.4285714285714288
 40
0.4285714285714288
 40
0.4285714285714288
 10
4.951670419042756
 20
0.9582835263201775
 30
0.0
 10
4.951670419042756
 20
0.9130292427373019
 30
0.0
 10
4.985219971034026
 20
0.9030396003506984
 30
0.0
 10
5.063903449470914
 20
0.8813753156567528
 30
0.0
  0
SPLINE
  5
136
330
A7
100
AcDbEntity
  8
0
  6
Continuous
 62
   250
420
  1644836
370
    18
100
AcDbSpline
210
0.0
220
0.0
230
1.0
 70
     8
 71
     3
 72
     8
 73
     4
 74
     0
 42
0.000000001
 43
0.00000001
 40
0.5
 40
0.5
 40
0.5
 40
0.5
 40
0.5714285714285712
 40
0.5714285714285712
 40
0.5714285714285712
 40
0.5714285714285712
 10
5.198402550278956
 20
0.8515267456339943
 30
0.0
 10
5.31436665195996
 20
0.8246871040410433
 30
0.0
 10
5.509585928479583
 20
0.7828028202994808
 30
0.0
 10
5.509585928479583
 20
0.5638731877537753
 30
0.0
  0
SPLINE
  5
137
330
A7
100
AcDbEntity
  8
0
  6
Continuous
 62
   250
420
  1644836
370
    18
100
AcDbSpline
210
0.0
220
0.0
230
1.0
 70
     8
 71
     3
 72
     8
 73
     4
 74
     0
 42
0.000000001
 43
0.00000001
 40
0.5714285714285712
 40
0.5714285714285712
 40
0.5714285714285712
 40
0.5714285714285712
 40
0.6428571428571423
 40
0.6428571428571423
 40
0.6428571428571423
 40
0.6428571428571423
 10
5.509585928479583
 20
0.5638731877537753
 30
0.0
 10
5.509585928479583
 20
0.4501356931107742
 30
0.0
 10
5.452295931177892
 20
0.3578217688872759
 30
0.0
 10
5.337896472280307
 20
0.3058274856218502
 30
0.0
  0
SPLINE
  5
138
330
A7
100
AcDbEntity
  8
0
  6
Continuous
 62
   250
420
  1644836
370
    18
100
AcDbSpline
210
0.0
220
0.0
230
1.0
 70
     8
 71
     3
 72
     8
 73
     4
 74
     0
 42
0.000000001
 43
0.00000001
 40
0.6428571428571423
 40
0.6428571428571423
 40
0.6428571428571423
 40
0.6428571428571423
 40
0.7142857142857135
 40
0.7142857142857135
 40
0.7142857142857135
 40
0.7142857142857135
 10
5.337896472280307
 20
0.3058274856218502
 30
0.0
 10
5.247207369408874
 20
0.2639432018803314
 30
0.0
 10
5.149718088286256
 20
0.2622582019596584
 30
0.0
 10
5.111053357964454
 20
0.2622582019596584
 30
0.0
  0
SPLINE
  5
139
330
A7
100
AcDbEntity
  8
0
  6
Continuous
 62
   250
420
  1644836
370
    18
100
AcDbSpline
210
0.0
220
0.0
230
1.0
 70
     8
 71
     3
 72
     8
 73
     4
 74
     0
 42
0.000000001
 43
0.00000001
 40
0.7857142857142847
 40
0.7857142857142847
 40
0.7857142857142847
 40
0.7857142857142847
 40
0.8571428571428577
 40
0.8571428571428577
 40
0.8571428571428577
 40
0.8571428571428577
 10
5.111053357964454
 20
0.4535056929520109
 30
0.0
 10
5.146408267013588
 20
0.4550703357354789
 30
0.0
 10
5.24552236948823
 20
0.4634953353386472
 30
0.0
 10
5.24552236948823
 20
0.540283188864867
 30
0.0
  0
SPLINE
  5
13A
330
A7
100
AcDbEntity
  8
0
  6
Continuous
 62
   250
420
  1644836
370
    18
100
AcDbSpline
210
0.0
220
0.0
230
1.0
 70
     8
 71
     3
 72
     8
 73
     4
 74
     0
 42
0.000000001
 43
0.00000001
 40
0.8571428571428577
 40
0.8571428571428577
 40
0.8571428571428577
 40
0.8571428571428577
 40
0.9285714285714288
 40
0.9285714285714288
 40
0.9285714285714288
 40
0.9285714285714288
 10
5.24552236948823
 20
0.540283188864867
 30
0.0
 10
5.24552236948823
 20
0.5955271148343244
 30
0.0
 10
5.188412907892329
 20
0.6122567569035215
 30
0.0
 10
5.129618446375794
 20
0.6274217561892834
 30
0.0
  0
SPLINE
  5
13B
330
A7
100
AcDbEntity
  8
0
  6
Continuous
 62
   250
420
  1644836
370
    18
100
AcDbSpline
210
0.0
220
0.0
230
1.0
 70
     8
 71
     3
 72
     8
 73
     4
 74
     0
 42
0.000000001
 43
0.00000001
 40
0.0
 40
0.0
 40
0.0
 40
0.0
 40
0.2
 40
0.2
 40
0.2
 40
0.2
 10
5.238180584119749
 20
0.9014749575672413
 30
0.0
 10
5.234690227141307
 20
1.011842452368995
 30
0.0
 10
5.145987017033404
 20
1.025202094596911
 30
0.0
 10
5.110752465121526
 20
1.031821737142311
 30
0.0
  0
SPLINE
  5
13C
330
A7
100
AcDbEntity
  8
0
  6
Continuous
 62
   250
420
  1644836
370
    18
100
AcDbSpline
210
0.0
220
0.0
230
1.0
 70
     8
 71
     3
 72
     8
 73
     4
 74
     0
 42
0.000000001
 43
0.00000001
 40
0.3999999999999999
 40
0.3999999999999999
 40
0.3999999999999999
 40
0.3999999999999999
 40
0.5999999999999996
 40
0.5999999999999996
 40
0.5999999999999996
 40
0.5999999999999996
 10
5.110752465121526
 20
1.222708156723103
 30
0.0
 10
5.214590585230821
 20
1.217713335529763
 30
0.0
 10
5.315209151920316
 20
1.192558693857354
 30
0.0
 10
5.388988077016772
 20
1.123834768522819
 30
0.0
  0
SPLINE
  5
13D
330
A7
100
AcDbEntity
  8
0
  6
Continuous
 62
   250
420
  1644836
370
    18
100
AcDbSpline
210
0.0
220
0.0
230
1.0
 70
     8
 71
     3
 72
     8
 73
     4
 74
     0
 42
0.000000001
 43
0.00000001
 40
0.5999999999999996
 40
0.5999999999999996
 40
0.5999999999999996
 40
0.5999999999999996
 40
0.7999999999999998
 40
0.7999999999999998
 40
0.7999999999999998
 40
0.7999999999999998
 10
5.388988077016772
 20
1.123834768522819
 30
0.0
 10
5.459517359409197
 20
1.056976378814655
 30
0.0
 10
5.476186822909791
 20
0.9833178108553708
 30
0.0
 10
5.482866644023717
 20
0.9147142426579749
 30
0.0
  0
SPLINE
  5
13E
330
A7
100
AcDbEntity
  8
0
  6
Continuous
 62
   250
420
  1644836
370
    18
100
AcDbSpline
210
0.0
220
0.0
230
1.0
 70
     8
 71
     3
 72
     8
 73
     4
 74
     0
 42
0.000000001
 43
0.00000001
 40
0.5625
 40
0.5625
 40
0.5625
 40
0.5625
 40
0.625
 40
0.625
 40
0.625
 40
0.625
 10
5.889071982034581
 20
0.6232092563876774
 30
0.0
 10
5.887447160682527
 20
0.5128417615859021
 30
0.0
 10
5.892441981875836
 20
0.4875667627763645
 30
0.0
 10
5.991315370076102
 20
0.4875667627763645
 30
0.0
  0
SPLINE
  5
13F
330
A7
100
AcDbEntity
  8
0
  6
Continuous
 62
   250
420
  1644836
370
    18
100
AcDbSpline
210
0.0
220
0.0
230
1.0
 70
     8
 71
     3
 72
     8
 73
     4
 74
     0
 42
0.000000001
 43
0.00000001
 40
0.625
 40
0.625
 40
0.625
 40
0.625
 40
0.6875
 40
0.6875
 40
0.6875
 40
0.6875
 10
5.991315370076102
 20
0.4875667627763645
 30
0.0
 10
6.009790190634556
 20
0.4875667627763645
 30
0.0
 10
6.019840011589773
 20
0.4875667627763645
 30
0.0
 10
6.060099473979253
 20
0.4909367626176449
 30
0.0
  0
SPLINE
  5
140
330
A7
100
AcDbEntity
  8
0
  6
Continuous
 62
   250
420
  1644836
370
    18
100
AcDbSpline
210
0.0
220
0.0
230
1.0
 70
     8
 71
     3
 72
     8
 73
     4
 74
     0
 42
0.000000001
 43
0.00000001
 40
0.75
 40
0.75
 40
0.75
 40
0.75
 40
0.8125
 40
0.8125
 40
0.8125
 40
0.8125
 10
6.060099473979253
 20
0.2906624863361211
 30
0.0
 10
5.966100549835169
 20
0.2823578438701578
 30
0.0
 10
5.937636086890083
 20
0.2789878440288665
 30
0.0
 10
5.887447160682527
 20
0.2789878440288665
 30
0.0
  0
SPLINE
  5
141
330
A7
100
AcDbEntity
  8
0
  6
Continuous
 62
   250
420
  1644836
370
    18
100
AcDbSpline
210
0.0
220
0.0
230
1.0
 70
     8
 71
     3
 72
     8
 73
     4
 74
     0
 42
0.000000001
 43
0.00000001
 40
0.8125
 40
0.8125
 40
0.8125
 40
0.8125
 40
0.875
 40
0.875
 40
0.875
 40
0.875
 10
5.887447160682527
 20
0.2789878440288665
 30
0.0
 10
5.642821279347108
 20
0.2789878440288665
 30
0.0
 10
5.632831636960469
 20
0.4092142664667094
 30
0.0
 10
5.629461637119202
 20
0.5311360464385781
 30
0.0
  0
SPLINE
  5
142
330
A7
100
AcDbEntity
  8
0
  6
Continuous
 62
   250
420
  1644836
370
    18
100
AcDbSpline
210
0.0
220
0.0
230
1.0
 70
     8
 71
     3
 72
     8
 73
     4
 74
     0
 42
0.000000001
 43
0.00000001
 40
0.0
 40
0.0
 40
0.0
 40
0.0
 40
0.25
 40
0.25
 40
0.25
 40
0.25
 10
5.065738895813077
 20
0.2622582019596584
 30
0.0
 10
4.789098015985534
 20
0.2839224866535712
 30
0.0
 10
4.688569717148921
 20
0.4030760524701079
 30
0.0
 10
4.6751498963524
 20
0.5972121147549319
 30
0.0
  0
SPLINE
  5
143
330
A7
100
AcDbEntity
  8
0
  6
Continuous
 62
   250
420
  1644836
370
    18
100
AcDbSpline
210
0.0
220
0.0
230
1.0
 70
     8
 71
     3
 72
     8
 73
     4
 74
     0
 42
0.000000001
 43
0.00000001
 40
0.5
 40
0.5
 40
0.5
 40
0.5
 40
0.75
 40
0.75
 40
0.75
 40
0.75
 10
4.923205956097669
 20
0.6055167572209607
 30
0.0
 10
4.936685955462796
 20
0.5270439037741552
 30
0.0
 10
4.953385508247664
 20
0.4785399774871932
 30
0.0
 10
5.065738895813077
 20
0.4567553356561301
 30
0.0
  0
SPLINE
  5
144
330
A7
100
AcDbEntity
  8
0
  6
Continuous
 62
   250
420
  1644836
370
    18
100
AcDbSpline
210
0.0
220
0.0
230
1.0
 70
     8
 71
     3
 72
     8
 73
     4
 74
     0
 42
0.000000001
 43
0.00000001
 40
0.0
 40
0.0
 40
0.0
 40
0.0
 40
0.0909090909090909
 40
0.0909090909090909
 40
0.0909090909090909
 40
0.0909090909090909
 10
4.299906431883294
 20
0.6985528242675905
 30
0.0
 10
4.27643679013155
 20
0.6916924674479011
 30
0.0
 10
4.162488670498397
 20
0.6700281827539447
 30
0.0
 10
4.135649028905429
 20
0.6632881830713729
 30
0.0
  0
SPLINE
  5
145
330
A7
100
AcDbEntity
  8
0
  6
Continuous
 62
   250
420
  1644836
370
    18
100
AcDbSpline
210
0.0
220
0.0
230
1.0
 70
     8
 71
     3
 72
     8
 73
     4
 74
     0
 42
0.000000001
 43
0.00000001
 40
0.0909090909090909
 40
0.0909090909090909
 40
0.0909090909090909
 40
0.0909090909090909
 40
0.1818181818181819
 40
0.1818181818181819
 40
0.1818181818181819
 40
0.1818181818181819
 10
4.135649028905429
 20
0.6632881830713729
 30
0.0
 10
4.063585193013841
 20
0.643188541160939
 30
0.0
 10
4.025070909113619
 20
0.6146638996472932
 30
0.0
 10
4.025070909113619
 20
0.557855330894346
 30
0.0
  0
SPLINE
  5
146
330
A7
100
AcDbEntity
  8
0
  6
Continuous
 62
   250
420
  1644836
370
    18
100
AcDbSpline
210
0.0
220
0.0
230
1.0
 70
     8
 71
     3
 72
     8
 73
     4
 74
     0
 42
0.000000001
 43
0.00000001
 40
0.1818181818181819
 40
0.1818181818181819
 40
0.1818181818181819
 40
0.1818181818181819
 40
0.2727272727272729
 40
0.2727272727272729
 40
0.2727272727272729
 40
0.2727272727272729
 10
4.025070909113619
 20
0.557855330894346
 30
0.0
 10
4.025070909113619
 20
0.5009264050042485
 30
0.0
 10
4.070295103412147
 20
0.4607271211833698
 30
0.0
 10
4.145728939144948
 20
0.4607271211833698
 30
0.0
  0
SPLINE
  5
147
330
A7
100
AcDbEntity
  8
0
  6
Continuous
 62
   250
420
  1644836
370
    18
100
AcDbSpline
210
0.0
220
0.0
230
1.0
 70
     8
 71
     3
 72
     8
 73
     4
 74
     0
 42
0.000000001
 43
0.00000001
 40
0.2727272727272729
 40
0.2727272727272729
 40
0.2727272727272729
 40
0.2727272727272729
 40
0.3636363636363638
 40
0.3636363636363638
 40
0.3636363636363638
 40
0.3636363636363638
 10
4.145728939144948
 20
0.4607271211833698
 30
0.0
 10
4.179248401851903
 20
0.4607271211833698
 30
0.0
 10
4.241232327503963
 20
0.4674671208658869
 30
0.0
 10
4.299906431883294
 20
0.5109160473908956
 30
0.0
  0
SPLINE
  5
148
330
A7
100
AcDbEntity
  8
0
  6
Continuous
 62
   250
420
  1644836
370
    18
100
AcDbSpline
210
0.0
220
0.0
230
1.0
 70
     8
 71
     3
 72
     8
 73
     4
 74
     0
 42
0.000000001
 43
0.00000001
 40
0.3636363636363638
 40
0.3636363636363638
 40
0.3636363636363638
 40
0.3636363636363638
 40
0.454545454545455
 40
0.454545454545455
 40
0.454545454545455
 40
0.454545454545455
 10
4.299906431883294
 20
0.5109160473908956
 30
0.0
 10
4.296536432042022
 20
0.4807064059566205
 30
0.0
 10
4.29488152140567
 20
0.4523021215801359
 30
0.0
 10
4.29488152140567
 20
0.4237774800664901
 30
0.0
  0
SPLINE
  5
149
330
A7
100
AcDbEntity
  8
0
  6
Continuous
 62
   250
420
  1644836
370
    18
100
AcDbSpline
210
0.0
220
0.0
230
1.0
 70
     8
 71
     3
 72
     8
 73
     4
 74
     0
 42
0.000000001
 43
0.00000001
 40
0.454545454545455
 40
0.454545454545455
 40
0.454545454545455
 40
0.454545454545455
 40
0.5454545454545459
 40
0.5454545454545459
 40
0.5454545454545459
 40
0.5454545454545459
 10
4.29488152140567
 20
0.4237774800664901
 30
0.0
 10
4.29488152140567
 20
0.4086124807807829
 30
0.0
 10
4.299906431883294
 20
0.3363981984677075
 30
0.0
 10
4.299906431883294
 20
0.3212331991819456
 30
0.0
  0
SPLINE
  5
14A
330
A7
100
AcDbEntity
  8
0
  6
Continuous
 62
   250
420
  1644836
370
    18
100
AcDbSpline
210
0.0
220
0.0
230
1.0
 70
     8
 71
     3
 72
     8
 73
     4
 74
     0
 42
0.000000001
 43
0.00000001
 40
0.5454545454545459
 40
0.5454545454545459
 40
0.5454545454545459
 40
0.5454545454545459
 40
0.6363636363636367
 40
0.6363636363636367
 40
0.6363636363636367
 40
0.6363636363636367
 10
4.299906431883294
 20
0.3212331991819456
 30
0.0
 10
4.221162774877778
 20
0.2574439164721368
 30
0.0
 10
4.102129566198454
 20
0.2574439164721368
 30
0.0
 10
4.077005013810374
 20
0.2574439164721368
 30
0.0
  0
SPLINE
  5
14B
330
A7
100
AcDbEntity
  8
0
  6
Continuous
 62
   250
420
  1644836
370
    18
100
AcDbSpline
210
0.0
220
0.0
230
1.0
 70
     8
 71
     3
 72
     8
 73
     4
 74
     0
 42
0.000000001
 43
0.00000001
 40
0.6363636363636367
 40
0.6363636363636367
 40
0.6363636363636367
 40
0.6363636363636367
 40
0.7272727272727275
 40
0.7272727272727275
 40
0.7272727272727275
 40
0.7272727272727275
 10
4.077005013810374
 20
0.2574439164721368
 30
0.0
 10
3.906007611149994
 20
0.2574439164721368
 30
0.0
 10
3.763444582150306
 20
0.363237840060724
 30
0.0
 10
3.763444582150306
 20
0.5494303312911996
 30
0.0
  0
SPLINE
  5
14C
330
A7
100
AcDbEntity
  8
0
  6
Continuous
 62
   250
420
  1644836
370
    18
100
AcDbSpline
210
0.0
220
0.0
230
1.0
 70
     8
 71
     3
 72
     8
 73
     4
 74
     0
 42
0.000000001
 43
0.00000001
 40
0.7272727272727275
 40
0.7272727272727275
 40
0.7272727272727275
 40
0.7272727272727275
 40
0.8181818181818183
 40
0.8181818181818183
 40
0.8181818181818183
 40
0.8181818181818183
 10
3.763444582150306
 20
0.5494303312911996
 30
0.0
 10
3.763444582150306
 20
0.7636660354865119
 30
0.0
 10
3.942897073698228
 20
0.8072353191487366
 30
0.0
 10
4.028380730386266
 20
0.8257703182757242
 30
0.0
  0
SPLINE
  5
14D
330
A7
100
AcDbEntity
  8
0
  6
Continuous
 62
   250
420
  1644836
370
    18
100
AcDbSpline
210
0.0
220
0.0
230
1.0
 70
     8
 71
     3
 72
     8
 73
     4
 74
     0
 42
0.000000001
 43
0.00000001
 40
0.8181818181818183
 40
0.8181818181818183
 40
0.8181818181818183
 40
0.8181818181818183
 40
0.9090909090909101
 40
0.9090909090909101
 40
0.9090909090909101
 40
0.9090909090909101
 10
4.028380730386266
 20
0.8257703182757242
 30
0.0
 10
4.06530028221878
 20
0.8340749607417203
 30
0.0
 10
4.256307058936826
 20
0.8659696020966247
 30
0.0
 10
4.299906431883294
 20
0.8759592444832828
 30
0.0
  0
HATCH
  5
14E
330
A7
100
AcDbEntity
  8
0
  6
Continuous
 62
     1
100
AcDbHatch
 10
0.0
 20
0.0
 30
0.0
210
0.0
220
0.0
230
1.0
  2
SOLID
 70
     1
 71
     0
 91
        1
 92
        0
 93
       16
 72
     4
 94
        3
 73
     1
 74
     0
 95
        8
 96
        4
 40
0.875
 40
0.875
 40
0.875
 40
0.875
 40
0.9375
 40
0.9375
 40
0.9375
 40
0.9375
 10
9.584397165129891
 20
0.4707167635699733
 42
1.0
 10
9.701745373888544
 20
0.4707167635699733
 42
1.0
 10
9.74044019349464
 20
0.5459399743127141
 42
1.0
 10
9.752114835801928
 20
0.5695299732016552
 42
1.0
 72
     1
 10
9.752114835801928
 20
0.5695299732016552
 11
10.01371107348089
 21
0.5509949740746457
 72
     4
 94
        3
 73
     1
 74
     0
 95
        8
 96
        4
 40
0.0
 40
0.0
 40
0.0
 40
0.0
 40
0.0625
 40
0.0625
 40
0.0625
 40
0.0625
 10
10.01371107348089
 20
0.5509949740746457
 42
1.0
 10
10.00203643117364
 20
0.5209056897775319
 42
1.0
 10
9.981816432125973
 20
0.4690317636492894
 42
1.0
 10
9.934816970053895
 20
0.4122231948963859
 42
1.0
 72
     4
 94
        3
 73
     1
 74
     0
 95
        8
 96
        4
 40
0.0625
 40
0.0625
 40
0.0625
 40
0.0625
 40
0.125
 40
0.125
 40
0.125
 40
0.125
 10
9.934816970053895
 20
0.4122231948963859
 42
1.0
 10
9.847618224160906
 20
0.3085956997772151
 42
1.0
 10
9.713540373333032
 20
0.2620174876852922
 42
1.0
 10
9.577777522584487
 20
0.2620174876852922
 42
1.0
 72
     4
 94
        3
 73
     1
 74
     0
 95
        8
 96
        4
 40
0.125
 40
0.125
 40
0.125
 40
0.125
 40
0.1875
 40
0.1875
 40
0.1875
 40
0.1875
 10
9.577777522584487
 20
0.2620174876852922
 42
1.0
 10
9.269181822833486
 20
0.2620174876852922
 42
1.0
 10
9.113259151605888
 20
0.4805860488194483
 42
1.0
 10
9.113259151605888
 20
0.7370671081678617
 42
1.0
 72
     4
 94
        3
 73
     1
 74
     0
 95
        8
 96
        4
 40
0.1875
 40
0.1875
 40
0.1875
 40
0.1875
 40
0.25
 40
0.25
 40
0.25
 40
0.25
 10
9.113259151605888
 20
0.7370671081678617
 42
1.0
 10
9.113259151605888
 20
1.01918423773746
 42
1.0
 10
9.302641106971826
 20
1.222587799585909
 42
1.0
 10
9.58102716528861
 20
1.222587799585909
 42
1.0
 72
     4
 94
        3
 73
     1
 74
     0
 95
        8
 96
        4
 40
0.25
 40
0.25
 40
0.25
 40
0.25
 40
0.3125
 40
0.3125
 40
0.3125
 40
0.3125
 10
9.58102716528861
 20
1.222587799585909
 42
1.0
 10
9.74044019349464
 20
1.222587799585909
 42
1.0
 10
9.852793581060034
 20
1.15193816005628
 42
1.0
 10
9.918147506553323
 20
1.06287387853689
 42
1.0
 72
     4
 94
        3
 73
     1
 74
     0
 95
        8
 96
        4
 40
0.3125
 40
0.3125
 40
0.3125
 40
0.3125
 40
0.375
 40
0.375
 40
0.375
 40
0.375
 10
9.918147506553323
 20
1.06287387853689
 42
1.0
 10
9.998666431332357
 20
0.9568392406739146
 42
1.0
 10
10.02382107300473
 20
0.809040676206549
 42
1.0
 10
10.02382107300473
 20
0.664852825854841
 42
1.0
 72
     1
 10
10.02382107300473
 20
0.664852825854841
 11
9.430219672391575
 21
0.664852825854841
 72
     4
 94
        3
 73
     1
 74
     0
 95
        8
 96
        4
 40
0.4375
 40
0.4375
 40
0.4375
 40
0.4375
 40
0.5
 40
0.5
 40
0.5
 40
0.5
 10
9.430219672391575
 20
0.664852825854841
 42
1.0
 10
9.423359315571776
 20
0.6949421101519657
 42
1.0
 10
9.421674315651133
 20
0.7202171089615033
 42
1.0
 10
9.419989315730561
 20
0.7587313928618291
 42
1.0
 72
     4
 94
        3
 73
     1
 74
     0
 95
        8
 96
        4
 40
0.5
 40
0.5
 40
0.5
 40
0.5
 40
0.5625
 40
0.5625
 40
0.5625
 40
0.5625
 10
9.419989315730561
 20
0.7587313928618291
 42
1.0
 10
9.419989315730561
 20
0.7958013911158154
 42
1.0
 10
9.421674315651133
 20
0.8258906754129073
 42
1.0
 10
9.430219672391575
 20
0.86103495947192
 42
1.0
 72
     1
 10
9.430219672391575
 20
0.86103495947192
 11
9.752114835801928
 21
0.86103495947192
 72
     4
 94
        3
 73
     1
 74
     0
 95
        8
 96
        4
 40
0.625
 40
0.625
 40
0.625
 40
0.625
 40
0.6875
 40
0.6875
 40
0.6875
 40
0.6875
 10
9.752114835801928
 20
0.86103495947192
 42
1.0
 10
9.743750014767306
 20
0.9082149572497693
 42
1.0
 10
9.726900015560924
 20
0.9384245986840991
 42
1.0
 10
9.715225373253652
 20
0.9551542407532198
 42
1.0
 72
     4
 94
        3
 73
     1
 74
     0
 95
        8
 96
        4
 40
0.6875
 40
0.6875
 40
0.6875
 40
0.6875
 40
0.75
 40
0.75
 40
0.75
 40
0.75
 10
9.715225373253652
 20
0.9551542407532198
 42
1.0
 10
9.685075910387978
 20
0.9955942388485848
 42
1.0
 10
9.633081627122579
 20
1.01918423773746
 42
1.0
 10
9.577777522584487
 20
1.01918423773746
 42
1.0
 72
     4
 94
        3
 73
     1
 74
     0
 95
        8
 96
        4
 40
0.75
 40
0.75
 40
0.75
 40
0.75
 40
0.8125
 40
0.8125
 40
0.8125
 40
0.8125
 10
9.577777522584487
 20
1.01918423773746
 42
1.0
 10
9.48221395565693
 20
1.01918423773746
 42
1.0
 10
9.374855389284882
 20
0.9585242405945439
 42
1.0
 10
9.374855389284882
 20
0.7519913931792463
 42
1.0
 72
     4
 94
        3
 73
     1
 74
     0
 95
        8
 96
        4
 40
0.8125
 40
0.8125
 40
0.8125
 40
0.8125
 40
0.875
 40
0.875
 40
0.875
 40
0.875
 10
9.374855389284882
 20
0.7519913931792463
 42
1.0
 10
9.374855389284882
 20
0.6229685421133002
 42
1.0
 10
9.421674315651133
 20
0.4707167635699733
 42
1.0
 10
9.584397165129891
 20
0.4707167635699733
 42
1.0
 97
        0
 75
     0
 76
     1
 98
        1
 10
0.0
 20
0.0
  0
HATCH
  5
14F
330
A7
100
AcDbEntity
  8
0
  6
Continuous
 62
   250
420
  1644836
100
AcDbHatch
 10
0.0
 20
0.0
 30
0.0
210
0.0
220
0.0
230
1.0
  2
SOLID
 70
     1
 71
     0
 91
        1
 92
        0
 93
        4
 72
     1
 10
2.757409361607727
 20
1.193581729546872
 11
2.757409361607727
 21
0.0
 72
     1
 10
2.757409361607727
 20
0.0
 11
2.49782910598273
 21
0.0
 72
     1
 10
2.49782910598273
 20
0.0
 11
2.49782910598273
 21
1.193581729546872
 72
     1
 10
2.49782910598273
 20
1.193581729546872
 11
2.757409361607727
 21
1.193581729546872
 97
        0
 75
     0
 76
     1
 98
        1
 10
0.0
 20
0.0
  0
HATCH
  5
150
330
A7
100
AcDbEntity
  8
0
  6
Continuous
 62
   250
420
  1644836
100
AcDbHatch
 10
0.0
 20
0.0
 30
0.0
210
0.0
220
0.0
230
1.0
  2
SOLID
 70
     1
 71
     0
 91
        1
 92
        0
 93
       10
 72
     4
 94
        3
 73
     1
 74
     0
 95
        8
 96
        4
 40
0.7999999999999998
 40
0.7999999999999998
 40
0.7999999999999998
 40
0.7999999999999998
 40
0.9000000000000004
 40
0.9000000000000004
 40
0.9000000000000004
 40
0.9000000000000004
 10
2.924434978810022
 20
1.009555666762417
 42
1.0
 10
2.85261185719285
 20
1.009555666762417
 42
1.0
 10
2.814187841145457
 20
0.9744113827033717
 42
1.0
 10
2.800798109633261
 20
0.9610517404755097
 42
1.0
 72
     1
 10
2.800798109633261
 20
0.9610517404755097
 11
2.800798109633261
 21
1.163733159500751
 72
     4
 94
        3
 73
     1
 74
     0
 95
        8
 96
        4
 40
0.0
 40
0.0
 40
0.0
 40
0.0
 40
0.1
 40
0.1
 40
0.1
 40
0.1
 10
2.800798109633261
 20
1.163733159500751
 42
1.0
 10
2.85261185719285
 20
1.205737800379463
 42
1.0
 10
2.919440157616684
 20
1.222587799585909
 42
1.0
 10
2.986178190187672
 20
1.222587799585909
 42
1.0
 72
     4
 94
        3
 73
     1
 74
     0
 95
        8
 96
        4
 40
0.1
 40
0.1
 40
0.1
 40
0.1
 40
0.2
 40
0.2
 40
0.2
 40
0.2
 10
2.986178190187672
 20
1.222587799585909
 42
1.0
 10
3.215789518658809
 20
1.222587799585909
 42
1.0
 10
3.36370844026335
 20
1.029534951535701
 42
1.0
 10
3.36370844026335
 20
0.7435663935760454
 42
1.0
 72
     4
 94
        3
 73
     1
 74
     0
 95
        8
 96
        4
 40
0.2
 40
0.2
 40
0.2
 40
0.2
 40
0.2999999999999998
 40
0.2999999999999998
 40
0.2999999999999998
 40
0.2999999999999998
 10
3.36370844026335
 20
0.7435663935760454
 42
1.0
 10
3.36370844026335
 20
0.4359335509225319
 42
1.0
 10
3.180434609609748
 20
0.2668317731728138
 42
1.0
 10
2.974473458596085
 20
0.2668317731728138
 42
1.0
 72
     4
 94
        3
 73
     1
 74
     0
 95
        8
 96
        4
 40
0.2999999999999998
 40
0.2999999999999998
 40
0.2999999999999998
 40
0.2999999999999998
 40
0.3999999999999999
 40
0.3999999999999999
 40
0.3999999999999999
 40
0.3999999999999999
 10
2.974473458596085
 20
0.2668317731728138
 42
1.0
 10
2.886010962762588
 20
0.2668317731728138
 42
1.0
 10
2.827547483373362
 20
0.2953564146864596
 42
1.0
 10
2.800798109633261
 20
0.3085956997772151
 42
1.0
 72
     1
 10
2.800798109633261
 20
0.3085956997772151
 11
2.800798109633261
 21
0.5263217609510128
 72
     4
 94
        3
 73
     1
 74
     0
 95
        8
 96
        4
 40
0.5
 40
0.5
 40
0.5
 40
0.5
 40
0.5999999999999996
 40
0.5999999999999996
 40
0.5999999999999996
 40
0.5999999999999996
 10
2.800798109633261
 20
0.5263217609510128
 42
1.0
 10
2.820897751543703
 20
0.5079071189611973
 42
1.0
 10
2.847647125283804
 20
0.4827524772888429
 42
1.0
 10
2.912730247218446
 20
0.4827524772888429
 42
1.0
 72
     4
 94
        3
 73
     1
 74
     0
 95
        8
 96
        4
 40
0.5999999999999996
 40
0.5999999999999996
 40
0.5999999999999996
 40
0.5999999999999996
 40
0.7000000000000002
 40
0.7000000000000002
 40
0.7000000000000002
 40
0.7000000000000002
 10
2.912730247218446
 20
0.4827524772888429
 42
1.0
 10
3.027942116792035
 20
0.4827524772888429
 42
1.0
 10
3.099735149124911
 20
0.588185329465826
 42
1.0
 10
3.099735149124911
 20
0.7501860361214121
 42
1.0
 72
     4
 94
        3
 73
     1
 74
     0
 95
        8
 96
        4
 40
0.7000000000000002
 40
0.7000000000000002
 40
0.7000000000000002
 40
0.7000000000000002
 40
0.7999999999999998
 40
0.7999999999999998
 40
0.7999999999999998
 40
0.7999999999999998
 10
3.099735149124911
 20
0.7501860361214121
 42
1.0
 10
3.099735149124911
 20
0.9074928144266706
 42
1.0
 10
3.037961848462977
 20
1.009555666762417
 42
1.0
 10
2.924434978810022
 20
1.009555666762417
 42
1.0
 97
        0
 75
     0
 76
     1
 98
        1
 10
0.0
 20
0.0
  0
HATCH
  5
151
330
A7
100
AcDbEntity
  8
0
  6
Continuous
 62
   250
420
  1644836
100
AcDbHatch
 10
0.0
 20
0.0
 30
0.0
210
0.0
220
0.0
230
1.0
  2
SOLID
 70
     1
 71
     0
 91
        1
 92
        0
 93
        4
 72
     1
 10
3.437637811763976
 20
1.470222609328109
 11
3.694841013967094
 21
1.470222609328109
 72
     1
 10
3.694841013967094
 20
1.470222609328109
 11
3.694841013967094
 21
0.2862092722499865
 72
     1
 10
3.694841013967094
 20
0.2862092722499864
 11
3.437637811763976
 21
0.2862092722499864
 72
     1
 10
3.437637811763976
 20
0.2862092722499864
 11
3.437637811763976
 21
1.470222609328109
 97
        0
 75
     0
 76
     1
 98
        1
 10
0.0
 20
0.0
  0
HATCH
  5
152
330
A7
100
AcDbEntity
  8
0
  6
Continuous
 62
   250
420
  1644836
100
AcDbHatch
 10
0.0
 20
0.0
 30
0.0
210
0.0
220
0.0
230
1.0
  2
SOLID
 70
     1
 71
     0
 91
        1
 92
        0
 93
       16
 72
     4
 94
        3
 73
     1
 74
     0
 95
        8
 96
        4
 40
0.8125
 40
0.8125
 40
0.8125
 40
0.8125
 40
0.875
 40
0.875
 40
0.875
 40
0.875
 10
5.887447160682527
 20
0.2789878440288665
 42
1.0
 10
5.642821279347108
 20
0.2789878440288665
 42
1.0
 10
5.632831636960469
 20
0.4092142664667094
 42
1.0
 10
5.629461637119202
 20
0.5311360464385781
 42
1.0
 72
     1
 10
5.629461637119202
 20
0.5311360464385781
 11
5.629461637119202
 21
0.9995660243757917
 72
     1
 10
5.629461637119202
 20
0.9995660243757917
 11
5.503688428757314
 21
0.9995660243757917
 72
     1
 10
5.503688428757314
 20
0.9995660243757917
 11
5.503688428757314
 21
1.193581729523465
 72
     1
 10
5.503688428757314
 20
1.193581729523465
 11
5.629461637119202
 21
1.193581729523465
 72
     1
 10
5.629461637119202
 20
1.193581729523465
 11
5.629461637119202
 21
1.357989578922823
 72
     1
 10
5.629461637119202
 20
1.357989578922823
 11
5.889071982034581
 21
1.357989578922823
 72
     1
 10
5.889071982034581
 20
1.357989578922823
 11
5.889071982034581
 21
1.193581729523465
 72
     1
 10
5.889071982034581
 20
1.193581729523465
 11
6.060099473979253
 21
1.193581729523465
 72
     1
 10
6.060099473979253
 20
1.193581729523465
 11
6.060099473979253
 21
0.9995660243757917
 72
     1
 10
6.060099473979253
 20
0.9995660243757917
 11
5.889071982034581
 21
0.9995660243757917
 72
     1
 10
5.889071982034581
 20
0.9995660243757917
 11
5.889071982034581
 21
0.6232092563876774
 72
     4
 94
        3
 73
     1
 74
     0
 95
        8
 96
        4
 40
0.5625
 40
0.5625
 40
0.5625
 40
0.5625
 40
0.625
 40
0.625
 40
0.625
 40
0.625
 10
5.889071982034581
 20
0.6232092563876774
 42
1.0
 10
5.887447160682527
 20
0.5128417615859021
 42
1.0
 10
5.892441981875836
 20
0.4875667627763645
 42
1.0
 10
5.991315370076102
 20
0.4875667627763645
 42
1.0
 72
     4
 94
        3
 73
     1
 74
     0
 95
        8
 96
        4
 40
0.625
 40
0.625
 40
0.625
 40
0.625
 40
0.6875
 40
0.6875
 40
0.6875
 40
0.6875
 10
5.991315370076102
 20
0.4875667627763645
 42
1.0
 10
6.009790190634556
 20
0.4875667627763645
 42
1.0
 10
6.019840011589773
 20
0.4875667627763645
 42
1.0
 10
6.060099473979253
 20
0.4909367626176449
 42
1.0
 72
     1
 10
6.060099473979253
 20
0.4909367626176449
 11
6.060099473979253
 21
0.2906624863361211
 72
     4
 94
        3
 73
     1
 74
     0
 95
        8
 96
        4
 40
0.75
 40
0.75
 40
0.75
 40
0.75
 40
0.8125
 40
0.8125
 40
0.8125
 40
0.8125
 10
6.060099473979253
 20
0.2906624863361211
 42
1.0
 10
5.966100549835169
 20
0.2823578438701578
 42
1.0
 10
5.937636086890083
 20
0.2789878440288665
 42
1.0
 10
5.887447160682527
 20
0.2789878440288665
 42
1.0
 97
        0
 75
     0
 76
     1
 98
        1
 10
0.0
 20
0.0
  0
HATCH
  5
153
330
A7
100
AcDbEntity
  8
0
  6
Continuous
 62
   250
420
  1644836
100
AcDbHatch
 10
0.0
 20
0.0
 30
0.0
210
0.0
220
0.0
230
1.0
  2
SOLID
 70
     1
 71
     0
 91
        1
 92
        0
 93
        4
 72
     1
 10
6.101562507779605
 20
1.240039584421863
 11
6.101562507779605
 21
1.469981895046859
 72
     1
 10
6.101562507779605
 20
1.469981895046859
 11
6.361112674154604
 21
1.469981895046859
 72
     1
 10
6.361112674154604
 20
1.469981895046859
 11
6.361112674154604
 21
1.240039584421863
 72
     1
 10
6.361112674154604
 20
1.240039584421863
 11
6.101562507779605
 21
1.240039584421863
 97
        0
 75
     0
 76
     1
 98
        1
 10
0.0
 20
0.0
  0
HATCH
  5
154
330
A7
100
AcDbEntity
  8
0
  6
Continuous
 62
   250
420
  1644836
100
AcDbHatch
 10
0.0
 20
0.0
 30
0.0
210
0.0
220
0.0
230
1.0
  2
SOLID
 70
     1
 71
     0
 91
        1
 92
        0
 93
        4
 72
     1
 10
6.101562507779605
 20
0.2862092722499864
 11
6.101562507779605
 21
1.193581729546872
 72
     1
 10
6.101562507779605
 20
1.193581729546872
 11
6.361112674154604
 21
1.193581729546872
 72
     1
 10
6.361112674154604
 20
1.193581729546872
 11
6.361112674154604
 21
0.2862092722499865
 72
     1
 10
6.361112674154604
 20
0.2862092722499864
 11
6.101562507779605
 21
0.2862092722499864
 97
        0
 75
     0
 76
     1
 98
        1
 10
0.0
 20
0.0
  0
HATCH
  5
155
330
A7
100
AcDbEntity
  8
0
  6
Continuous
 62
   250
420
  1644836
100
AcDbHatch
 10
0.0
 20
0.0
 30
0.0
210
0.0
220
0.0
230
1.0
  2
SOLID
 70
     1
 71
     0
 91
        1
 92
        0
 93
       11
 72
     4
 94
        3
 73
     1
 74
     0
 95
        8
 96
        4
 40
0.8181818181818183
 40
0.8181818181818183
 40
0.8181818181818183
 40
0.8181818181818183
 40
0.9090909090909101
 40
0.9090909090909101
 40
0.9090909090909101
 40
0.9090909090909101
 10
4.028380730386266
 20
0.8257703182757242
 42
1.0
 10
4.06530028221878
 20
0.8340749607417203
 42
1.0
 10
4.256307058936826
 20
0.8659696020966247
 42
1.0
 10
4.299906431883294
 20
0.8759592444832828
 42
1.0
 72
     1
 10
4.299906431883294
 20
0.8759592444832828
 11
4.299906431883294
 21
0.6985528242675905
 72
     4
 94
        3
 73
     1
 74
     0
 95
        8
 96
        4
 40
0.0
 40
0.0
 40
0.0
 40
0.0
 40
0.0909090909090909
 40
0.0909090909090909
 40
0.0909090909090909
 40
0.0909090909090909
 10
4.299906431883294
 20
0.6985528242675905
 42
1.0
 10
4.27643679013155
 20
0.6916924674479011
 42
1.0
 10
4.162488670498397
 20
0.6700281827539447
 42
1.0
 10
4.135649028905429
 20
0.6632881830713729
 42
1.0
 72
     4
 94
        3
 73
     1
 74
     0
 95
        8
 96
        4
 40
0.0909090909090909
 40
0.0909090909090909
 40
0.0909090909090909
 40
0.0909090909090909
 40
0.1818181818181819
 40
0.1818181818181819
 40
0.1818181818181819
 40
0.1818181818181819
 10
4.135649028905429
 20
0.6632881830713729
 42
1.0
 10
4.063585193013841
 20
0.643188541160939
 42
1.0
 10
4.025070909113619
 20
0.6146638996472932
 42
1.0
 10
4.025070909113619
 20
0.557855330894346
 42
1.0
 72
     4
 94
        3
 73
     1
 74
     0
 95
        8
 96
        4
 40
0.1818181818181819
 40
0.1818181818181819
 40
0.1818181818181819
 40
0.1818181818181819
 40
0.2727272727272729
 40
0.2727272727272729
 40
0.2727272727272729
 40
0.2727272727272729
 10
4.025070909113619
 20
0.557855330894346
 42
1.0
 10
4.025070909113619
 20
0.5009264050042485
 42
1.0
 10
4.070295103412147
 20
0.4607271211833698
 42
1.0
 10
4.145728939144948
 20
0.4607271211833698
 42
1.0
 72
     4
 94
        3
 73
     1
 74
     0
 95
        8
 96
        4
 40
0.2727272727272729
 40
0.2727272727272729
 40
0.2727272727272729
 40
0.2727272727272729
 40
0.3636363636363638
 40
0.3636363636363638
 40
0.3636363636363638
 40
0.3636363636363638
 10
4.145728939144948
 20
0.4607271211833698
 42
1.0
 10
4.179248401851903
 20
0.4607271211833698
 42
1.0
 10
4.241232327503963
 20
0.4674671208658869
 42
1.0
 10
4.299906431883294
 20
0.5109160473908956
 42
1.0
 72
     4
 94
        3
 73
     1
 74
     0
 95
        8
 96
        4
 40
0.3636363636363638
 40
0.3636363636363638
 40
0.3636363636363638
 40
0.3636363636363638
 40
0.454545454545455
 40
0.454545454545455
 40
0.454545454545455
 40
0.454545454545455
 10
4.299906431883294
 20
0.5109160473908956
 42
1.0
 10
4.296536432042022
 20
0.4807064059566205
 42
1.0
 10
4.29488152140567
 20
0.4523021215801359
 42
1.0
 10
4.29488152140567
 20
0.4237774800664901
 42
1.0
 72
     4
 94
        3
 73
     1
 74
     0
 95
        8
 96
        4
 40
0.454545454545455
 40
0.454545454545455
 40
0.454545454545455
 40
0.454545454545455
 40
0.5454545454545459
 40
0.5454545454545459
 40
0.5454545454545459
 40
0.5454545454545459
 10
4.29488152140567
 20
0.4237774800664901
 42
1.0
 10
4.29488152140567
 20
0.4086124807807829
 42
1.0
 10
4.299906431883294
 20
0.3363981984677075
 42
1.0
 10
4.299906431883294
 20
0.3212331991819456
 42
1.0
 72
     4
 94
        3
 73
     1
 74
     0
 95
        8
 96
        4
 40
0.5454545454545459
 40
0.5454545454545459
 40
0.5454545454545459
 40
0.5454545454545459
 40
0.6363636363636367
 40
0.6363636363636367
 40
0.6363636363636367
 40
0.6363636363636367
 10
4.299906431883294
 20
0.3212331991819456
 42
1.0
 10
4.221162774877778
 20
0.2574439164721368
 42
1.0
 10
4.102129566198454
 20
0.2574439164721368
 42
1.0
 10
4.077005013810374
 20
0.2574439164721368
 42
1.0
 72
     4
 94
        3
 73
     1
 74
     0
 95
        8
 96
        4
 40
0.6363636363636367
 40
0.6363636363636367
 40
0.6363636363636367
 40
0.6363636363636367
 40
0.7272727272727275
 40
0.7272727272727275
 40
0.7272727272727275
 40
0.7272727272727275
 10
4.077005013810374
 20
0.2574439164721368
 42
1.0
 10
3.906007611149994
 20
0.2574439164721368
 42
1.0
 10
3.763444582150306
 20
0.363237840060724
 42
1.0
 10
3.763444582150306
 20
0.5494303312911996
 42
1.0
 72
     4
 94
        3
 73
     1
 74
     0
 95
        8
 96
        4
 40
0.7272727272727275
 40
0.7272727272727275
 40
0.7272727272727275
 40
0.7272727272727275
 40
0.8181818181818183
 40
0.8181818181818183
 40
0.8181818181818183
 40
0.8181818181818183
 10
3.763444582150306
 20
0.5494303312911996
 42
1.0
 10
3.763444582150306
 20
0.7636660354865119
 42
1.0
 10
3.942897073698228
 20
0.8072353191487366
 42
1.0
 10
4.028380730386266
 20
0.8257703182757242
 42
1.0
 97
        0
 75
     0
 76
     1
 98
        1
 10
0.0
 20
0.0
  0
HATCH
  5
156
330
A7
100
AcDbEntity
  8
0
  6
Continuous
 62
   250
420
  1644836
100
AcDbHatch
 10
0.0
 20
0.0
 30
0.0
210
0.0
220
0.0
230
1.0
  2
SOLID
 70
     1
 71
     0
 91
        1
 92
        0
 93
       11
 72
     4
 94
        3
 73
     1
 74
     0
 95
        8
 96
        4
 40
0.3636363636363638
 40
0.3636363636363638
 40
0.3636363636363638
 40
0.3636363636363638
 40
0.454545454545455
 40
0.454545454545455
 40
0.454545454545455
 40
0.454545454545455
 10
4.60001695346256
 20
0.4650599781221371
 42
1.0
 10
4.60001695346256
 20
0.3792453393068006
 42
1.0
 10
4.603417042588098
 20
0.3403699839949472
 42
1.0
 10
4.633566505453809
 20
0.2865703436717201
 42
1.0
 72
     1
 10
4.633566505453809
 20
0.2865703436717201
 11
4.358610625546905
 21
0.2865703436717201
 72
     4
 94
        3
 73
     1
 74
     0
 95
        8
 96
        4
 40
0.5454545454545459
 40
0.5454545454545459
 40
0.5454545454545459
 40
0.5454545454545459
 40
0.6363636363636367
 40
0.6363636363636367
 40
0.6363636363636367
 40
0.6363636363636367
 10
4.358610625546905
 20
0.2865703436717201
 42
1.0
 10
4.345190804750458
 20
0.3185853421638514
 42
1.0
 10
4.340135804988515
 20
0.3403699839949472
 42
1.0
 10
4.338480894352198
 20
0.4211296230483522
 42
1.0
 72
     1
 10
4.338480894352198
 20
0.4211296230483522
 11
4.338480894352198
 21
0.885948886869941
 72
     4
 94
        3
 73
     1
 74
     0
 95
        8
 96
        4
 40
0.7272727272727275
 40
0.7272727272727275
 40
0.7272727272727275
 40
0.7272727272727275
 40
0.8181818181818183
 40
0.8181818181818183
 40
0.8181818181818183
 40
0.8181818181818183
 10
4.338480894352198
 20
0.885948886869941
 42
1.0
 10
4.340135804988515
 20
0.9345731702940643
 42
1.0
 10
4.341790715624854
 20
1.016656737856538
 42
1.0
 10
4.202718043603674
 20
1.016656737856538
 42
1.0
 72
     4
 94
        3
 73
     1
 74
     0
 95
        8
 96
        4
 40
0.8181818181818183
 40
0.8181818181818183
 40
0.8181818181818183
 40
0.8181818181818183
 40
0.9090909090909101
 40
0.9090909090909101
 40
0.9090909090909101
 40
0.9090909090909101
 10
4.202718043603674
 20
1.016656737856538
 42
1.0
 10
4.174223491374352
 20
1.016656737856538
 42
1.0
 10
4.055190282695015
 20
1.013166380878075
 42
1.0
 10
4.051880461422277
 20
0.9027988860762993
 42
1.0
 72
     1
 10
4.051880461422277
 20
0.9027988860762993
 11
3.813783954779352
 21
0.9021971003904166
 72
     4
 94
        3
 73
     1
 74
     0
 95
        8
 96
        4
 40
0.0
 40
0.0
 40
0.0
 40
0.0
 40
0.0909090909090909
 40
0.0909090909090909
 40
0.0909090909090909
 40
0.0909090909090909
 10
3.813783954779352
 20
0.9021971003904166
 42
1.0
 10
3.827203775575893
 20
1.110535304863461
 42
1.0
 10
3.966366715449936
 20
1.217893871235549
 42
1.0
 10
4.202718043603674
 20
1.217893871235549
 42
1.0
 72
     4
 94
        3
 73
     1
 74
     0
 95
        8
 96
        4
 40
0.0909090909090909
 40
0.0909090909090909
 40
0.0909090909090909
 40
0.0909090909090909
 40
0.1818181818181819
 40
0.1818181818181819
 40
0.1818181818181819
 40
0.1818181818181819
 10
4.202718043603674
 20
1.217893871235549
 42
1.0
 10
4.299906431883294
 20
1.217893871235549
 42
1.0
 10
4.402149819924785
 20
1.204413871870471
 42
1.0
 10
4.480983744783201
 20
1.147364588843157
 42
1.0
 72
     4
 94
        3
 73
     1
 74
     0
 95
        8
 96
        4
 40
0.1818181818181819
 40
0.1818181818181819
 40
0.1818181818181819
 40
0.1818181818181819
 40
0.2727272727272729
 40
0.2727272727272729
 40
0.2727272727272729
 40
0.2727272727272729
 10
4.480983744783201
 20
1.147364588843157
 42
1.0
 10
4.593337132348579
 20
1.068530663984693
 42
1.0
 10
4.596677042905569
 20
0.957681740634251
 42
1.0
 10
4.60001695346256
 20
0.8568224596703468
 42
1.0
 72
     1
 10
4.60001695346256
 20
0.8568224596703468
 11
4.60001695346256
 21
0.4650599781221371
 97
        0
 75
     0
 76
     1
 98
        1
 10
0.0
 20
0.0
  0
HATCH
  5
157
330
A7
100
AcDbEntity
  8
0
  6
Continuous
 62
   250
420
  1644836
100
AcDbHatch
 10
0.0
 20
0.0
 30
0.0
210
0.0
220
0.0
230
1.0
  2
SOLID
 70
     1
 71
     0
 91
        1
 92
        0
 93
        5
 72
     4
 94
        3
 73
     1
 74
     0
 95
        8
 96
        4
 40
0.5999999999999996
 40
0.5999999999999996
 40
0.5999999999999996
 40
0.5999999999999996
 40
0.7999999999999998
 40
0.7999999999999998
 40
0.7999999999999998
 40
0.7999999999999998
 10
5.388988077016772
 20
1.123834768522819
 42
1.0
 10
5.459517359409197
 20
1.056976378814655
 42
1.0
 10
5.476186822909791
 20
0.9833178108553708
 42
1.0
 10
5.482866644023717
 20
0.9147142426579749
 42
1.0
 72
     1
 10
5.482866644023717
 20
0.9147142426579749
 11
5.238180584119749
 21
0.9014749575672413
 72
     4
 94
        3
 73
     1
 74
     0
 95
        8
 96
        4
 40
0.0
 40
0.0
 40
0.0
 40
0.0
 40
0.2
 40
0.2
 40
0.2
 40
0.2
 10
5.238180584119749
 20
0.9014749575672413
 42
1.0
 10
5.234690227141307
 20
1.011842452368995
 42
1.0
 10
5.145987017033404
 20
1.025202094596911
 42
1.0
 10
5.110752465121526
 20
1.031821737142311
 42
1.0
 72
     1
 10
5.110752465121526
 20
1.031821737142311
 11
5.110752465121526
 21
1.222708156723103
 72
     4
 94
        3
 73
     1
 74
     0
 95
        8
 96
        4
 40
0.3999999999999999
 40
0.3999999999999999
 40
0.3999999999999999
 40
0.3999999999999999
 40
0.5999999999999996
 40
0.5999999999999996
 40
0.5999999999999996
 40
0.5999999999999996
 10
5.110752465121526
 20
1.222708156723103
 42
1.0
 10
5.214590585230821
 20
1.217713335529763
 42
1.0
 10
5.315209151920316
 20
1.192558693857354
 42
1.0
 10
5.388988077016772
 20
1.123834768522819
 42
1.0
 97
        0
 75
     0
 76
     1
 98
        1
 10
0.0
 20
0.0
  0
HATCH
  5
158
330
A7
100
AcDbEntity
  8
0
  6
Continuous
 62
   250
420
  1644836
100
AcDbHatch
 10
0.0
 20
0.0
 30
0.0
210
0.0
220
0.0
230
1.0
  2
SOLID
 70
     1
 71
     0
 91
        1
 92
        0
 93
        4
 72
     4
 94
        3
 73
     1
 74
     0
 95
        8
 96
        4
 40
0.5
 40
0.5
 40
0.5
 40
0.5
 40
0.75
 40
0.75
 40
0.75
 40
0.75
 10
4.923205956097669
 20
0.6055167572209607
 42
1.0
 10
4.936685955462796
 20
0.5270439037741552
 42
1.0
 10
4.953385508247664
 20
0.4785399774871932
 42
1.0
 10
5.065738895813077
 20
0.4567553356561301
 42
1.0
 72
     1
 10
5.065738895813077
 20
0.4567553356561301
 11
5.065738895813077
 21
0.2622582019596584
 72
     4
 94
        3
 73
     1
 74
     0
 95
        8
 96
        4
 40
0.0
 40
0.0
 40
0.0
 40
0.0
 40
0.25
 40
0.25
 40
0.25
 40
0.25
 10
5.065738895813077
 20
0.2622582019596584
 42
1.0
 10
4.789098015985534
 20
0.2839224866535712
 42
1.0
 10
4.688569717148921
 20
0.4030760524701079
 42
1.0
 10
4.6751498963524
 20
0.5972121147549319
 42
1.0
 72
     1
 10
4.6751498963524
 20
0.5972121147549319
 11
4.923205956097669
 21
0.6055167572209607
 97
        0
 75
     0
 76
     1
 98
        1
 10
0.0
 20
0.0
  0
HATCH
  5
159
330
A7
100
AcDbEntity
  8
0
  6
Continuous
 62
   250
420
  1644836
100
AcDbHatch
 10
0.0
 20
0.0
 30
0.0
210
0.0
220
0.0
230
1.0
  2
SOLID
 70
     1
 71
     0
 91
        1
 92
        0
 93
       14
 72
     4
 94
        3
 73
     1
 74
     0
 95
        8
 96
        4
 40
0.2857142857142856
 40
0.2857142857142856
 40
0.2857142857142856
 40
0.2857142857142856
 40
0.3571428571428568
 40
0.3571428571428568
 40
0.3571428571428568
 40
0.3571428571428568
 10
5.063903449470914
 20
1.033506737062908
 42
1.0
 10
5.008629434217149
 20
1.030136737221638
 42
1.0
 10
4.951670419042756
 20
1.01509209507307
 42
1.0
 10
4.951670419042756
 20
0.9582835263201775
 42
1.0
 72
     4
 94
        3
 73
     1
 74
     0
 95
        8
 96
        4
 40
0.3571428571428568
 40
0.3571428571428568
 40
0.3571428571428568
 40
0.3571428571428568
 40
0.4285714285714288
 40
0.4285714285714288
 40
0.4285714285714288
 40
0.4285714285714288
 10
4.951670419042756
 20
0.9582835263201775
 42
1.0
 10
4.951670419042756
 20
0.9130292427373019
 42
1.0
 10
4.985219971034026
 20
0.9030396003506984
 42
1.0
 10
5.063903449470914
 20
0.8813753156567528
 42
1.0
 72
     1
 10
5.063903449470914
 20
0.8813753156567528
 11
5.198402550278956
 21
0.8515267456339943
 72
     4
 94
        3
 73
     1
 74
     0
 95
        8
 96
        4
 40
0.5
 40
0.5
 40
0.5
 40
0.5
 40
0.5714285714285712
 40
0.5714285714285712
 40
0.5714285714285712
 40
0.5714285714285712
 10
5.198402550278956
 20
0.8515267456339943
 42
1.0
 10
5.31436665195996
 20
0.8246871040410433
 42
1.0
 10
5.509585928479583
 20
0.7828028202994808
 42
1.0
 10
5.509585928479583
 20
0.5638731877537753
 42
1.0
 72
     4
 94
        3
 73
     1
 74
     0
 95
        8
 96
        4
 40
0.5714285714285712
 40
0.5714285714285712
 40
0.5714285714285712
 40
0.5714285714285712
 40
0.6428571428571423
 40
0.6428571428571423
 40
0.6428571428571423
 40
0.6428571428571423
 10
5.509585928479583
 20
0.5638731877537753
 42
1.0
 10
5.509585928479583
 20
0.4501356931107742
 42
1.0
 10
5.452295931177892
 20
0.3578217688872759
 42
1.0
 10
5.337896472280307
 20
0.3058274856218502
 42
1.0
 72
     4
 94
        3
 73
     1
 74
     0
 95
        8
 96
        4
 40
0.6428571428571423
 40
0.6428571428571423
 40
0.6428571428571423
 40
0.6428571428571423
 40
0.7142857142857135
 40
0.7142857142857135
 40
0.7142857142857135
 40
0.7142857142857135
 10
5.337896472280307
 20
0.3058274856218502
 42
1.0
 10
5.247207369408874
 20
0.2639432018803314
 42
1.0
 10
5.149718088286256
 20
0.2622582019596584
 42
1.0
 10
5.111053357964454
 20
0.2622582019596584
 42
1.0
 72
     1
 10
5.111053357964454
 20
0.2622582019596584
 11
5.111053357964454
 21
0.4535056929520109
 72
     4
 94
        3
 73
     1
 74
     0
 95
        8
 96
        4
 40
0.7857142857142847
 40
0.7857142857142847
 40
0.7857142857142847
 40
0.7857142857142847
 40
0.8571428571428577
 40
0.8571428571428577
 40
0.8571428571428577
 40
0.8571428571428577
 10
5.111053357964454
 20
0.4535056929520109
 42
1.0
 10
5.146408267013588
 20
0.4550703357354789
 42
1.0
 10
5.24552236948823
 20
0.4634953353386472
 42
1.0
 10
5.24552236948823
 20
0.540283188864867
 42
1.0
 72
     4
 94
        3
 73
     1
 74
     0
 95
        8
 96
        4
 40
0.8571428571428577
 40
0.8571428571428577
 40
0.8571428571428577
 40
0.8571428571428577
 40
0.9285714285714288
 40
0.9285714285714288
 40
0.9285714285714288
 40
0.9285714285714288
 10
5.24552236948823
 20
0.540283188864867
 42
1.0
 10
5.24552236948823
 20
0.5955271148343244
 42
1.0
 10
5.188412907892329
 20
0.6122567569035215
 42
1.0
 10
5.129618446375794
 20
0.6274217561892834
 42
1.0
 72
     1
 10
5.129618446375794
 20
0.6274217561892834
 11
4.96003524007736
 21
0.66918568279363
 72
     4
 94
        3
 73
     1
 74
     0
 95
        8
 96
        4
 40
0.0
 40
0.0
 40
0.0
 40
0.0
 40
0.0714285714285714
 40
0.0714285714285714
 40
0.0714285714285714
 40
0.0714285714285714
 10
4.96003524007736
 20
0.66918568279363
 42
1.0
 10
4.856407744958151
 20
0.6974696100328768
 42
1.0
 10
4.704246234267701
 20
0.7393538937744721
 42
1.0
 10
4.704246234267701
 20
0.9332492417849844
 42
1.0
 72
     4
 94
        3
 73
     1
 74
     0
 95
        8
 96
        4
 40
0.0714285714285714
 40
0.0714285714285714
 40
0.0714285714285714
 40
0.0714285714285714
 40
0.1428571428571428
 40
0.1428571428571428
 40
0.1428571428571428
 40
0.1428571428571428
 10
4.704246234267701
 20
0.9332492417849844
 42
1.0
 10
4.704246234267701
 20
0.9799478110140686
 42
1.0
 10
4.712611055302299
 20
1.053606378973352
 42
1.0
 10
4.771104623975876
 20
1.117215125977419
 42
1.0
 72
     4
 94
        3
 73
     1
 74
     0
 95
        8
 96
        4
 40
0.1428571428571428
 40
0.1428571428571428
 40
0.1428571428571428
 40
0.1428571428571428
 40
0.2142857142857144
 40
0.2142857142857144
 40
0.2142857142857144
 40
0.2142857142857144
 10
4.771104623975876
 20
1.117215125977419
 42
1.0
 10
4.859747655515092
 20
1.21103351441575
 42
1.0
 10
4.988559881590973
 20
1.217713335529763
 42
1.0
 10
5.063903449470914
 20
1.222708156723103
 42
1.0
 72
     1
 10
5.063903449470914
 20
1.222708156723103
 11
5.063903449470914
 21
1.033506737062908
 97
        0
 75
     0
 76
     1
 98
        1
 10
0.0
 20
0.0
  0
HATCH
  5
15A
330
A7
100
AcDbEntity
  8
0
  6
Continuous
 62
     1
100
AcDbHatch
 10
0.0
 20
0.0
 30
0.0
210
0.0
220
0.0
230
1.0
  2
SOLID
 70
     1
 71
     0
 91
        1
 92
        0
 93
        7
 72
     4
 94
        3
 73
     1
 74
     0
 95
        8
 96
        4
 40
0.1428571428571429
 40
0.1428571428571429
 40
0.1428571428571429
 40
0.1428571428571429
 40
0.2857142857142858
 40
0.2857142857142858
 40
0.2857142857142858
 40
0.2857142857142858
 10
6.441932491709446
 20
0.7383910366769634
 42
1.0
 10
6.441932491709446
 20
1.080446020566369
 42
1.0
 10
6.66874551674099
 20
1.216088514177704
 42
1.0
 10
6.875037649881927
 20
1.222708156723103
 42
1.0
 72
     1
 10
6.875037649881927
 20
1.222708156723103
 11
6.875037649881927
 21
1.013647809426829
 72
     4
 94
        3
 73
     1
 74
     0
 95
        8
 96
        4
 40
0.4285714285714288
 40
0.4285714285714288
 40
0.4285714285714288
 40
0.4285714285714288
 40
0.5714285714285716
 40
0.5714285714285716
 40
0.5714285714285716
 40
0.5714285714285716
 10
6.875037649881927
 20
1.013647809426829
 42
1.0
 10
6.72747979968893
 20
0.9901179891064685
 42
1.0
 10
6.710810336188305
 20
0.834195317878969
 42
1.0
 10
6.710810336188305
 20
0.7452513934967074
 42
1.0
 72
     4
 94
        3
 73
     1
 74
     0
 95
        8
 96
        4
 40
0.5714285714285716
 40
0.5714285714285716
 40
0.5714285714285716
 40
0.5714285714285716
 40
0.7142857142857144
 40
0.7142857142857144
 40
0.7142857142857144
 40
0.7142857142857144
 10
6.710810336188305
 20
0.7452513934967074
 42
1.0
 10
6.710810336188305
 20
0.7046910382641592
 42
1.0
 10
6.71243515754036
 20
0.6139417568241726
 42
1.0
 10
6.760939083827248
 20
0.5500321169771261
 42
1.0
 72
     4
 94
        3
 73
     1
 74
     0
 95
        8
 96
        4
 40
0.7142857142857144
 40
0.7142857142857144
 40
0.7142857142857144
 40
0.7142857142857144
 40
0.8571428571428577
 40
0.8571428571428577
 40
0.8571428571428577
 40
0.8571428571428577
 10
6.760939083827248
 20
0.5500321169771261
 42
1.0
 10
6.799694082001976
 20
0.4996024764951685
 42
1.0
 10
6.846513008368259
 20
0.4878074770506979
 42
1.0
 10
6.875037649881927
 20
0.4827524772888429
 42
1.0
 72
     1
 10
6.875037649881927
 20
0.4827524772888429
 11
6.875037649881927
 21
0.2620174876852922
 72
     4
 94
        3
 73
     1
 74
     0
 95
        8
 96
        4
 40
0.0
 40
0.0
 40
0.0
 40
0.0
 40
0.1428571428571429
 40
0.1428571428571429
 40
0.1428571428571429
 40
0.1428571428571429
 10
6.875037649881927
 20
0.2620174876852922
 42
1.0
 10
6.549471593787256
 20
0.2720071300719285
 42
1.0
 10
6.441932491709446
 20
0.5163321185643766
 42
1.0
 10
6.441932491709446
 20
0.7383910366769634
 42
1.0
 97
        0
 75
     0
 76
     1
 98
        1
 10
0.0
 20
0.0
  0
HATCH
  5
15B
330
A7
100
AcDbEntity
  8
0
  6
Continuous
 62
     1
100
AcDbHatch
 10
0.0
 20
0.0
 30
0.0
210
0.0
220
0.0
230
1.0
  2
SOLID
 70
     1
 71
     0
 91
        1
 92
        0
 93
        5
 72
     4
 94
        3
 73
     1
 74
     0
 95
        8
 96
        4
 40
0.5999999999999996
 40
0.5999999999999996
 40
0.5999999999999996
 40
0.5999999999999996
 40
0.7999999999999998
 40
0.7999999999999998
 40
0.7999999999999998
 40
0.7999999999999998
 10
7.192058349236142
 20
1.124496732777337
 42
1.0
 10
7.289306916084366
 20
1.037839594001697
 42
1.0
 10
7.30441173680152
 20
0.9413131699765596
 42
1.0
 10
7.314461557756719
 20
0.8830603155774148
 42
1.0
 72
     1
 10
7.314461557756719
 20
0.8830603155774148
 11
7.061230141112365
 21
0.8695803162123369
 72
     4
 94
        3
 73
     1
 74
     0
 95
        8
 96
        4
 40
0.0
 40
0.0
 40
0.0
 40
0.0
 40
0.2
 40
0.2
 40
0.2
 40
0.2
 10
7.061230141112365
 20
0.8695803162123369
 42
1.0
 10
7.039385320712647
 20
0.9779619182504705
 42
1.0
 10
6.985766216095252
 20
0.9996863815129748
 42
1.0
 10
6.918727290681269
 20
1.013046023740892
 42
1.0
 72
     1
 10
6.918727290681269
 20
1.013046023740892
 11
6.918727290681269
 21
1.222708156723103
 72
     4
 94
        3
 73
     1
 74
     0
 95
        8
 96
        4
 40
0.3999999999999999
 40
0.3999999999999999
 40
0.3999999999999999
 40
0.3999999999999999
 40
0.5999999999999996
 40
0.5999999999999996
 40
0.5999999999999996
 40
0.5999999999999996
 10
6.918727290681269
 20
1.222708156723103
 42
1.0
 10
7.062915141033004
 20
1.219398335450393
 42
1.0
 10
7.146743887084704
 20
1.164515480892463
 42
1.0
 10
7.192058349236142
 20
1.124496732777337
 42
1.0
 97
        0
 75
     0
 76
     1
 98
        1
 10
0.0
 20
0.0
  0
HATCH
  5
15C
330
A7
100
AcDbEntity
  8
0
  6
Continuous
 62
     1
100
AcDbHatch
 10
0.0
 20
0.0
 30
0.0
210
0.0
220
0.0
230
1.0
  2
SOLID
 70
     1
 71
     0
 91
        1
 92
        0
 93
        4
 72
     4
 94
        3
 73
     1
 74
     0
 95
        8
 96
        4
 40
0.5
 40
0.5
 40
0.5
 40
0.5
 40
0.75
 40
0.75
 40
0.75
 40
0.75
 10
7.321081200302102
 20
0.6256163991314382
 42
1.0
 10
7.299296558471022
 20
0.4589217641255027
 42
1.0
 10
7.190433527884112
 20
0.2754974870503483
 42
1.0
 10
6.918727290681269
 20
0.2620174876852922
 42
1.0
 72
     1
 10
6.918727290681269
 20
0.2620174876852922
 11
6.918727290681269
 21
0.4827524772888429
 72
     4
 94
        3
 73
     1
 74
     0
 95
        8
 96
        4
 40
0.0
 40
0.0
 40
0.0
 40
0.0
 40
0.25
 40
0.25
 40
0.25
 40
0.25
 10
6.918727290681269
 20
0.4827524772888429
 42
1.0
 10
7.014230679040273
 20
0.4979174765745392
 42
1.0
 10
7.047870498884442
 20
0.548467474193669
 42
1.0
 10
7.066224962305672
 20
0.6376521128502531
 42
1.0
 72
     1
 10
7.066224962305672
 20
0.6376521128502531
 11
7.321081200302102
 21
0.6256163991314382
 97
        0
 75
     0
 76
     1
 98
        1
 10
0.0
 20
0.0
  0
HATCH
  5
15D
330
A7
100
AcDbEntity
  8
0
  6
Continuous
 62
     1
100
AcDbHatch
 10
0.0
 20
0.0
 30
0.0
210
0.0
220
0.0
230
1.0
  2
SOLID
 70
     1
 71
     0
 91
        1
 92
        0
 93
        5
 72
     4
 94
        3
 73
     1
 74
     0
 95
        8
 96
        4
 40
0.5999999999999996
 40
0.5999999999999996
 40
0.5999999999999996
 40
0.5999999999999996
 40
0.7999999999999998
 40
0.7999999999999998
 40
0.7999999999999998
 40
0.7999999999999998
 10
8.95751701608411
 20
1.123834768522819
 42
1.0
 10
9.027865762770736
 20
1.056976378814655
 42
1.0
 10
9.04471576197712
 20
0.9833178108553708
 42
1.0
 10
9.051395583091075
 20
0.9147142426579749
 42
1.0
 72
     1
 10
9.051395583091075
 20
0.9147142426579749
 11
8.806528987481254
 21
0.9014749575672413
 72
     4
 94
        3
 73
     1
 74
     0
 95
        8
 96
        4
 40
0.0
 40
0.0
 40
0.0
 40
0.0
 40
0.2
 40
0.2
 40
0.2
 40
0.2
 10
8.806528987481254
 20
0.9014749575672413
 42
1.0
 10
8.803158987639984
 20
1.011842452368995
 42
1.0
 10
8.714455777532125
 20
1.025202094596911
 42
1.0
 10
8.679311493473152
 20
1.031821737142311
 42
1.0
 72
     1
 10
8.679311493473152
 20
1.031821737142311
 11
8.679311493473152
 21
1.222708156723103
 72
     4
 94
        3
 73
     1
 74
     0
 95
        8
 96
        4
 40
0.3999999999999999
 40
0.3999999999999999
 40
0.3999999999999999
 40
0.3999999999999999
 40
0.5999999999999996
 40
0.5999999999999996
 40
0.5999999999999996
 40
0.5999999999999996
 10
8.679311493473152
 20
1.222708156723103
 42
1.0
 10
8.783179702866711
 20
1.217713335529763
 42
1.0
 10
8.883677912419044
 20
1.192558693857354
 42
1.0
 10
8.95751701608411
 20
1.123834768522819
 42
1.0
 97
        0
 75
     0
 76
     1
 98
        1
 10
0.0
 20
0.0
  0
HATCH
  5
15E
330
A7
100
AcDbEntity
  8
0
  6
Continuous
 62
     1
100
AcDbHatch
 10
0.0
 20
0.0
 30
0.0
210
0.0
220
0.0
230
1.0
  2
SOLID
 70
     1
 71
     0
 91
        1
 92
        0
 93
        4
 72
     4
 94
        3
 73
     1
 74
     0
 95
        8
 96
        4
 40
0.5
 40
0.5
 40
0.5
 40
0.5
 40
0.75
 40
0.75
 40
0.75
 40
0.75
 10
8.491734895165033
 20
0.6055167572209607
 42
1.0
 10
8.505094537392944
 20
0.5270439037741552
 42
1.0
 10
8.52188435803072
 20
0.4785399774871932
 42
1.0
 10
8.634297924164704
 20
0.4567553356561301
 42
1.0
 72
     1
 10
8.634297924164704
 20
0.4567553356561301
 11
8.634297924164704
 21
0.2622582019596584
 72
     4
 94
        3
 73
     1
 74
     0
 95
        8
 96
        4
 40
0.0
 40
0.0
 40
0.0
 40
0.0
 40
0.25
 40
0.25
 40
0.25
 40
0.25
 10
8.634297924164704
 20
0.2622582019596584
 42
1.0
 10
8.357476508631391
 20
0.2839224866535712
 42
1.0
 10
8.256978299079025
 20
0.4030760524701079
 42
1.0
 10
8.243618656851137
 20
0.5972121147549319
 42
1.0
 72
     1
 10
8.243618656851137
 20
0.5972121147549319
 11
8.491734895165033
 21
0.6055167572209607
 97
        0
 75
     0
 76
     1
 98
        1
 10
0.0
 20
0.0
  0
HATCH
  5
15F
330
A7
100
AcDbEntity
  8
0
  6
Continuous
 62
     1
100
AcDbHatch
 10
0.0
 20
0.0
 30
0.0
210
0.0
220
0.0
230
1.0
  2
SOLID
 70
     1
 71
     0
 91
        1
 92
        0
 93
       11
 72
     4
 94
        3
 73
     1
 74
     0
 95
        8
 96
        4
 40
0.6363636363636367
 40
0.6363636363636367
 40
0.6363636363636367
 40
0.6363636363636367
 40
0.7272727272727275
 40
0.7272727272727275
 40
0.7272727272727275
 40
0.7272727272727275
 10
7.645443685024823
 20
0.2574439164721368
 42
1.0
 10
7.474416193080131
 20
0.2574439164721368
 42
1.0
 10
7.331913342649069
 20
0.363237840060724
 42
1.0
 10
7.331913342649069
 20
0.5494303312911996
 42
1.0
 72
     4
 94
        3
 73
     1
 74
     0
 95
        8
 96
        4
 40
0.7272727272727275
 40
0.7272727272727275
 40
0.7272727272727275
 40
0.7272727272727275
 40
0.8181818181818183
 40
0.8181818181818183
 40
0.8181818181818183
 40
0.8181818181818183
 10
7.331913342649069
 20
0.5494303312911996
 42
1.0
 10
7.331913342649069
 20
0.7636660354865119
 42
1.0
 10
7.51142601276554
 20
0.8072353191487366
 42
1.0
 10
7.596939758737919
 20
0.8257703182757242
 42
1.0
 72
     4
 94
        3
 73
     1
 74
     0
 95
        8
 96
        4
 40
0.8181818181818183
 40
0.8181818181818183
 40
0.8181818181818183
 40
0.8181818181818183
 40
0.9090909090909101
 40
0.9090909090909101
 40
0.9090909090909101
 40
0.9090909090909101
 10
7.596939758737919
 20
0.8257703182757242
 42
1.0
 10
7.633769042717525
 20
0.8340749607417203
 42
1.0
 10
7.824835998004127
 20
0.8659696020966247
 42
1.0
 10
7.868345103097719
 20
0.8759592444832828
 42
1.0
 72
     1
 10
7.868345103097719
 20
0.8759592444832828
 11
7.868345103097719
 21
0.6985528242675905
 72
     4
 94
        3
 73
     1
 74
     0
 95
        8
 96
        4
 40
0.0
 40
0.0
 40
0.0
 40
0.0
 40
0.0909090909090909
 40
0.0909090909090909
 40
0.0909090909090909
 40
0.0909090909090909
 10
7.868345103097719
 20
0.6985528242675905
 42
1.0
 10
7.844875461345977
 20
0.6916924674479011
 42
1.0
 10
7.731017609565782
 20
0.6700281827539447
 42
1.0
 10
7.70417796797276
 20
0.6632881830713729
 42
1.0
 72
     4
 94
        3
 73
     1
 74
     0
 95
        8
 96
        4
 40
0.0909090909090909
 40
0.0909090909090909
 40
0.0909090909090909
 40
0.0909090909090909
 40
0.1818181818181819
 40
0.1818181818181819
 40
0.1818181818181819
 40
0.1818181818181819
 10
7.70417796797276
 20
0.6632881830713729
 42
1.0
 10
7.632084042796906
 20
0.643188541160939
 42
1.0
 10
7.593449401759452
 20
0.6146638996472932
 42
1.0
 10
7.593449401759452
 20
0.557855330894346
 42
1.0
 72
     4
 94
        3
 73
     1
 74
     0
 95
        8
 96
        4
 40
0.1818181818181819
 40
0.1818181818181819
 40
0.1818181818181819
 40
0.1818181818181819
 40
0.2727272727272729
 40
0.2727272727272729
 40
0.2727272727272729
 40
0.2727272727272729
 10
7.593449401759452
 20
0.557855330894346
 42
1.0
 10
7.593449401759452
 20
0.5009264050042485
 42
1.0
 10
7.638763863910881
 20
0.4607271211833698
 42
1.0
 10
7.714167610359402
 20
0.4607271211833698
 42
1.0
 72
     4
 94
        3
 73
     1
 74
     0
 95
        8
 96
        4
 40
0.2727272727272729
 40
0.2727272727272729
 40
0.2727272727272729
 40
0.2727272727272729
 40
0.3636363636363638
 40
0.3636363636363638
 40
0.3636363636363638
 40
0.3636363636363638
 10
7.714167610359402
 20
0.4607271211833698
 42
1.0
 10
7.747626894497769
 20
0.4607271211833698
 42
1.0
 10
7.809731177286987
 20
0.4674671208658869
 42
1.0
 10
7.868345103097719
 20
0.5109160473908956
 42
1.0
 72
     4
 94
        3
 73
     1
 74
     0
 95
        8
 96
        4
 40
0.3636363636363638
 40
0.3636363636363638
 40
0.3636363636363638
 40
0.3636363636363638
 40
0.454545454545455
 40
0.454545454545455
 40
0.454545454545455
 40
0.454545454545455
 10
7.868345103097719
 20
0.5109160473908956
 42
1.0
 10
7.865035281825052
 20
0.4807064059566205
 42
1.0
 10
7.863410460473004
 20
0.4523021215801359
 42
1.0
 10
7.863410460473004
 20
0.4237774800664901
 42
1.0
 72
     4
 94
        3
 73
     1
 74
     0
 95
        8
 96
        4
 40
0.454545454545455
 40
0.454545454545455
 40
0.454545454545455
 40
0.454545454545455
 40
0.5454545454545459
 40
0.5454545454545459
 40
0.5454545454545459
 40
0.5454545454545459
 10
7.863410460473004
 20
0.4237774800664901
 42
1.0
 10
7.863410460473004
 20
0.4086124807807829
 42
1.0
 10
7.868345103097719
 20
0.3363981984677075
 42
1.0
 10
7.868345103097719
 20
0.3212331991819456
 42
1.0
 72
     4
 94
        3
 73
     1
 74
     0
 95
        8
 96
        4
 40
0.5454545454545459
 40
0.5454545454545459
 40
0.5454545454545459
 40
0.5454545454545459
 40
0.6363636363636367
 40
0.6363636363636367
 40
0.6363636363636367
 40
0.6363636363636367
 10
7.868345103097719
 20
0.3212331991819456
 42
1.0
 10
7.789631535376532
 20
0.2574439164721368
 42
1.0
 10
7.670598326697232
 20
0.2574439164721368
 42
1.0
 10
7.645443685024823
 20
0.2574439164721368
 42
1.0
 97
        0
 75
     0
 76
     1
 98
        1
 10
0.0
 20
0.0
  0
HATCH
  5
160
330
A7
100
AcDbEntity
  8
0
  6
Continuous
 62
     1
100
AcDbHatch
 10
0.0
 20
0.0
 30
0.0
210
0.0
220
0.0
230
1.0
  2
SOLID
 70
     1
 71
     0
 91
        1
 92
        0
 93
       11
 72
     4
 94
        3
 73
     1
 74
     0
 95
        8
 96
        4
 40
0.1818181818181819
 40
0.1818181818181819
 40
0.1818181818181819
 40
0.1818181818181819
 40
0.2727272727272729
 40
0.2727272727272729
 40
0.2727272727272729
 40
0.2727272727272729
 10
8.049422415997732
 20
1.147364588843157
 42
1.0
 10
8.161775803563028
 20
1.068530663984693
 42
1.0
 10
8.16514580340433
 20
0.957681740634251
 42
1.0
 10
8.168455624676987
 20
0.8568224596703468
 42
1.0
 72
     1
 10
8.168455624676987
 20
0.8568224596703468
 11
8.168455624676987
 21
0.4650599781221371
 72
     4
 94
        3
 73
     1
 74
     0
 95
        8
 96
        4
 40
0.3636363636363638
 40
0.3636363636363638
 40
0.3636363636363638
 40
0.3636363636363638
 40
0.454545454545455
 40
0.454545454545455
 40
0.454545454545455
 40
0.454545454545455
 10
8.168455624676987
 20
0.4650599781221371
 42
1.0
 10
8.168455624676987
 20
0.3792453393068006
 42
1.0
 10
8.171945981655448
 20
0.3403699839949472
 42
1.0
 10
8.202095444521172
 20
0.2865703436717201
 42
1.0
 72
     1
 10
8.202095444521172
 20
0.2865703436717201
 11
7.92707938604569
 21
0.2865703436717201
 72
     4
 94
        3
 73
     1
 74
     0
 95
        8
 96
        4
 40
0.5454545454545459
 40
0.5454545454545459
 40
0.5454545454545459
 40
0.5454545454545459
 40
0.6363636363636367
 40
0.6363636363636367
 40
0.6363636363636367
 40
0.6363636363636367
 10
7.92707938604569
 20
0.2865703436717201
 42
1.0
 10
7.913539208111981
 20
0.3185853421638514
 42
1.0
 10
7.908544386918669
 20
0.3403699839949472
 42
1.0
 10
7.906859386998023
 20
0.4211296230483522
 42
1.0
 72
     1
 10
7.906859386998023
 20
0.4211296230483522
 11
7.906859386998023
 21
0.885948886869941
 72
     4
 94
        3
 73
     1
 74
     0
 95
        8
 96
        4
 40
0.7272727272727275
 40
0.7272727272727275
 40
0.7272727272727275
 40
0.7272727272727275
 40
0.8181818181818183
 40
0.8181818181818183
 40
0.8181818181818183
 40
0.8181818181818183
 10
7.906859386998023
 20
0.885948886869941
 42
1.0
 10
7.908544386918669
 20
0.9345731702940643
 42
1.0
 10
7.910229386839315
 20
1.016656737856538
 42
1.0
 10
7.77121689338671
 20
1.016656737856538
 42
1.0
 72
     4
 94
        3
 73
     1
 74
     0
 95
        8
 96
        4
 40
0.8181818181818183
 40
0.8181818181818183
 40
0.8181818181818183
 40
0.8181818181818183
 40
0.9090909090909101
 40
0.9090909090909101
 40
0.9090909090909101
 40
0.9090909090909101
 10
7.77121689338671
 20
1.016656737856538
 42
1.0
 10
7.742632073304456
 20
1.016656737856538
 42
1.0
 10
7.623659043193703
 20
1.013166380878075
 42
1.0
 10
7.620289043352452
 20
0.9027988860762993
 42
1.0
 72
     1
 10
7.620289043352452
 20
0.9027988860762993
 11
7.3822226259938
 21
0.9021971003904166
 72
     4
 94
        3
 73
     1
 74
     0
 95
        8
 96
        4
 40
0.0
 40
0.0
 40
0.0
 40
0.0
 40
0.0909090909090909
 40
0.0909090909090909
 40
0.0909090909090909
 40
0.0909090909090909
 10
7.3822226259938
 20
0.9021971003904166
 42
1.0
 10
7.395702625358918
 20
1.110535304863461
 42
1.0
 10
7.534775297380111
 20
1.217893871235549
 42
1.0
 10
7.77121689338671
 20
1.217893871235549
 42
1.0
 72
     4
 94
        3
 73
     1
 74
     0
 95
        8
 96
        4
 40
0.0909090909090909
 40
0.0909090909090909
 40
0.0909090909090909
 40
0.0909090909090909
 40
0.1818181818181819
 40
0.1818181818181819
 40
0.1818181818181819
 40
0.1818181818181819
 10
7.77121689338671
 20
1.217893871235549
 42
1.0
 10
7.868345103097719
 20
1.217893871235549
 42
1.0
 10
7.970528312570703
 20
1.204413871870471
 42
1.0
 10
8.049422415997732
 20
1.147364588843157
 42
1.0
 97
        0
 75
     0
 76
     1
 98
        1
 10
0.0
 20
0.0
  0
HATCH
  5
161
330
A7
100
AcDbEntity
  8
0
  6
Continuous
 62
     1
100
AcDbHatch
 10
0.0
 20
0.0
 30
0.0
210
0.0
220
0.0
230
1.0
  2
SOLID
 70
     1
 71
     0
 91
        1
 92
        0
 93
       14
 72
     4
 94
        3
 73
     1
 74
     0
 95
        8
 96
        4
 40
0.3571428571428568
 40
0.3571428571428568
 40
0.3571428571428568
 40
0.3571428571428568
 40
0.4285714285714288
 40
0.4285714285714288
 40
0.4285714285714288
 40
0.4285714285714288
 10
8.520259536678706
 20
0.9582835263201775
 42
1.0
 10
8.520259536678706
 20
0.9130292427373019
 42
1.0
 10
8.553598463679862
 20
0.9030396003506984
 42
1.0
 10
8.632432388538266
 20
0.8813753156567528
 42
1.0
 72
     1
 10
8.632432388538266
 20
0.8813753156567528
 11
8.766931489346307
 21
0.8515267456339943
 72
     4
 94
        3
 73
     1
 74
     0
 95
        8
 96
        4
 40
0.5
 40
0.5
 40
0.5
 40
0.5
 40
0.5714285714285712
 40
0.5714285714285712
 40
0.5714285714285712
 40
0.5714285714285712
 10
8.766931489346307
 20
0.8515267456339943
 42
1.0
 10
8.882955769595918
 20
0.8246871040410433
 42
1.0
 10
9.077934331841096
 20
0.7828028202994808
 42
1.0
 10
9.077934331841096
 20
0.5638731877537753
 42
1.0
 72
     4
 94
        3
 73
     1
 74
     0
 95
        8
 96
        4
 40
0.5714285714285712
 40
0.5714285714285712
 40
0.5714285714285712
 40
0.5714285714285712
 40
0.6428571428571423
 40
0.6428571428571423
 40
0.6428571428571423
 40
0.6428571428571423
 10
9.077934331841096
 20
0.5638731877537753
 42
1.0
 10
9.077934331841096
 20
0.4501356931107742
 42
1.0
 10
9.020764691676654
 20
0.3578217688872759
 42
1.0
 10
8.906425411347671
 20
0.3058274856218502
 42
1.0
 72
     4
 94
        3
 73
     1
 74
     0
 95
        8
 96
        4
 40
0.6428571428571423
 40
0.6428571428571423
 40
0.6428571428571423
 40
0.6428571428571423
 40
0.7142857142857135
 40
0.7142857142857135
 40
0.7142857142857135
 40
0.7142857142857135
 10
8.906425411347671
 20
0.3058274856218502
 42
1.0
 10
8.815615951338998
 20
0.2639432018803314
 42
1.0
 10
8.718307205922205
 20
0.2622582019596584
 42
1.0
 10
8.679552207747525
 20
0.2622582019596584
 42
1.0
 72
     1
 10
8.679552207747525
 20
0.2622582019596584
 11
8.679552207747525
 21
0.4535056929520109
 72
     4
 94
        3
 73
     1
 74
     0
 95
        8
 96
        4
 40
0.7857142857142847
 40
0.7857142857142847
 40
0.7857142857142847
 40
0.7857142857142847
 40
0.8571428571428577
 40
0.8571428571428577
 40
0.8571428571428577
 40
0.8571428571428577
 10
8.679552207747525
 20
0.4535056929520109
 42
1.0
 10
8.71481684894373
 20
0.4550703357354789
 42
1.0
 10
8.813991129986968
 20
0.4634953353386472
 42
1.0
 10
8.813991129986968
 20
0.540283188864867
 42
1.0
 72
     4
 94
        3
 73
     1
 74
     0
 95
        8
 96
        4
 40
0.8571428571428577
 40
0.8571428571428577
 40
0.8571428571428577
 40
0.8571428571428577
 40
0.9285714285714288
 40
0.9285714285714288
 40
0.9285714285714288
 40
0.9285714285714288
 10
8.813991129986968
 20
0.540283188864867
 42
1.0
 10
8.813991129986968
 20
0.5955271148343244
 42
1.0
 10
8.756821489822444
 20
0.6122567569035215
 42
1.0
 10
8.69808720687454
 20
0.6274217561892834
 42
1.0
 72
     1
 10
8.69808720687454
 20
0.6274217561892834
 11
8.528564179144675
 21
0.66918568279363
 72
     4
 94
        3
 73
     1
 74
     0
 95
        8
 96
        4
 40
0.0
 40
0.0
 40
0.0
 40
0.0
 40
0.0714285714285714
 40
0.0714285714285714
 40
0.0714285714285714
 40
0.0714285714285714
 10
8.528564179144675
 20
0.66918568279363
 42
1.0
 10
8.424876505456874
 20
0.6974696100328768
 42
1.0
 10
8.272745084050753
 20
0.7393538937744721
 42
1.0
 10
8.272745084050753
 20
0.9332492417849844
 42
1.0
 72
     4
 94
        3
 73
     1
 74
     0
 95
        8
 96
        4
 40
0.0714285714285714
 40
0.0714285714285714
 40
0.0714285714285714
 40
0.0714285714285714
 40
0.1428571428571428
 40
0.1428571428571428
 40
0.1428571428571428
 40
0.1428571428571428
 10
8.272745084050753
 20
0.9332492417849844
 42
1.0
 10
8.272745084050753
 20
0.9799478110140686
 42
1.0
 10
8.281109905085367
 20
1.053606378973352
 42
1.0
 10
8.339663652327506
 20
1.117215125977419
 42
1.0
 72
     4
 94
        3
 73
     1
 74
     0
 95
        8
 96
        4
 40
0.1428571428571428
 40
0.1428571428571428
 40
0.1428571428571428
 40
0.1428571428571428
 40
0.2142857142857144
 40
0.2142857142857144
 40
0.2142857142857144
 40
0.2142857142857144
 10
8.339663652327506
 20
1.117215125977419
 42
1.0
 10
8.42824650529816
 20
1.21103351441575
 42
1.0
 10
8.557088820658356
 20
1.217713335529763
 42
1.0
 10
8.632432388538266
 20
1.222708156723103
 42
1.0
 72
     1
 10
8.632432388538266
 20
1.222708156723103
 11
8.632432388538266
 21
1.033506737062908
 72
     4
 94
        3
 73
     1
 74
     0
 95
        8
 96
        4
 40
0.2857142857142856
 40
0.2857142857142856
 40
0.2857142857142856
 40
0.2857142857142856
 40
0.3571428571428568
 40
0.3571428571428568
 40
0.3571428571428568
 40
0.3571428571428568
 10
8.632432388538266
 20
1.033506737062908
 42
1.0
 10
8.577128284000207
 20
1.030136737221638
 42
1.0
 10
8.520259536678706
 20
1.01509209507307
 42
1.0
 10
8.520259536678706
 20
0.9582835263201775
 42
1.0
 97
        0
 75
     0
 76
     1
 98
        1
 10
0.0
 20
0.0
  0
INSERT
  5
162
330
A7
100
AcDbEntity
  8
0
  6
Continuous
 62
     7
100
AcDbBlockReference
  2
Block16_1
 10
0.0
 20
0.0388429788
 30
0.0
  0
ENDBLK
  5
A9
330
A7
100
AcDbEntity
  8
0
100
AcDbBlockEnd
  0
BLOCK
  5
175
330
174
100
AcDbEntity
  8
0
100
AcDbBlockBegin
  2
SW_NOTE_0
 70
     0
 10
0.0
 20
0.0
 30
0.0
  3
SW_NOTE_0
  1

  0
MTEXT
  5
177
330
174
100
AcDbEntity
  8
0
  6
Continuous
 62
     0
370
     0
100
AcDbMText
 10
0.0
 20
0.4028336687
 30
0.0
 40
0.3125
 41
0.0
 71
     1
 72
     1
  1
L'INFORMATION CONTENUE DANS CE DESSIN EST LA PROPRIÉTÉ EXCLUSIVE DE PLASTICASE INC. TOUTE
  7
SLDTEXTSTYLE0
 73
     1
 44
1.0
  0
MTEXT
  5
178
330
174
100
AcDbEntity
  8
0
  6
Continuous
 62
     0
370
     0
100
AcDbMText
 10
0.0
 20
-0.013832993
 30
0.0
 40
0.3125
 41
0.0
 71
     1
 72
     1
  1
REPRODUCTION EN PARTIE OU COMPLÈTE N'EST PERMISESANS LE CONSENTEMENT ÉCRIT DE PLASTICASE INC.
  7
SLDTEXTSTYLE0
 73
     1
 44
1.0
  0
MTEXT
  5
179
330
174
100
AcDbEntity
  8
0
  6
Continuous
 62
     0
370
     0
100
AcDbMText
 10
0.0
 20
-0.4304996546
 30
0.0
 40
0.3125
 41
0.0
 71
     1
 72
     1
  1
THE INFORMATION CONTAINED IN THIS DRAWING IS THE SOLE & EXCLUSIVE PROPERTY OF PLASTICASE INC.
  7
SLDTEXTSTYLE0
 73
     1
 44
1.0
  0
MTEXT
  5
17A
330
174
100
AcDbEntity
  8
0
  6
Continuous
 62
     0
370
     0
100
AcDbMText
 10
0.0
 20
-0.8471663162
 30
0.0
 40
0.3125
 41
0.0
 71
     1
 72
     1
  1
ANY REPRODUCTION IN PART OR WHOLE WITHOUT THE WRITTEN PERMISSION OF PLASTICASE INC. IS PROHIBITED.
  7
SLDTEXTSTYLE0
 73
     1
 44
1.0
  0
ENDBLK
  5
176
330
174
100
AcDbEntity
  8
0
100
AcDbBlockEnd
  0
BLOCK
  5
185
330
184
100
AcDbEntity
  8
0
100
AcDbBlockBegin
  2
SW_NOTE_1
 70
     0
 10
0.0
 20
0.0
 30
0.0
  3
SW_NOTE_1
  1

  0
MTEXT
  5
187
330
184
100
AcDbEntity
  8
LAYER1
 62
     0
100
AcDbMText
 10
0.0
 20
0.5371115582
 30
0.0
 40
0.4166666667
 41
0.0
 71
     1
 72
     1
  1
1059, boulevard des Entreprises Ouest
  7
SLDTEXTSTYLE0
 73
     1
 44
1.0
  0
MTEXT
  5
188
330
184
100
AcDbEntity
  8
LAYER1
 62
     0
100
AcDbMText
 10
0.0
 20
-0.0184439906
 30
0.0
 40
0.4166666667
 41
0.0
 71
     1
 72
     1
  1
Terrebonne, QC Canada J6Y 1V2
  7
SLDTEXTSTYLE0
 73
     1
 44
1.0
  0
MTEXT
  5
189
330
184
100
AcDbEntity
  8
LAYER1
 62
     0
100
AcDbMText
 10
0.0
 20
-0.5739995394
 30
0.0
 40
0.4166666667
 41
0.0
 71
     1
 72
     1
  1
Tel  450-628-1006 1.800.783.6883
  7
SLDTEXTSTYLE0
 73
     1
 44
1.0
  0
MTEXT
  5
18A
330
184
100
AcDbEntity
  8
LAYER1
 62
     0
100
AcDbMText
 10
0.0
 20
-1.1295550883
 30
0.0
 40
0.4166666667
 41
0.0
 71
     1
 72
     1
  1
Fax 450-628-7801 1.888.783.6883
  7
SLDTEXTSTYLE0
 73
     1
 44
1.0
  0
MTEXT
  5
18B
330
184
100
AcDbEntity
  8
LAYER1
 62
     0
100
AcDbMText
 10
0.0
 20
-1.6851106371
 30
0.0
 40
0.4166666667
 41
0.0
 71
     1
 72
     1
  1
www.plasticase.com
  7
SLDTEXTSTYLE0
 73
     1
 44
1.0
  0
ENDBLK
  5
186
330
184
100
AcDbEntity
  8
0
100
AcDbBlockEnd
  0
BLOCK
  5
18E
330
18D
100
AcDbEntity
  8
0
100
AcDbBlockBegin
  2
SW_NOTE_2
 70
     0
 10
0.0
 20
0.0
 30
0.0
  3
SW_NOTE_2
  1

  0
MTEXT
  5
190
330
18D
100
AcDbEntity
  8
LAYER1
 62
     0
100
AcDbMText
 10
0.0
 20
0.4028336687
 30
0.0
 40
0.3125
 41
0.0
 71
     1
 72
     1
  1
DIMENSIONS EN POUCE [MILLIMETRES] SAUF SI INDIQUÉ
  7
SLDTEXTSTYLE0
 73
     1
 44
1.0
  0
MTEXT
  5
191
330
18D
100
AcDbEntity
  8
LAYER1
 62
     0
100
AcDbMText
 10
0.0
 20
-0.013832993
 30
0.0
 40
0.3125
 41
0.0
 71
     1
 72
     1
  1
DIMENSIONS ARE IN INCHES [MILLIMETERS] UNLESS OTHERWISE SPECIFIED
  7
SLDTEXTSTYLE0
 73
     1
 44
1.0
  0
ENDBLK
  5
18F
330
18D
100
AcDbEntity
  8
0
100
AcDbBlockEnd
  0
BLOCK
  5
195
330
194
100
AcDbEntity
  8
0
100
AcDbBlockBegin
  2
SW_NOTE_3
 70
     0
 10
0.0
 20
0.0
 30
0.0
  3
SW_NOTE_3
  1

  0
MTEXT
  5
197
330
194
100
AcDbEntity
  8
LAYER1
 62
     0
100
AcDbMText
 10
0.0
 20
0.6713894478
 30
0.0
 40
0.5208333333
 41
0.0
 71
     1
 72
     1
  1
963-965_ALUMINIUM BEZEL PLATE_BTM
  7
SLDTEXTSTYLE0
 73
     1
 44
1.0
  0
MTEXT
  5
198
330
194
100
AcDbEntity
  8
LAYER1
 62
     0
100
AcDbMText
 10
0.0
 20
-0.0230549883
 30
0.0
 40
0.5208333333
 41
0.0
 71
     1
 72
     1
  1
p.00
  7
SLDTEXTSTYLE0
 73
     1
 44
1.0
  0
ENDBLK
  5
196
330
194
100
AcDbEntity
  8
0
100
AcDbBlockEnd
  0
BLOCK
  5
1E4
330
1E3
100
AcDbEntity
  8
0
100
AcDbBlockBegin
  2
_D
 70
     0
 10
0.0
 20
0.0
 30
0.0
  3
_D
  1

  0
SOLID
  5
1E6
330
1E3
100
AcDbEntity
  8
DIMENSION
100
AcDbTrace
 10
9.07847957
 20
5.3368329777
 30
0.0
 11
9.4951462367
 21
5.2727304136
 31
0.0
 12
9.4951462367
 22
5.4009355418
 32
0.0
 13
9.4951462367
 23
5.4009355418
 33
0.0
  0
SOLID
  5
1E7
330
1E3
100
AcDbEntity
  8
DIMENSION
100
AcDbTrace
 10
23.6934562415
 20
5.3368329777
 30
0.0
 11
23.2767895749
 21
5.4009355418
 31
0.0
 12
23.2767895749
 22
5.2727304136
 32
0.0
 13
23.2767895749
 23
5.2727304136
 33
0.0
  0
LINE
  5
1E8
330
1E3
100
AcDbEntity
  8
DIMENSION
100
AcDbLine
 10
16.1783549554
 20
5.3368329319
 30
0.0
 11
16.0516188424
 21
5.3368329319
 31
0.0
  0
LINE
  5
1E9
330
1E3
100
AcDbEntity
  8
DIMENSION
100
AcDbLine
 10
16.0516188424
 20
5.3368329319
 30
0.0
 11
16.0516188424
 21
4.674795909
 31
0.0
  0
LINE
  5
1EA
330
1E3
100
AcDbEntity
  8
DIMENSION
100
AcDbLine
 10
16.0516188424
 20
4.674795909
 30
0.0
 11
16.1783549554
 21
4.674795909
 31
0.0
  0
LINE
  5
1EB
330
1E3
100
AcDbEntity
  8
DIMENSION
100
AcDbLine
 10
17.5633858971
 20
5.3368329319
 30
0.0
 11
17.6901220101
 21
5.3368329319
 31
0.0
  0
LINE
  5
1EC
330
1E3
100
AcDbEntity
  8
DIMENSION
100
AcDbLine
 10
17.6901220101
 20
5.3368329319
 30
0.0
 11
17.6901220101
 21
4.674795909
 31
0.0
  0
LINE
  5
1ED
330
1E3
100
AcDbEntity
  8
DIMENSION
100
AcDbLine
 10
17.6901220101
 20
4.674795909
 30
0.0
 11
17.5633858971
 21
4.674795909
 31
0.0
  0
LINE
  5
1EE
330
1E3
100
AcDbEntity
  8
DIMENSION
100
AcDbLine
 10
9.07847957
 20
13.8749492952
 30
0.0
 11
9.07847957
 21
4.7118329777
 31
0.0
  0
LINE
  5
1EF
330
1E3
100
AcDbEntity
  8
DIMENSION
100
AcDbLine
 10
23.6934562415
 20
13.115996392
 30
0.0
 11
23.6934562415
 21
4.7118329777
 31
0.0
  0
LINE
  5
1F0
330
1E3
100
AcDbEntity
  8
DIMENSION
100
AcDbLine
 10
9.07847957
 20
5.3368329777
 30
0.0
 11
15.5331777147
 21
5.3368329777
 31
0.0
  0
LINE
  5
1F1
330
1E3
100
AcDbEntity
  8
DIMENSION
100
AcDbLine
 10
23.6934562415
 20
5.3368329777
 30
0.0
 11
18.2085631377
 21
5.3368329777
 31
0.0
  0
MTEXT
  5
1F2
330
1E3
100
AcDbEntity
  8
DIMENSION
100
AcDbMText
 10
15.9302839687
 20
5.9584352245
 30
0.0
 40
0.4166666667
 41
0.0
 71
     1
 72
     1
  1

  7
SLDTEXTSTYLE1
 73
     1
 44
1.0
  0
MTEXT
  5
1F3
330
1E3
100
AcDbEntity
  8
DIMENSION
100
AcDbMText
 10
16.0244197545
 20
5.9584352245
 30
0.0
 40
0.4166666667
 41
0.0
 71
     1
 72
     1
  1
14.615
  7
SLDTEXTSTYLE1
 73
     1
 44
1.0
  0
MTEXT
  5
1F4
330
1E3
100
AcDbEntity
  8
DIMENSION
100
AcDbMText
 10
16.1783549554
 20
5.2119074443
 30
0.0
 40
0.4166666667
 41
0.0
 71
     1
 72
     1
  1
371.2
  7
SLDTEXTSTYLE1
 73
     1
 44
1.0
  0
MTEXT
  5
1F5
330
1E3
100
AcDbEntity
  8
DIMENSION
100
AcDbMText
 10
18.1293580314
 20
5.9584352245
 30
0.0
 40
0.4166666667
 41
0.0
 71
     1
 72
     1
  1

  7
SLDTEXTSTYLE1
 73
     1
 44
1.0
  0
ENDBLK
  5
1E5
330
1E3
100
AcDbEntity
  8
0
100
AcDbBlockEnd
  0
BLOCK
  5
1F8
330
1F7
100
AcDbEntity
  8
0
100
AcDbBlockBegin
  2
_D_1
 70
     0
 10
0.0
 20
0.0
 30
0.0
  3
_D_1
  1

  0
SOLID
  5
1FA
330
1F7
100
AcDbEntity
  8
DIMENSION
100
AcDbTrace
 10
4.4151179008
 20
22.3258253973
 30
0.0
 11
4.3510153367
 21
21.9091587306
 31
0.0
 12
4.4792204649
 22
21.9091587306
 32
0.0
 13
4.4792204649
 23
21.9091587306
 33
0.0
  0
SOLID
  5
1FB
330
1F7
100
AcDbEntity
  8
DIMENSION
100
AcDbTrace
 10
4.4151179008
 20
13.2108487258
 30
0.0
 11
4.4792204649
 21
13.6275153924
 31
0.0
 12
4.3510153367
 22
13.6275153924
 32
0.0
 13
4.3510153367
 23
13.6275153924
 33
0.0
  0
LINE
  5
1FC
330
1F7
100
AcDbEntity
  8
DIMENSION
100
AcDbLine
 10
3.72260243
 20
17.9291979958
 30
0.0
 11
3.595866317
 21
17.9291979958
 31
0.0
  0
LINE
  5
1FD
330
1F7
100
AcDbEntity
  8
DIMENSION
100
AcDbLine
 10
3.595866317
 20
17.9291979958
 30
0.0
 11
3.595866317
 21
17.2671609729
 31
0.0
  0
LINE
  5
1FE
330
1F7
100
AcDbEntity
  8
DIMENSION
100
AcDbLine
 10
3.595866317
 20
17.2671609729
 30
0.0
 11
3.72260243
 21
17.2671609729
 31
0.0
  0
LINE
  5
1FF
330
1F7
100
AcDbEntity
  8
DIMENSION
100
AcDbLine
 10
5.1076333716
 20
17.9291979958
 30
0.0
 11
5.2343694847
 21
17.9291979958
 31
0.0
  0
LINE
  5
200
330
1F7
100
AcDbEntity
  8
DIMENSION
100
AcDbLine
 10
5.2343694847
 20
17.9291979958
 30
0.0
 11
5.2343694847
 21
17.2671609729
 31
0.0
  0
LINE
  5
201
330
1F7
100
AcDbEntity
  8
DIMENSION
100
AcDbLine
 10
5.2343694847
 20
17.2671609729
 30
0.0
 11
5.1076333716
 21
17.2671609729
 31
0.0
  0
LINE
  5
202
330
1F7
100
AcDbEntity
  8
DIMENSION
100
AcDbLine
 10
8.9836272362
 20
22.3258253973
 30
0.0
 11
3.7901179008
 21
22.3258253973
 31
0.0
  0
LINE
  5
203
330
1F7
100
AcDbEntity
  8
DIMENSION
100
AcDbLine
 10
9.7425801394
 20
13.2108487258
 30
0.0
 11
3.7901179008
 21
13.2108487258
 31
0.0
  0
LINE
  5
204
330
1F7
100
AcDbEntity
  8
DIMENSION
100
AcDbLine
 10
4.4151179008
 20
22.3258253973
 30
0.0
 11
4.4151179008
 21
18.6757257761
 31
0.0
  0
LINE
  5
205
330
1F7
100
AcDbEntity
  8
DIMENSION
100
AcDbLine
 10
4.4151179008
 20
13.2108487258
 30
0.0
 11
4.4151179008
 21
17.1826703073
 31
0.0
  0
MTEXT
  5
206
330
1F7
100
AcDbEntity
  8
DIMENSION
100
AcDbMText
 10
3.4745314432
 20
18.5508002885
 30
0.0
 40
0.4166666667
 41
0.0
 71
     1
 72
     1
  1

  7
SLDTEXTSTYLE1
 73
     1
 44
1.0
  0
MTEXT
  5
207
330
1F7
100
AcDbEntity
  8
DIMENSION
100
AcDbMText
 10
3.72260243
 20
18.5508002885
 30
0.0
 40
0.4166666667
 41
0.0
 71
     1
 72
     1
  1
9.115
  7
SLDTEXTSTYLE1
 73
     1
 44
1.0
  0
MTEXT
  5
208
330
1F7
100
AcDbEntity
  8
DIMENSION
100
AcDbMText
 10
3.72260243
 20
17.8042725082
 30
0.0
 40
0.4166666667
 41
0.0
 71
     1
 72
     1
  1
231.5
  7
SLDTEXTSTYLE1
 73
     1
 44
1.0
  0
MTEXT
  5
209
330
1F7
100
AcDbEntity
  8
DIMENSION
100
AcDbMText
 10
5.673605506
 20
18.5508002885
 30
0.0
 40
0.4166666667
 41
0.0
 71
     1
 72
     1
  1

  7
SLDTEXTSTYLE1
 73
     1
 44
1.0
  0
ENDBLK
  5
1F9
330
1F7
100
AcDbEntity
  8
0
100
AcDbBlockEnd
  0
BLOCK
  5
20D
330
20C
100
AcDbEntity
  8
0
100
AcDbBlockBegin
  2
_D_2
 70
     0
 10
0.0
 20
0.0
 30
0.0
  3
_D_2
  1

  0
SOLID
  5
20F
330
20C
100
AcDbEntity
  8
DIMENSION
100
AcDbTrace
 10
9.07847957
 20
33.4093060058
 30
0.0
 11
9.4951462367
 21
33.3452034417
 31
0.0
 12
9.4951462367
 22
33.4734085699
 32
0.0
 13
9.4951462367
 23
33.4734085699
 33
0.0
  0
SOLID
  5
210
330
20C
100
AcDbEntity
  8
DIMENSION
100
AcDbTrace
 10
38.308432913
 20
33.4093060058
 30
0.0
 11
37.8917662464
 21
33.4734085699
 31
0.0
 12
37.8917662464
 22
33.3452034417
 32
0.0
 13
37.8917662464
 23
33.3452034417
 33
0.0
  0
LINE
  5
211
330
20C
100
AcDbEntity
  8
DIMENSION
100
AcDbLine
 10
23.1213469159
 20
33.40930596
 30
0.0
 11
22.9946108029
 21
33.40930596
 31
0.0
  0
LINE
  5
212
330
20C
100
AcDbEntity
  8
DIMENSION
100
AcDbLine
 10
22.9946108029
 20
33.40930596
 30
0.0
 11
22.9946108029
 21
32.7472689371
 31
0.0
  0
LINE
  5
213
330
20C
100
AcDbEntity
  8
DIMENSION
100
AcDbLine
 10
22.9946108029
 20
32.7472689371
 30
0.0
 11
23.1213469159
 21
32.7472689371
 31
0.0
  0
LINE
  5
214
330
20C
100
AcDbEntity
  8
DIMENSION
100
AcDbLine
 10
24.5063778575
 20
33.40930596
 30
0.0
 11
24.6331139706
 21
33.40930596
 31
0.0
  0
LINE
  5
215
330
20C
100
AcDbEntity
  8
DIMENSION
100
AcDbLine
 10
24.6331139706
 20
33.40930596
 30
0.0
 11
24.6331139706
 21
32.7472689371
 31
0.0
  0
LINE
  5
216
330
20C
100
AcDbEntity
  8
DIMENSION
100
AcDbLine
 10
24.6331139706
 20
32.7472689371
 30
0.0
 11
24.5063778575
 21
32.7472689371
 31
0.0
  0
LINE
  5
217
330
20C
100
AcDbEntity
  8
DIMENSION
100
AcDbLine
 10
9.07847957
 20
30.7767014994
 30
0.0
 11
9.07847957
 21
34.0343060058
 31
0.0
  0
LINE
  5
218
330
20C
100
AcDbEntity
  8
DIMENSION
100
AcDbLine
 10
38.308432913
 20
30.7767014994
 30
0.0
 11
38.308432913
 21
34.0343060058
 31
0.0
  0
LINE
  5
219
330
20C
100
AcDbEntity
  8
DIMENSION
100
AcDbLine
 10
9.07847957
 20
33.4093060058
 30
0.0
 11
22.4761696752
 21
33.4093060058
 31
0.0
  0
LINE
  5
21A
330
20C
100
AcDbEntity
  8
DIMENSION
100
AcDbLine
 10
38.308432913
 20
33.4093060058
 30
0.0
 11
25.1515550982
 21
33.4093060058
 31
0.0
  0
MTEXT
  5
21B
330
20C
100
AcDbEntity
  8
DIMENSION
100
AcDbMText
 10
22.8732759291
 20
34.0309082526
 30
0.0
 40
0.4166666667
 41
0.0
 71
     1
 72
     1
  1

  7
SLDTEXTSTYLE1
 73
     1
 44
1.0
  0
MTEXT
  5
21C
330
20C
100
AcDbEntity
  8
DIMENSION
100
AcDbMText
 10
22.967411715
 20
34.0309082526
 30
0.0
 40
0.4166666667
 41
0.0
 71
     1
 72
     1
  1
29.230
  7
SLDTEXTSTYLE1
 73
     1
 44
1.0
  0
MTEXT
  5
21D
330
20C
100
AcDbEntity
  8
DIMENSION
100
AcDbMText
 10
23.1213469159
 20
33.2843804724
 30
0.0
 40
0.4166666667
 41
0.0
 71
     1
 72
     1
  1
742.4
  7
SLDTEXTSTYLE1
 73
     1
 44
1.0
  0
MTEXT
  5
21E
330
20C
100
AcDbEntity
  8
DIMENSION
100
AcDbMText
 10
25.0723499919
 20
34.0309082526
 30
0.0
 40
0.4166666667
 41
0.0
 71
     1
 72
     1
  1

  7
SLDTEXTSTYLE1
 73
     1
 44
1.0
  0
ENDBLK
  5
20E
330
20C
100
AcDbEntity
  8
0
100
AcDbBlockEnd
  0
BLOCK
  5
221
330
220
100
AcDbEntity
  8
0
100
AcDbBlockBegin
  2
_D_3
 70
     0
 10
0.0
 20
0.0
 30
0.0
  3
_D_3
  1

  0
SOLID
  5
223
330
220
100
AcDbEntity
  8
DIMENSION
100
AcDbTrace
 10
9.2336272362
 20
26.7872441118
 30
0.0
 11
9.6502939029
 21
26.7231415477
 31
0.0
 12
9.6502939029
 22
26.8513466759
 32
0.0
 13
9.6502939029
 23
26.8513466759
 33
0.0
  0
SOLID
  5
224
330
220
100
AcDbEntity
  8
DIMENSION
100
AcDbTrace
 10
38.1532852468
 20
26.7872441118
 30
0.0
 11
37.7366185802
 21
26.8513466759
 31
0.0
 12
37.7366185802
 22
26.7231415477
 32
0.0
 13
37.7366185802
 23
26.7231415477
 33
0.0
  0
LINE
  5
225
330
220
100
AcDbEntity
  8
DIMENSION
100
AcDbLine
 10
20.2504969932
 20
26.787244066
 30
0.0
 11
20.1237608801
 21
26.787244066
 31
0.0
  0
LINE
  5
226
330
220
100
AcDbEntity
  8
DIMENSION
100
AcDbLine
 10
20.1237608801
 20
26.787244066
 30
0.0
 11
20.1237608801
 21
26.1252070431
 31
0.0
  0
LINE
  5
227
330
220
100
AcDbEntity
  8
DIMENSION
100
AcDbLine
 10
20.1237608801
 20
26.1252070431
 30
0.0
 11
20.2504969932
 21
26.1252070431
 31
0.0
  0
LINE
  5
228
330
220
100
AcDbEntity
  8
DIMENSION
100
AcDbLine
 10
21.6355279348
 20
26.787244066
 30
0.0
 11
21.7622640478
 21
26.787244066
 31
0.0
  0
LINE
  5
229
330
220
100
AcDbEntity
  8
DIMENSION
100
AcDbLine
 10
21.7622640478
 20
26.787244066
 30
0.0
 11
21.7622640478
 21
26.1252070431
 31
0.0
  0
LINE
  5
22A
330
220
100
AcDbEntity
  8
DIMENSION
100
AcDbLine
 10
21.7622640478
 20
26.1252070431
 30
0.0
 11
21.6355279348
 21
26.1252070431
 31
0.0
  0
LINE
  5
22B
330
220
100
AcDbEntity
  8
DIMENSION
100
AcDbLine
 10
9.2336272362
 20
26.7872441118
 30
0.0
 11
19.6053197525
 21
26.7872441118
 31
0.0
  0
LINE
  5
22C
330
220
100
AcDbEntity
  8
DIMENSION
100
AcDbLine
 10
38.1532852468
 20
26.7872441118
 30
0.0
 11
22.2807051755
 21
26.7872441118
 31
0.0
  0
MTEXT
  5
22D
330
220
100
AcDbEntity
  8
DIMENSION
100
AcDbMText
 10
20.0024260064
 20
27.4088463586
 30
0.0
 40
0.4166666667
 41
0.0
 71
     1
 72
     1
  1

  7
SLDTEXTSTYLE1
 73
     1
 44
1.0
  0
MTEXT
  5
22E
330
220
100
AcDbEntity
  8
DIMENSION
100
AcDbMText
 10
20.0965617923
 20
27.4088463586
 30
0.0
 40
0.4166666667
 41
0.0
 71
     1
 72
     1
  1
28.920
  7
SLDTEXTSTYLE1
 73
     1
 44
1.0
  0
MTEXT
  5
22F
330
220
100
AcDbEntity
  8
DIMENSION
100
AcDbMText
 10
20.2504969932
 20
26.6623185784
 30
0.0
 40
0.4166666667
 41
0.0
 71
     1
 72
     1
  1
734.6
  7
SLDTEXTSTYLE1
 73
     1
 44
1.0
  0
MTEXT
  5
230
330
220
100
AcDbEntity
  8
DIMENSION
100
AcDbMText
 10
22.2015000692
 20
27.4088463586
 30
0.0
 40
0.4166666667
 41
0.0
 71
     1
 72
     1
  1

  7
SLDTEXTSTYLE1
 73
     1
 44
1.0
  0
ENDBLK
  5
222
330
220
100
AcDbEntity
  8
0
100
AcDbBlockEnd
  0
BLOCK
  5
233
330
232
100
AcDbEntity
  8
0
100
AcDbBlockBegin
  2
_D_4
 70
     0
 10
0.0
 20
0.0
 30
0.0
  3
_D_4
  1

  0
SOLID
  5
235
330
232
100
AcDbEntity
  8
DIMENSION
100
AcDbTrace
 10
45.0013462989
 20
31.4408020688
 30
0.0
 11
44.9372437348
 21
31.0241354021
 31
0.0
 12
45.065448863
 22
31.0241354021
 32
0.0
 13
45.065448863
 23
31.0241354021
 33
0.0
  0
SOLID
  5
236
330
232
100
AcDbEntity
  8
DIMENSION
100
AcDbTrace
 10
45.0013462989
 20
13.2108487258
 30
0.0
 11
45.065448863
 21
13.6275153924
 31
0.0
 12
44.9372437348
 22
13.6275153924
 32
0.0
 13
44.9372437348
 23
13.6275153924
 33
0.0
  0
LINE
  5
237
330
232
100
AcDbEntity
  8
DIMENSION
100
AcDbLine
 10
44.5395406504
 20
22.2319810021
 30
0.0
 11
44.4128045373
 21
22.2319810021
 31
0.0
  0
LINE
  5
238
330
232
100
AcDbEntity
  8
DIMENSION
100
AcDbLine
 10
44.4128045373
 20
22.2319810021
 30
0.0
 11
44.4128045373
 21
21.5699439791
 31
0.0
  0
LINE
  5
239
330
232
100
AcDbEntity
  8
DIMENSION
100
AcDbLine
 10
44.4128045373
 20
21.5699439791
 30
0.0
 11
44.5395406504
 21
21.5699439791
 31
0.0
  0
LINE
  5
23A
330
232
100
AcDbEntity
  8
DIMENSION
100
AcDbLine
 10
45.4631517641
 20
22.2319810021
 30
0.0
 11
45.5898878771
 21
22.2319810021
 31
0.0
  0
LINE
  5
23B
330
232
100
AcDbEntity
  8
DIMENSION
100
AcDbLine
 10
45.5898878771
 20
22.2319810021
 30
0.0
 11
45.5898878771
 21
21.5699439791
 31
0.0
  0
LINE
  5
23C
330
232
100
AcDbEntity
  8
DIMENSION
100
AcDbLine
 10
45.5898878771
 20
21.5699439791
 30
0.0
 11
45.4631517641
 21
21.5699439791
 31
0.0
  0
LINE
  5
23D
330
232
100
AcDbEntity
  8
DIMENSION
100
AcDbLine
 10
37.6443323436
 20
31.4408020688
 30
0.0
 11
45.6263462989
 21
31.4408020688
 31
0.0
  0
LINE
  5
23E
330
232
100
AcDbEntity
  8
DIMENSION
100
AcDbLine
 10
37.6443323436
 20
13.2108487258
 30
0.0
 11
45.6263462989
 21
13.2108487258
 31
0.0
  0
LINE
  5
23F
330
232
100
AcDbEntity
  8
DIMENSION
100
AcDbLine
 10
45.0013462989
 20
31.4408020688
 30
0.0
 11
45.0013462989
 21
22.9785087823
 31
0.0
  0
LINE
  5
240
330
232
100
AcDbEntity
  8
DIMENSION
100
AcDbLine
 10
45.0013462989
 20
13.2108487258
 30
0.0
 11
45.0013462989
 21
21.4854533135
 31
0.0
  0
MTEXT
  5
241
330
232
100
AcDbEntity
  8
DIMENSION
100
AcDbMText
 10
44.1602967748
 20
22.8535832947
 30
0.0
 40
0.4166666667
 41
0.0
 71
     1
 72
     1
  1

  7
SLDTEXTSTYLE1
 73
     1
 44
1.0
  0
MTEXT
  5
242
330
232
100
AcDbEntity
  8
DIMENSION
100
AcDbMText
 10
44.1548955355
 20
22.8535832947
 30
0.0
 40
0.4166666667
 41
0.0
 71
     1
 72
     1
  1
18.230
  7
SLDTEXTSTYLE1
 73
     1
 44
1.0
  0
MTEXT
  5
243
330
232
100
AcDbEntity
  8
DIMENSION
100
AcDbMText
 10
44.5395406504
 20
22.1070555145
 30
0.0
 40
0.4166666667
 41
0.0
 71
     1
 72
     1
  1
463
  7
SLDTEXTSTYLE1
 73
     1
 44
1.0
  0
MTEXT
  5
244
330
232
100
AcDbEntity
  8
DIMENSION
100
AcDbMText
 10
46.1602969706
 20
22.8535832947
 30
0.0
 40
0.4166666667
 41
0.0
 71
     1
 72
     1
  1

  7
SLDTEXTSTYLE1
 73
     1
 44
1.0
  0
ENDBLK
  5
234
330
232
100
AcDbEntity
  8
0
100
AcDbBlockEnd
  0
BLOCK
  5
247
330
246
100
AcDbEntity
  8
0
100
AcDbBlockBegin
  2
_D_5
 70
     0
 10
0.0
 20
0.0
 30
0.0
  3
_D_5
  1

  0
SOLID
  5
249
330
246
100
AcDbEntity
  8
DIMENSION
100
AcDbTrace
 10
29.3898431572
 20
31.2856544026
 30
0.0
 11
29.3257405931
 21
30.8689877359
 31
0.0
 12
29.4539457213
 22
30.8689877359
 32
0.0
 13
29.4539457213
 23
30.8689877359
 33
0.0
  0
SOLID
  5
24A
330
246
100
AcDbEntity
  8
DIMENSION
100
AcDbTrace
 10
29.3898431572
 20
13.365996392
 30
0.0
 11
29.4539457213
 21
13.7826630586
 31
0.0
 12
29.3257405931
 22
13.7826630586
 32
0.0
 13
29.3257405931
 23
13.7826630586
 33
0.0
  0
LINE
  5
24B
330
246
100
AcDbEntity
  8
DIMENSION
100
AcDbLine
 10
28.6973276863
 20
21.5703077329
 30
0.0
 11
28.5705915733
 21
21.5703077329
 31
0.0
  0
LINE
  5
24C
330
246
100
AcDbEntity
  8
DIMENSION
100
AcDbLine
 10
28.5705915733
 20
21.5703077329
 30
0.0
 11
28.5705915733
 21
20.90827071
 31
0.0
  0
LINE
  5
24D
330
246
100
AcDbEntity
  8
DIMENSION
100
AcDbLine
 10
28.5705915733
 20
20.90827071
 30
0.0
 11
28.6973276863
 21
20.90827071
 31
0.0
  0
LINE
  5
24E
330
246
100
AcDbEntity
  8
DIMENSION
100
AcDbLine
 10
30.082358628
 20
21.5703077329
 30
0.0
 11
30.209094741
 21
21.5703077329
 31
0.0
  0
LINE
  5
24F
330
246
100
AcDbEntity
  8
DIMENSION
100
AcDbLine
 10
30.209094741
 20
21.5703077329
 30
0.0
 11
30.209094741
 21
20.90827071
 31
0.0
  0
LINE
  5
250
330
246
100
AcDbEntity
  8
DIMENSION
100
AcDbLine
 10
30.209094741
 20
20.90827071
 30
0.0
 11
30.082358628
 21
20.90827071
 31
0.0
  0
LINE
  5
251
330
246
100
AcDbEntity
  8
DIMENSION
100
AcDbLine
 10
29.3898431572
 20
31.2856544026
 30
0.0
 11
29.3898431572
 21
22.3168355131
 31
0.0
  0
LINE
  5
252
330
246
100
AcDbEntity
  8
DIMENSION
100
AcDbLine
 10
29.3898431572
 20
13.365996392
 30
0.0
 11
29.3898431572
 21
20.8237800444
 31
0.0
  0
MTEXT
  5
253
330
246
100
AcDbEntity
  8
DIMENSION
100
AcDbMText
 10
28.4492566996
 20
22.1919100255
 30
0.0
 40
0.4166666667
 41
0.0
 71
     1
 72
     1
  1

  7
SLDTEXTSTYLE1
 73
     1
 44
1.0
  0
MTEXT
  5
254
330
246
100
AcDbEntity
  8
DIMENSION
100
AcDbMText
 10
28.5433924854
 20
22.1919100255
 30
0.0
 40
0.4166666667
 41
0.0
 71
     1
 72
     1
  1
17.920
  7
SLDTEXTSTYLE1
 73
     1
 44
1.0
  0
MTEXT
  5
255
330
246
100
AcDbEntity
  8
DIMENSION
100
AcDbMText
 10
28.6973276863
 20
21.4453822453
 30
0.0
 40
0.4166666667
 41
0.0
 71
     1
 72
     1
  1
455.2
  7
SLDTEXTSTYLE1
 73
     1
 44
1.0
  0
MTEXT
  5
256
330
246
100
AcDbEntity
  8
DIMENSION
100
AcDbMText
 10
30.6483307624
 20
22.1919100255
 30
0.0
 40
0.4166666667
 41
0.0
 71
     1
 72
     1
  1

  7
SLDTEXTSTYLE1
 73
     1
 44
1.0
  0
ENDBLK
  5
248
330
246
100
AcDbEntity
  8
0
100
AcDbBlockEnd
  0
BLOCK
  5
25A
330
259
100
AcDbEntity
  8
0
100
AcDbBlockBegin
  2
_D_6
 70
     0
 10
0.0
 20
0.0
 30
0.0
  3
_D_6
  1

  0
SOLID
  5
25C
330
259
100
AcDbEntity
  8
DIMENSION
100
AcDbTrace
 10
33.585941879
 20
13.605496392
 30
0.0
 11
33.6500444431
 21
14.0221630586
 31
0.0
 12
33.5218393149
 22
14.0221630586
 32
0.0
 13
33.5218393149
 23
14.0221630586
 33
0.0
  0
SOLID
  5
25D
330
259
100
AcDbEntity
  8
DIMENSION
100
AcDbTrace
 10
33.585941879
 20
13.365996392
 30
0.0
 11
33.5218393149
 21
12.9493297253
 31
0.0
 12
33.6500444431
 22
12.9493297253
 32
0.0
 13
33.6500444431
 23
12.9493297253
 33
0.0
  0
LINE
  5
25E
330
259
100
AcDbEntity
  8
DIMENSION
100
AcDbLine
 10
35.6503316275
 20
8.6197930216
 30
0.0
 11
35.5235955145
 21
8.6197930216
 31
0.0
  0
LINE
  5
25F
330
259
100
AcDbEntity
  8
DIMENSION
100
AcDbLine
 10
35.5235955145
 20
8.6197930216
 30
0.0
 11
35.5235955145
 21
7.9577559987
 31
0.0
  0
LINE
  5
260
330
259
100
AcDbEntity
  8
DIMENSION
100
AcDbLine
 10
35.5235955145
 20
7.9577559987
 30
0.0
 11
35.6503316275
 21
7.9577559987
 31
0.0
  0
LINE
  5
261
330
259
100
AcDbEntity
  8
DIMENSION
100
AcDbLine
 10
36.4196217656
 20
8.6197930216
 30
0.0
 11
36.5463578786
 21
8.6197930216
 31
0.0
  0
LINE
  5
262
330
259
100
AcDbEntity
  8
DIMENSION
100
AcDbLine
 10
36.5463578786
 20
8.6197930216
 30
0.0
 11
36.5463578786
 21
7.9577559987
 31
0.0
  0
LINE
  5
263
330
259
100
AcDbEntity
  8
DIMENSION
100
AcDbLine
 10
36.5463578786
 20
7.9577559987
 30
0.0
 11
36.4196217656
 21
7.9577559987
 31
0.0
  0
LINE
  5
264
330
259
100
AcDbEntity
  8
DIMENSION
100
AcDbLine
 10
31.6372062415
 20
13.605496392
 30
0.0
 11
34.210941879
 21
13.605496392
 31
0.0
  0
LINE
  5
265
330
259
100
AcDbEntity
  8
DIMENSION
100
AcDbLine
 10
32.3565728604
 20
13.365996392
 30
0.0
 11
34.210941879
 21
13.365996392
 31
0.0
  0
LINE
  5
266
330
259
100
AcDbEntity
  8
DIMENSION
100
AcDbLine
 10
34.835941879
 20
8.6197930675
 30
0.0
 11
33.585941879
 21
8.6197930675
 31
0.0
  0
LINE
  5
267
330
259
100
AcDbEntity
  8
DIMENSION
100
AcDbLine
 10
33.585941879
 20
8.6197930675
 30
0.0
 11
33.585941879
 21
13.365996392
 31
0.0
  0
LINE
  5
268
330
259
100
AcDbEntity
  8
DIMENSION
100
AcDbLine
 10
33.585941879
 20
13.605496392
 30
0.0
 11
33.585941879
 21
14.4067784433
 31
0.0
  0
MTEXT
  5
269
330
259
100
AcDbEntity
  8
DIMENSION
100
AcDbMText
 10
35.4022606407
 20
9.2413953142
 30
0.0
 40
0.4166666667
 41
0.0
 71
     1
 72
     1
  1

  7
SLDTEXTSTYLE1
 73
     1
 44
1.0
  0
MTEXT
  5
26A
330
259
100
AcDbEntity
  8
DIMENSION
100
AcDbMText
 10
35.4963964266
 20
9.2413953142
 30
0.0
 40
0.4166666667
 41
0.0
 71
     1
 72
     1
  1
.240
  7
SLDTEXTSTYLE1
 73
     1
 44
1.0
  0
MTEXT
  5
26B
330
259
100
AcDbEntity
  8
DIMENSION
100
AcDbMText
 10
35.6503316275
 20
8.494867534
 30
0.0
 40
0.4166666667
 41
0.0
 71
     1
 72
     1
  1
6.1
  7
SLDTEXTSTYLE1
 73
     1
 44
1.0
  0
MTEXT
  5
26C
330
259
100
AcDbEntity
  8
DIMENSION
100
AcDbMText
 10
36.9855940833
 20
9.2413953142
 30
0.0
 40
0.4166666667
 41
0.0
 71
     1
 72
     1
  1

  7
SLDTEXTSTYLE1
 73
     1
 44
1.0
  0
ENDBLK
  5
25B
330
259
100
AcDbEntity
  8
0
100
AcDbBlockEnd
  0
BLOCK
  5
26F
330
26E
100
AcDbEntity
  8
0
100
AcDbBlockBegin
  2
_D_7
 70
     0
 10
0.0
 20
0.0
 30
0.0
  3
_D_7
  1

  0
SOLID
  5
271
330
26E
100
AcDbEntity
  8
DIMENSION
100
AcDbTrace
 10
38.068932913
 20
15.5043728034
 30
0.0
 11
37.6522662464
 21
15.5684753675
 31
0.0
 12
37.6522662464
 22
15.4402702393
 32
0.0
 13
37.6522662464
 23
15.4402702393
 33
0.0
  0
SOLID
  5
272
330
26E
100
AcDbEntity
  8
DIMENSION
100
AcDbTrace
 10
38.308432913
 20
15.5043728034
 30
0.0
 11
38.7250995797
 21
15.4402702393
 31
0.0
 12
38.7250995797
 22
15.5684753675
 32
0.0
 13
38.7250995797
 23
15.5684753675
 33
0.0
  0
LINE
  5
273
330
26E
100
AcDbEntity
  8
DIMENSION
100
AcDbLine
 10
41.0733940515
 20
15.5043727576
 30
0.0
 11
40.9466579385
 21
15.5043727576
 31
0.0
  0
LINE
  5
274
330
26E
100
AcDbEntity
  8
DIMENSION
100
AcDbLine
 10
40.9466579385
 20
15.5043727576
 30
0.0
 11
40.9466579385
 21
14.8423357346
 31
0.0
  0
LINE
  5
275
330
26E
100
AcDbEntity
  8
DIMENSION
100
AcDbLine
 10
40.9466579385
 20
14.8423357346
 30
0.0
 11
41.0733940515
 21
14.8423357346
 31
0.0
  0
LINE
  5
276
330
26E
100
AcDbEntity
  8
DIMENSION
100
AcDbLine
 10
41.8426841896
 20
15.5043727576
 30
0.0
 11
41.9694203027
 21
15.5043727576
 31
0.0
  0
LINE
  5
277
330
26E
100
AcDbEntity
  8
DIMENSION
100
AcDbLine
 10
41.9694203027
 20
15.5043727576
 30
0.0
 11
41.9694203027
 21
14.8423357346
 31
0.0
  0
LINE
  5
278
330
26E
100
AcDbEntity
  8
DIMENSION
100
AcDbLine
 10
41.9694203027
 20
14.8423357346
 30
0.0
 11
41.8426841896
 21
14.8423357346
 31
0.0
  0
LINE
  5
279
330
26E
100
AcDbEntity
  8
DIMENSION
100
AcDbLine
 10
38.068932913
 20
15.2695753973
 30
0.0
 11
38.068932913
 21
16.1293728034
 31
0.0
  0
LINE
  5
27A
330
26E
100
AcDbEntity
  8
DIMENSION
100
AcDbLine
 10
38.068932913
 20
15.5043728034
 30
0.0
 11
37.2676508618
 21
15.5043728034
 31
0.0
  0
LINE
  5
27B
330
26E
100
AcDbEntity
  8
DIMENSION
100
AcDbLine
 10
38.308432913
 20
15.5043728034
 30
0.0
 11
40.4282168109
 21
15.5043728034
 31
0.0
  0
MTEXT
  5
27C
330
26E
100
AcDbEntity
  8
DIMENSION
100
AcDbMText
 10
40.8253230648
 20
16.1259750502
 30
0.0
 40
0.4166666667
 41
0.0
 71
     1
 72
     1
  1

  7
SLDTEXTSTYLE1
 73
     1
 44
1.0
  0
MTEXT
  5
27D
330
26E
100
AcDbEntity
  8
DIMENSION
100
AcDbMText
 10
40.9194588506
 20
16.1259750502
 30
0.0
 40
0.4166666667
 41
0.0
 71
     1
 72
     1
  1
.240
  7
SLDTEXTSTYLE1
 73
     1
 44
1.0
  0
MTEXT
  5
27E
330
26E
100
AcDbEntity
  8
DIMENSION
100
AcDbMText
 10
41.0733940515
 20
15.3794472699
 30
0.0
 40
0.4166666667
 41
0.0
 71
     1
 72
     1
  1
6.1
  7
SLDTEXTSTYLE1
 73
     1
 44
1.0
  0
MTEXT
  5
27F
330
26E
100
AcDbEntity
  8
DIMENSION
100
AcDbMText
 10
42.4086565073
 20
16.1259750502
 30
0.0
 40
0.4166666667
 41
0.0
 71
     1
 72
     1
  1

  7
SLDTEXTSTYLE1
 73
     1
 44
1.0
  0
ENDBLK
  5
270
330
26E
100
AcDbEntity
  8
0
100
AcDbBlockEnd
  0
BLOCK
  5
282
330
281
100
AcDbEntity
  8
0
100
AcDbBlockBegin
  2
_D_8
 70
     0
 10
0.0
 20
0.0
 30
0.0
  3
_D_8
  1

  0
SOLID
  5
284
330
281
100
AcDbEntity
  8
DIMENSION
100
AcDbTrace
 10
37.9137852468
 20
18.1385068673
 30
0.0
 11
37.4971185802
 21
18.2026094314
 31
0.0
 12
37.4971185802
 22
18.0744043032
 32
0.0
 13
37.4971185802
 23
18.0744043032
 33
0.0
  0
SOLID
  5
285
330
281
100
AcDbEntity
  8
DIMENSION
100
AcDbTrace
 10
38.1532852468
 20
18.1385068673
 30
0.0
 11
38.5699519135
 21
18.0744043032
 31
0.0
 12
38.5699519135
 22
18.2026094314
 32
0.0
 13
38.5699519135
 23
18.2026094314
 33
0.0
  0
LINE
  5
286
330
281
100
AcDbEntity
  8
DIMENSION
100
AcDbLine
 10
38.9063917074
 20
18.1385068215
 30
0.0
 11
38.7796555943
 21
18.1385068215
 31
0.0
  0
LINE
  5
287
330
281
100
AcDbEntity
  8
DIMENSION
100
AcDbLine
 10
38.7796555943
 20
18.1385068215
 30
0.0
 11
38.7796555943
 21
17.4764697985
 31
0.0
  0
LINE
  5
288
330
281
100
AcDbEntity
  8
DIMENSION
100
AcDbLine
 10
38.7796555943
 20
17.4764697985
 30
0.0
 11
38.9063917074
 21
17.4764697985
 31
0.0
  0
LINE
  5
289
330
281
100
AcDbEntity
  8
DIMENSION
100
AcDbLine
 10
39.6756818454
 20
18.1385068215
 30
0.0
 11
39.8024179585
 21
18.1385068215
 31
0.0
  0
LINE
  5
28A
330
281
100
AcDbEntity
  8
DIMENSION
100
AcDbLine
 10
39.8024179585
 20
18.1385068215
 30
0.0
 11
39.8024179585
 21
17.4764697985
 31
0.0
  0
LINE
  5
28B
330
281
100
AcDbEntity
  8
DIMENSION
100
AcDbLine
 10
39.8024179585
 20
17.4764697985
 30
0.0
 11
39.6756818454
 21
17.4764697985
 31
0.0
  0
LINE
  5
28C
330
281
100
AcDbEntity
  8
DIMENSION
100
AcDbLine
 10
37.9137852468
 20
19.1320753973
 30
0.0
 11
37.9137852468
 21
17.5135068673
 31
0.0
  0
LINE
  5
28D
330
281
100
AcDbEntity
  8
DIMENSION
100
AcDbLine
 10
37.9137852468
 20
18.1385068673
 30
0.0
 11
37.1125031956
 21
18.1385068673
 31
0.0
  0
LINE
  5
28E
330
281
100
AcDbEntity
  8
DIMENSION
100
AcDbLine
 10
38.1532852468
 20
18.1385068673
 30
0.0
 11
38.2612144667
 21
18.1385068673
 31
0.0
  0
MTEXT
  5
28F
330
281
100
AcDbEntity
  8
DIMENSION
100
AcDbMText
 10
38.6583207206
 20
18.7601091141
 30
0.0
 40
0.4166666667
 41
0.0
 71
     1
 72
     1
  1

  7
SLDTEXTSTYLE1
 73
     1
 44
1.0
  0
MTEXT
  5
290
330
281
100
AcDbEntity
  8
DIMENSION
100
AcDbMText
 10
38.7524565065
 20
18.7601091141
 30
0.0
 40
0.4166666667
 41
0.0
 71
     1
 72
     1
  1
.240
  7
SLDTEXTSTYLE1
 73
     1
 44
1.0
  0
MTEXT
  5
291
330
281
100
AcDbEntity
  8
DIMENSION
100
AcDbMText
 10
38.9063917074
 20
18.0135813338
 30
0.0
 40
0.4166666667
 41
0.0
 71
     1
 72
     1
  1
6.1
  7
SLDTEXTSTYLE1
 73
     1
 44
1.0
  0
MTEXT
  5
292
330
281
100
AcDbEntity
  8
DIMENSION
100
AcDbMText
 10
40.2416541631
 20
18.7601091141
 30
0.0
 40
0.4166666667
 41
0.0
 71
     1
 72
     1
  1

  7
SLDTEXTSTYLE1
 73
     1
 44
1.0
  0
ENDBLK
  5
283
330
281
100
AcDbEntity
  8
0
100
AcDbBlockEnd
  0
BLOCK
  5
296
330
295
100
AcDbEntity
  8
0
100
AcDbBlockBegin
  2
_D_9
 70
     0
 10
0.0
 20
0.0
 30
0.0
  3
_D_9
  1

  0
SOLID
  5
298
330
295
100
AcDbEntity
  8
DIMENSION
100
AcDbTrace
 10
26.1403312415
 20
13.5243065104
 30
0.0
 11
26.2931501259
 21
13.1314113101
 31
0.0
 12
26.4041790238
 22
13.1955138742
 32
0.0
 13
26.4041790238
 23
13.1955138742
 33
0.0
  0
LINE
  5
299
330
295
100
AcDbEntity
  8
DIMENSION
100
AcDbLine
 10
30.7000006807
 20
8.6563290068
 30
0.0
 11
30.5732645677
 21
8.6563290068
 31
0.0
  0
LINE
  5
29A
330
295
100
AcDbEntity
  8
DIMENSION
100
AcDbLine
 10
30.5732645677
 20
8.6563290068
 30
0.0
 11
30.5732645677
 21
7.9942919839
 31
0.0
  0
LINE
  5
29B
330
295
100
AcDbEntity
  8
DIMENSION
100
AcDbLine
 10
30.5732645677
 20
7.9942919839
 30
0.0
 11
30.7000006807
 21
7.9942919839
 31
0.0
  0
LINE
  5
29C
330
295
100
AcDbEntity
  8
DIMENSION
100
AcDbLine
 10
31.4692908188
 20
8.6563290068
 30
0.0
 11
31.5960269318
 21
8.6563290068
 31
0.0
  0
LINE
  5
29D
330
295
100
AcDbEntity
  8
DIMENSION
100
AcDbLine
 10
31.5960269318
 20
8.6563290068
 30
0.0
 11
31.5960269318
 21
7.9942919839
 31
0.0
  0
LINE
  5
29E
330
295
100
AcDbEntity
  8
DIMENSION
100
AcDbLine
 10
31.5960269318
 20
7.9942919839
 30
0.0
 11
31.4692908188
 21
7.9942919839
 31
0.0
  0
LINE
  5
29F
330
295
100
AcDbEntity
  8
DIMENSION
100
AcDbLine
 10
26.1403312415
 20
13.5243065104
 30
0.0
 11
28.9815979042
 21
8.6030882927
 31
0.0
  0
LINE
  5
2A0
330
295
100
AcDbEntity
  8
DIMENSION
100
AcDbLine
 10
28.9815979042
 20
8.6030882927
 30
0.0
 11
30.2315979042
 21
8.6030882927
 31
0.0
  0
MTEXT
  5
2A1
330
295
100
AcDbEntity
  8
DIMENSION
100
AcDbMText
 10
30.2315979042
 20
9.2779312994
 30
0.0
 40
0.4166666667
 41
0.0
 71
     1
 72
     1
  1
%%c
  7
SLDTEXTSTYLE1
 73
     1
 44
1.0
  0
MTEXT
  5
2A2
330
295
100
AcDbEntity
  8
DIMENSION
100
AcDbMText
 10
30.8605331012
 20
9.2779312994
 30
0.0
 40
0.4166666667
 41
0.0
 71
     1
 72
     1
  1
.188
  7
SLDTEXTSTYLE1
 73
     1
 44
1.0
  0
MTEXT
  5
2A3
330
295
100
AcDbEntity
  8
DIMENSION
100
AcDbMText
 10
30.7000006807
 20
8.5314035192
 30
0.0
 40
0.4166666667
 41
0.0
 71
     1
 72
     1
  1
4.8
  7
SLDTEXTSTYLE1
 73
     1
 44
1.0
  0
ENDBLK
  5
297
330
295
100
AcDbEntity
  8
0
100
AcDbBlockEnd
  0
BLOCK
  5
2A7
330
2A6
100
AcDbEntity
  8
0
100
AcDbBlockBegin
  2
_D_10
 70
     0
 10
0.0
 20
0.0
 30
0.0
  3
_D_10
  1

  0
SOLID
  5
2A9
330
2A6
100
AcDbEntity
  8
DIMENSION
100
AcDbTrace
 10
9.07847957
 20
11.2423447888
 30
0.0
 11
8.6618129033
 21
11.3064473529
 31
0.0
 12
8.6618129033
 22
11.1782422247
 32
0.0
 13
8.6618129033
 23
11.1782422247
 33
0.0
  0
SOLID
  5
2AA
330
2A6
100
AcDbEntity
  8
DIMENSION
100
AcDbTrace
 10
11.1934562415
 20
11.2423447888
 30
0.0
 11
11.6101229082
 21
11.1782422247
 31
0.0
 12
11.6101229082
 22
11.3064473529
 32
0.0
 13
11.6101229082
 23
11.3064473529
 33
0.0
  0
LINE
  5
2AB
330
2A6
100
AcDbEntity
  8
DIMENSION
100
AcDbLine
 10
9.632594581
 20
11.2423447429
 30
0.0
 11
9.505858468
 21
11.2423447429
 31
0.0
  0
LINE
  5
2AC
330
2A6
100
AcDbEntity
  8
DIMENSION
100
AcDbLine
 10
9.505858468
 20
11.2423447429
 30
0.0
 11
9.505858468
 21
10.58030772
 31
0.0
  0
LINE
  5
2AD
330
2A6
100
AcDbEntity
  8
DIMENSION
100
AcDbLine
 10
9.505858468
 20
10.58030772
 30
0.0
 11
9.632594581
 21
10.58030772
 31
0.0
  0
LINE
  5
2AE
330
2A6
100
AcDbEntity
  8
DIMENSION
100
AcDbLine
 10
10.7097551209
 20
11.2423447429
 30
0.0
 11
10.8364912339
 21
11.2423447429
 31
0.0
  0
LINE
  5
2AF
330
2A6
100
AcDbEntity
  8
DIMENSION
100
AcDbLine
 10
10.8364912339
 20
11.2423447429
 30
0.0
 11
10.8364912339
 21
10.58030772
 31
0.0
  0
LINE
  5
2B0
330
2A6
100
AcDbEntity
  8
DIMENSION
100
AcDbLine
 10
10.8364912339
 20
10.58030772
 30
0.0
 11
10.7097551209
 21
10.58030772
 31
0.0
  0
LINE
  5
2B1
330
2A6
100
AcDbEntity
  8
DIMENSION
100
AcDbLine
 10
9.07847957
 20
13.8749492952
 30
0.0
 11
9.07847957
 21
10.6173447888
 31
0.0
  0
LINE
  5
2B2
330
2A6
100
AcDbEntity
  8
DIMENSION
100
AcDbLine
 10
11.1934562415
 20
13.0065987258
 30
0.0
 11
11.1934562415
 21
10.6173447888
 31
0.0
  0
LINE
  5
2B3
330
2A6
100
AcDbEntity
  8
DIMENSION
100
AcDbLine
 10
9.07847957
 20
11.2423447888
 30
0.0
 11
8.2771975187
 21
11.2423447888
 31
0.0
  0
LINE
  5
2B4
330
2A6
100
AcDbEntity
  8
DIMENSION
100
AcDbLine
 10
11.1934562415
 20
11.2423447888
 30
0.0
 11
11.9947382928
 21
11.2423447888
 31
0.0
  0
MTEXT
  5
2B5
330
2A6
100
AcDbEntity
  8
DIMENSION
100
AcDbMText
 10
9.3845235943
 20
11.8639470355
 30
0.0
 40
0.4166666667
 41
0.0
 71
     1
 72
     1
  1

  7
SLDTEXTSTYLE1
 73
     1
 44
1.0
  0
MTEXT
  5
2B6
330
2A6
100
AcDbEntity
  8
DIMENSION
100
AcDbMText
 10
9.4786593343
 20
11.8639470355
 30
0.0
 40
0.4166666667
 41
0.0
 71
     1
 72
     1
  1
2.115
  7
SLDTEXTSTYLE1
 73
     1
 44
1.0
  0
MTEXT
  5
2B7
330
2A6
100
AcDbEntity
  8
DIMENSION
100
AcDbMText
 10
9.632594581
 20
11.1174192553
 30
0.0
 40
0.4166666667
 41
0.0
 71
     1
 72
     1
  1
53.7
  7
SLDTEXTSTYLE1
 73
     1
 44
1.0
  0
MTEXT
  5
2B8
330
2A6
100
AcDbEntity
  8
DIMENSION
100
AcDbMText
 10
11.275727347
 20
11.8639470355
 30
0.0
 40
0.4166666667
 41
0.0
 71
     1
 72
     1
  1

  7
SLDTEXTSTYLE1
 73
     1
 44
1.0
  0
ENDBLK
  5
2A8
330
2A6
100
AcDbEntity
  8
0
100
AcDbBlockEnd
  0
BLOCK
  5
2BB
330
2BA
100
AcDbEntity
  8
0
100
AcDbBlockBegin
  2
_D_11
 70
     0
 10
0.0
 20
0.0
 30
0.0
  3
_D_11
  1

  0
SOLID
  5
2BD
330
2BA
100
AcDbEntity
  8
DIMENSION
100
AcDbTrace
 10
16.1934562415
 20
9.7014071468
 30
0.0
 11
15.7767895749
 21
9.7655097109
 31
0.0
 12
15.7767895749
 22
9.6373045827
 32
0.0
 13
15.7767895749
 23
9.6373045827
 33
0.0
  0
SOLID
  5
2BE
330
2BA
100
AcDbEntity
  8
DIMENSION
100
AcDbTrace
 10
9.07847957
 20
9.7014071468
 30
0.0
 11
9.4951462367
 21
9.6373045827
 31
0.0
 12
9.4951462367
 22
9.7655097109
 32
0.0
 13
9.4951462367
 23
9.7655097109
 33
0.0
  0
LINE
  5
2BF
330
2BA
100
AcDbEntity
  8
DIMENSION
100
AcDbLine
 10
12.3120875762
 20
9.701407101
 30
0.0
 11
12.1853514632
 21
9.701407101
 31
0.0
  0
LINE
  5
2C0
330
2BA
100
AcDbEntity
  8
DIMENSION
100
AcDbLine
 10
12.1853514632
 20
9.701407101
 30
0.0
 11
12.1853514632
 21
9.039370078
 31
0.0
  0
LINE
  5
2C1
330
2BA
100
AcDbEntity
  8
DIMENSION
100
AcDbLine
 10
12.1853514632
 20
9.039370078
 30
0.0
 11
12.3120875762
 21
9.039370078
 31
0.0
  0
LINE
  5
2C2
330
2BA
100
AcDbEntity
  8
DIMENSION
100
AcDbLine
 10
13.6971185179
 20
9.701407101
 30
0.0
 11
13.8238546309
 21
9.701407101
 31
0.0
  0
LINE
  5
2C3
330
2BA
100
AcDbEntity
  8
DIMENSION
100
AcDbLine
 10
13.8238546309
 20
9.701407101
 30
0.0
 11
13.8238546309
 21
9.039370078
 31
0.0
  0
LINE
  5
2C4
330
2BA
100
AcDbEntity
  8
DIMENSION
100
AcDbLine
 10
13.8238546309
 20
9.039370078
 30
0.0
 11
13.6971185179
 21
9.039370078
 31
0.0
  0
LINE
  5
2C5
330
2BA
100
AcDbEntity
  8
DIMENSION
100
AcDbLine
 10
16.1934562415
 20
13.161746392
 30
0.0
 11
16.1934562415
 21
9.0764071468
 31
0.0
  0
LINE
  5
2C6
330
2BA
100
AcDbEntity
  8
DIMENSION
100
AcDbLine
 10
9.07847957
 20
13.8749492952
 30
0.0
 11
9.07847957
 21
9.0764071468
 31
0.0
  0
LINE
  5
2C7
330
2BA
100
AcDbEntity
  8
DIMENSION
100
AcDbLine
 10
16.1934562415
 20
9.7014071468
 30
0.0
 11
14.3422957585
 21
9.7014071468
 31
0.0
  0
LINE
  5
2C8
330
2BA
100
AcDbEntity
  8
DIMENSION
100
AcDbLine
 10
9.07847957
 20
9.7014071468
 30
0.0
 11
11.6669103355
 21
9.7014071468
 31
0.0
  0
MTEXT
  5
2C9
330
2BA
100
AcDbEntity
  8
DIMENSION
100
AcDbMText
 10
12.0640165895
 20
10.3230093936
 30
0.0
 40
0.4166666667
 41
0.0
 71
     1
 72
     1
  1

  7
SLDTEXTSTYLE1
 73
     1
 44
1.0
  0
MTEXT
  5
2CA
330
2BA
100
AcDbEntity
  8
DIMENSION
100
AcDbMText
 10
12.3120875762
 20
10.3230093936
 30
0.0
 40
0.4166666667
 41
0.0
 71
     1
 72
     1
  1
7.115
  7
SLDTEXTSTYLE1
 73
     1
 44
1.0
  0
MTEXT
  5
2CB
330
2BA
100
AcDbEntity
  8
DIMENSION
100
AcDbMText
 10
12.3120875762
 20
9.5764816134
 30
0.0
 40
0.4166666667
 41
0.0
 71
     1
 72
     1
  1
180.7
  7
SLDTEXTSTYLE1
 73
     1
 44
1.0
  0
MTEXT
  5
2CC
330
2BA
100
AcDbEntity
  8
DIMENSION
100
AcDbMText
 10
14.2630906522
 20
10.3230093936
 30
0.0
 40
0.4166666667
 41
0.0
 71
     1
 72
     1
  1

  7
SLDTEXTSTYLE1
 73
     1
 44
1.0
  0
ENDBLK
  5
2BC
330
2BA
100
AcDbEntity
  8
0
100
AcDbBlockEnd
  0
BLOCK
  5
2CF
330
2CE
100
AcDbEntity
  8
0
100
AcDbBlockBegin
  2
_D_12
 70
     0
 10
0.0
 20
0.0
 30
0.0
  3
_D_12
  1

  0
SOLID
  5
2D1
330
2CE
100
AcDbEntity
  8
DIMENSION
100
AcDbTrace
 10
9.07847957
 20
7.6990377022
 30
0.0
 11
9.4951462367
 21
7.6349351381
 31
0.0
 12
9.4951462367
 22
7.7631402663
 32
0.0
 13
9.4951462367
 23
7.7631402663
 33
0.0
  0
SOLID
  5
2D2
330
2CE
100
AcDbEntity
  8
DIMENSION
100
AcDbTrace
 10
21.2934562415
 20
7.6990377022
 30
0.0
 11
20.8767895749
 21
7.7631402663
 31
0.0
 12
20.8767895749
 22
7.6349351381
 32
0.0
 13
20.8767895749
 23
7.6349351381
 33
0.0
  0
LINE
  5
2D3
330
2CE
100
AcDbEntity
  8
DIMENSION
100
AcDbLine
 10
17.0657483038
 20
7.6990376563
 30
0.0
 11
16.9390121908
 21
7.6990376563
 31
0.0
  0
LINE
  5
2D4
330
2CE
100
AcDbEntity
  8
DIMENSION
100
AcDbLine
 10
16.9390121908
 20
7.6990376563
 30
0.0
 11
16.9390121908
 21
7.0370006334
 31
0.0
  0
LINE
  5
2D5
330
2CE
100
AcDbEntity
  8
DIMENSION
100
AcDbLine
 10
16.9390121908
 20
7.0370006334
 30
0.0
 11
17.0657483038
 21
7.0370006334
 31
0.0
  0
LINE
  5
2D6
330
2CE
100
AcDbEntity
  8
DIMENSION
100
AcDbLine
 10
18.4507792455
 20
7.6990376563
 30
0.0
 11
18.5775153585
 21
7.6990376563
 31
0.0
  0
LINE
  5
2D7
330
2CE
100
AcDbEntity
  8
DIMENSION
100
AcDbLine
 10
18.5775153585
 20
7.6990376563
 30
0.0
 11
18.5775153585
 21
7.0370006334
 31
0.0
  0
LINE
  5
2D8
330
2CE
100
AcDbEntity
  8
DIMENSION
100
AcDbLine
 10
18.5775153585
 20
7.0370006334
 30
0.0
 11
18.4507792455
 21
7.0370006334
 31
0.0
  0
LINE
  5
2D9
330
2CE
100
AcDbEntity
  8
DIMENSION
100
AcDbLine
 10
9.07847957
 20
13.8749492952
 30
0.0
 11
9.07847957
 21
7.0740377022
 31
0.0
  0
LINE
  5
2DA
330
2CE
100
AcDbEntity
  8
DIMENSION
100
AcDbLine
 10
21.2934562415
 20
13.161746392
 30
0.0
 11
21.2934562415
 21
7.0740377022
 31
0.0
  0
LINE
  5
2DB
330
2CE
100
AcDbEntity
  8
DIMENSION
100
AcDbLine
 10
9.07847957
 20
7.6990377022
 30
0.0
 11
16.4205710631
 21
7.6990377022
 31
0.0
  0
LINE
  5
2DC
330
2CE
100
AcDbEntity
  8
DIMENSION
100
AcDbLine
 10
21.2934562415
 20
7.6990377022
 30
0.0
 11
19.0959564861
 21
7.6990377022
 31
0.0
  0
MTEXT
  5
2DD
330
2CE
100
AcDbEntity
  8
DIMENSION
100
AcDbMText
 10
16.8176773171
 20
8.3206399489
 30
0.0
 40
0.4166666667
 41
0.0
 71
     1
 72
     1
  1

  7
SLDTEXTSTYLE1
 73
     1
 44
1.0
  0
MTEXT
  5
2DE
330
2CE
100
AcDbEntity
  8
DIMENSION
100
AcDbMText
 10
16.9118131029
 20
8.3206399489
 30
0.0
 40
0.4166666667
 41
0.0
 71
     1
 72
     1
  1
12.215
  7
SLDTEXTSTYLE1
 73
     1
 44
1.0
  0
MTEXT
  5
2DF
330
2CE
100
AcDbEntity
  8
DIMENSION
100
AcDbMText
 10
17.0657483038
 20
7.5741121687
 30
0.0
 40
0.4166666667
 41
0.0
 71
     1
 72
     1
  1
310.3
  7
SLDTEXTSTYLE1
 73
     1
 44
1.0
  0
MTEXT
  5
2E0
330
2CE
100
AcDbEntity
  8
DIMENSION
100
AcDbMText
 10
19.0167513798
 20
8.3206399489
 30
0.0
 40
0.4166666667
 41
0.0
 71
     1
 72
     1
  1

  7
SLDTEXTSTYLE1
 73
     1
 44
1.0
  0
ENDBLK
  5
2D0
330
2CE
100
AcDbEntity
  8
0
100
AcDbBlockEnd
  0
BLOCK
  5
2E3
330
2E2
100
AcDbEntity
  8
0
100
AcDbBlockBegin
  2
_D_13
 70
     0
 10
0.0
 20
0.0
 30
0.0
  3
_D_13
  1

  0
SOLID
  5
2E5
330
2E2
100
AcDbEntity
  8
DIMENSION
100
AcDbTrace
 10
8.0788652926
 20
14.8258253973
 30
0.0
 11
8.1429678567
 21
15.242492064
 31
0.0
 12
8.0147627285
 22
15.242492064
 32
0.0
 13
8.0147627285
 23
15.242492064
 33
0.0
  0
SOLID
  5
2E6
330
2E2
100
AcDbEntity
  8
DIMENSION
100
AcDbTrace
 10
8.0788652926
 20
13.2108487258
 30
0.0
 11
8.0147627285
 21
12.7941820591
 31
0.0
 12
8.1429678567
 22
12.7941820591
 32
0.0
 13
8.1429678567
 23
12.7941820591
 33
0.0
  0
LINE
  5
2E7
330
2E2
100
AcDbEntity
  8
DIMENSION
100
AcDbLine
 10
7.7709948909
 20
14.1982197977
 30
0.0
 11
7.6442587778
 21
14.1982197977
 31
0.0
  0
LINE
  5
2E8
330
2E2
100
AcDbEntity
  8
DIMENSION
100
AcDbLine
 10
7.6442587778
 20
14.1982197977
 30
0.0
 11
7.6442587778
 21
13.5361827747
 31
0.0
  0
LINE
  5
2E9
330
2E2
100
AcDbEntity
  8
DIMENSION
100
AcDbLine
 10
7.6442587778
 20
13.5361827747
 30
0.0
 11
7.7709948909
 21
13.5361827747
 31
0.0
  0
LINE
  5
2EA
330
2E2
100
AcDbEntity
  8
DIMENSION
100
AcDbLine
 10
8.3867356486
 20
14.1982197977
 30
0.0
 11
8.5134717616
 21
14.1982197977
 31
0.0
  0
LINE
  5
2EB
330
2E2
100
AcDbEntity
  8
DIMENSION
100
AcDbLine
 10
8.5134717616
 20
14.1982197977
 30
0.0
 11
8.5134717616
 21
13.5361827747
 31
0.0
  0
LINE
  5
2EC
330
2E2
100
AcDbEntity
  8
DIMENSION
100
AcDbLine
 10
8.5134717616
 20
13.5361827747
 30
0.0
 11
8.3867356486
 21
13.5361827747
 31
0.0
  0
LINE
  5
2ED
330
2E2
100
AcDbEntity
  8
DIMENSION
100
AcDbLine
 10
8.87422957
 20
14.8258253973
 30
0.0
 11
7.4538652926
 21
14.8258253973
 31
0.0
  0
LINE
  5
2EE
330
2E2
100
AcDbEntity
  8
DIMENSION
100
AcDbLine
 10
9.7425801394
 20
13.2108487258
 30
0.0
 11
7.4538652926
 21
13.2108487258
 31
0.0
  0
LINE
  5
2EF
330
2E2
100
AcDbEntity
  8
DIMENSION
100
AcDbLine
 10
8.0788652926
 20
14.8258253973
 30
0.0
 11
8.0788652926
 21
15.6271074486
 31
0.0
  0
LINE
  5
2F0
330
2E2
100
AcDbEntity
  8
DIMENSION
100
AcDbLine
 10
8.0788652926
 20
13.2108487258
 30
0.0
 11
8.0788652926
 21
12.4095666745
 31
0.0
  0
MTEXT
  5
2F1
330
2E2
100
AcDbEntity
  8
DIMENSION
100
AcDbMText
 10
7.3917510153
 20
14.8198220903
 30
0.0
 40
0.4166666667
 41
0.0
 71
     1
 72
     1
  1

  7
SLDTEXTSTYLE1
 73
     1
 44
1.0
  0
MTEXT
  5
2F2
330
2E2
100
AcDbEntity
  8
DIMENSION
100
AcDbMText
 10
7.386349776
 20
14.8198220903
 30
0.0
 40
0.4166666667
 41
0.0
 71
     1
 72
     1
  1
1.615
  7
SLDTEXTSTYLE1
 73
     1
 44
1.0
  0
MTEXT
  5
2F3
330
2E2
100
AcDbEntity
  8
DIMENSION
100
AcDbMText
 10
7.7709948909
 20
14.0732943101
 30
0.0
 40
0.4166666667
 41
0.0
 71
     1
 72
     1
  1
41
  7
SLDTEXTSTYLE1
 73
     1
 44
1.0
  0
MTEXT
  5
2F4
330
2E2
100
AcDbEntity
  8
DIMENSION
100
AcDbMText
 10
9.0838807176
 20
14.8198220903
 30
0.0
 40
0.4166666667
 41
0.0
 71
     1
 72
     1
  1

  7
SLDTEXTSTYLE1
 73
     1
 44
1.0
  0
ENDBLK
  5
2E4
330
2E2
100
AcDbEntity
  8
0
100
AcDbBlockEnd
  0
BLOCK
  5
2F7
330
2F6
100
AcDbEntity
  8
0
100
AcDbBlockBegin
  2
_D_14
 70
     0
 10
0.0
 20
0.0
 30
0.0
  3
_D_14
  1

  0
SOLID
  5
2F9
330
2F6
100
AcDbEntity
  8
DIMENSION
100
AcDbTrace
 10
6.632794259
 20
19.5758253973
 30
0.0
 11
6.5686916948
 21
19.1591587306
 31
0.0
 12
6.6968968231
 22
19.1591587306
 32
0.0
 13
6.6968968231
 23
19.1591587306
 33
0.0
  0
SOLID
  5
2FA
330
2F6
100
AcDbEntity
  8
DIMENSION
100
AcDbTrace
 10
6.632794259
 20
13.2108487258
 30
0.0
 11
6.6968968231
 21
13.6275153924
 31
0.0
 12
6.5686916948
 22
13.6275153924
 32
0.0
 13
6.5686916948
 23
13.6275153924
 33
0.0
  0
LINE
  5
2FB
330
2F6
100
AcDbEntity
  8
DIMENSION
100
AcDbLine
 10
5.9402787881
 20
16.8890861659
 30
0.0
 11
5.8135426751
 21
16.8890861659
 31
0.0
  0
LINE
  5
2FC
330
2F6
100
AcDbEntity
  8
DIMENSION
100
AcDbLine
 10
5.8135426751
 20
16.8890861659
 30
0.0
 11
5.8135426751
 21
16.227049143
 31
0.0
  0
LINE
  5
2FD
330
2F6
100
AcDbEntity
  8
DIMENSION
100
AcDbLine
 10
5.8135426751
 20
16.227049143
 30
0.0
 11
5.9402787881
 21
16.227049143
 31
0.0
  0
LINE
  5
2FE
330
2F6
100
AcDbEntity
  8
DIMENSION
100
AcDbLine
 10
7.3253097298
 20
16.8890861659
 30
0.0
 11
7.4520458428
 21
16.8890861659
 31
0.0
  0
LINE
  5
2FF
330
2F6
100
AcDbEntity
  8
DIMENSION
100
AcDbLine
 10
7.4520458428
 20
16.8890861659
 30
0.0
 11
7.4520458428
 21
16.227049143
 31
0.0
  0
LINE
  5
300
330
2F6
100
AcDbEntity
  8
DIMENSION
100
AcDbLine
 10
7.4520458428
 20
16.227049143
 30
0.0
 11
7.3253097298
 21
16.227049143
 31
0.0
  0
LINE
  5
301
330
2F6
100
AcDbEntity
  8
DIMENSION
100
AcDbLine
 10
9.0293772362
 20
19.5758253973
 30
0.0
 11
6.007794259
 21
19.5758253973
 31
0.0
  0
LINE
  5
302
330
2F6
100
AcDbEntity
  8
DIMENSION
100
AcDbLine
 10
9.7425801394
 20
13.2108487258
 30
0.0
 11
6.007794259
 21
13.2108487258
 31
0.0
  0
LINE
  5
303
330
2F6
100
AcDbEntity
  8
DIMENSION
100
AcDbLine
 10
6.632794259
 20
19.5758253973
 30
0.0
 11
6.632794259
 21
17.6356139461
 31
0.0
  0
LINE
  5
304
330
2F6
100
AcDbEntity
  8
DIMENSION
100
AcDbLine
 10
6.632794259
 20
13.2108487258
 30
0.0
 11
6.632794259
 21
16.1425584773
 31
0.0
  0
MTEXT
  5
305
330
2F6
100
AcDbEntity
  8
DIMENSION
100
AcDbMText
 10
5.6922078014
 20
17.5106884585
 30
0.0
 40
0.4166666667
 41
0.0
 71
     1
 72
     1
  1

  7
SLDTEXTSTYLE1
 73
     1
 44
1.0
  0
MTEXT
  5
306
330
2F6
100
AcDbEntity
  8
DIMENSION
100
AcDbMText
 10
5.9402787881
 20
17.5106884585
 30
0.0
 40
0.4166666667
 41
0.0
 71
     1
 72
     1
  1
6.365
  7
SLDTEXTSTYLE1
 73
     1
 44
1.0
  0
MTEXT
  5
307
330
2F6
100
AcDbEntity
  8
DIMENSION
100
AcDbMText
 10
5.9402787881
 20
16.7641606783
 30
0.0
 40
0.4166666667
 41
0.0
 71
     1
 72
     1
  1
161.7
  7
SLDTEXTSTYLE1
 73
     1
 44
1.0
  0
MTEXT
  5
308
330
2F6
100
AcDbEntity
  8
DIMENSION
100
AcDbMText
 10
7.8912818642
 20
17.5106884585
 30
0.0
 40
0.4166666667
 41
0.0
 71
     1
 72
     1
  1

  7
SLDTEXTSTYLE1
 73
     1
 44
1.0
  0
ENDBLK
  5
2F8
330
2F6
100
AcDbEntity
  8
0
100
AcDbBlockEnd
  0
BLOCK
  5
30B
330
30A
100
AcDbEntity
  8
0
100
AcDbBlockBegin
  2
_D_15
 70
     0
 10
0.0
 20
0.0
 30
0.0
  3
_D_15
  1

  0
SOLID
  5
30D
330
30A
100
AcDbEntity
  8
DIMENSION
100
AcDbTrace
 10
40.27693685
 20
13.2108487258
 30
0.0
 11
40.2128342859
 21
12.7941820591
 31
0.0
 12
40.3410394142
 22
12.7941820591
 32
0.0
 13
40.3410394142
 23
12.7941820591
 33
0.0
  0
SOLID
  5
30E
330
30A
100
AcDbEntity
  8
DIMENSION
100
AcDbTrace
 10
40.27693685
 20
13.4503487258
 30
0.0
 11
40.3410394142
 21
13.8670153924
 31
0.0
 12
40.2128342859
 22
13.8670153924
 32
0.0
 13
40.2128342859
 23
13.8670153924
 33
0.0
  0
LINE
  5
30F
330
30A
100
AcDbEntity
  8
DIMENSION
100
AcDbLine
 10
42.3413265986
 20
10.6449908474
 30
0.0
 11
42.2145904855
 21
10.6449908474
 31
0.0
  0
LINE
  5
310
330
30A
100
AcDbEntity
  8
DIMENSION
100
AcDbLine
 10
42.2145904855
 20
10.6449908474
 30
0.0
 11
42.2145904855
 21
9.9829538245
 31
0.0
  0
LINE
  5
311
330
30A
100
AcDbEntity
  8
DIMENSION
100
AcDbLine
 10
42.2145904855
 20
9.9829538245
 30
0.0
 11
42.3413265986
 21
9.9829538245
 31
0.0
  0
LINE
  5
312
330
30A
100
AcDbEntity
  8
DIMENSION
100
AcDbLine
 10
43.1106167366
 20
10.6449908474
 30
0.0
 11
43.2373528497
 21
10.6449908474
 31
0.0
  0
LINE
  5
313
330
30A
100
AcDbEntity
  8
DIMENSION
100
AcDbLine
 10
43.2373528497
 20
10.6449908474
 30
0.0
 11
43.2373528497
 21
9.9829538245
 31
0.0
  0
LINE
  5
314
330
30A
100
AcDbEntity
  8
DIMENSION
100
AcDbLine
 10
43.2373528497
 20
9.9829538245
 30
0.0
 11
43.1106167366
 21
9.9829538245
 31
0.0
  0
LINE
  5
315
330
30A
100
AcDbEntity
  8
DIMENSION
100
AcDbLine
 10
37.6443323436
 20
13.2108487258
 30
0.0
 11
40.90193685
 21
13.2108487258
 31
0.0
  0
LINE
  5
316
330
30A
100
AcDbEntity
  8
DIMENSION
100
AcDbLine
 10
36.6372062415
 20
13.4503487258
 30
0.0
 11
40.90193685
 21
13.4503487258
 31
0.0
  0
LINE
  5
317
330
30A
100
AcDbEntity
  8
DIMENSION
100
AcDbLine
 10
41.52693685
 20
10.6449908932
 30
0.0
 11
40.27693685
 21
10.6449908932
 31
0.0
  0
LINE
  5
318
330
30A
100
AcDbEntity
  8
DIMENSION
100
AcDbLine
 10
40.27693685
 20
10.6449908932
 30
0.0
 11
40.27693685
 21
13.2108487258
 31
0.0
  0
LINE
  5
319
330
30A
100
AcDbEntity
  8
DIMENSION
100
AcDbLine
 10
40.27693685
 20
13.4503487258
 30
0.0
 11
40.27693685
 21
14.2516307771
 31
0.0
  0
MTEXT
  5
31A
330
30A
100
AcDbEntity
  8
DIMENSION
100
AcDbMText
 10
42.0932556118
 20
11.26659314
 30
0.0
 40
0.4166666667
 41
0.0
 71
     1
 72
     1
  1

  7
SLDTEXTSTYLE1
 73
     1
 44
1.0
  0
MTEXT
  5
31B
330
30A
100
AcDbEntity
  8
DIMENSION
100
AcDbMText
 10
42.1873913977
 20
11.26659314
 30
0.0
 40
0.4166666667
 41
0.0
 71
     1
 72
     1
  1
.240
  7
SLDTEXTSTYLE1
 73
     1
 44
1.0
  0
MTEXT
  5
31C
330
30A
100
AcDbEntity
  8
DIMENSION
100
AcDbMText
 10
42.3413265986
 20
10.5200653598
 30
0.0
 40
0.4166666667
 41
0.0
 71
     1
 72
     1
  1
6.1
  7
SLDTEXTSTYLE1
 73
     1
 44
1.0
  0
MTEXT
  5
31D
330
30A
100
AcDbEntity
  8
DIMENSION
100
AcDbMText
 10
43.6765890543
 20
11.26659314
 30
0.0
 40
0.4166666667
 41
0.0
 71
     1
 72
     1
  1

  7
SLDTEXTSTYLE1
 73
     1
 44
1.0
  0
ENDBLK
  5
30C
330
30A
100
AcDbEntity
  8
0
100
AcDbBlockEnd
  0
BLOCK
  5
31F
330
31E
100
AcDbEntity
  8
0
100
AcDbBlockBegin
  2
SW_CENTERMARKSYMBOL_0
 70
     0
 10
0.0
 20
0.0
 30
0.0
  3
SW_CENTERMARKSYMBOL_0
  1

  0
LINE
  5
321
330
31E
100
AcDbEntity
  8
DIMENSION
 62
     0
100
AcDbLine
 10
0.0
 20
0.0
 30
0.0
 11
0.0
 21
0.1
 31
0.0
  0
LINE
  5
322
330
31E
100
AcDbEntity
  8
DIMENSION
 62
     0
100
AcDbLine
 10
0.0
 20
0.0
 30
0.0
 11
-0.1
 21
0.0
 31
0.0
  0
LINE
  5
323
330
31E
100
AcDbEntity
  8
DIMENSION
 62
     0
100
AcDbLine
 10
0.0
 20
0.0
 30
0.0
 11
0.0
 21
-0.1
 31
0.0
  0
LINE
  5
324
330
31E
100
AcDbEntity
  8
DIMENSION
 62
     0
100
AcDbLine
 10
0.0
 20
0.0
 30
0.0
 11
0.1
 21
0.0
 31
0.0
  0
LINE
  5
325
330
31E
100
AcDbEntity
  8
DIMENSION
 62
     0
100
AcDbLine
 10
0.0
 20
0.1
 30
0.0
 11
0.0
 21
0.19375
 31
0.0
  0
LINE
  5
326
330
31E
100
AcDbEntity
  8
DIMENSION
 62
     0
100
AcDbLine
 10
-0.1
 20
0.0
 30
0.0
 11
-0.19375
 21
0.0
 31
0.0
  0
LINE
  5
327
330
31E
100
AcDbEntity
  8
DIMENSION
 62
     0
100
AcDbLine
 10
0.0
 20
-0.1
 30
0.0
 11
0.0
 21
-0.19375
 31
0.0
  0
LINE
  5
328
330
31E
100
AcDbEntity
  8
DIMENSION
 62
     0
100
AcDbLine
 10
0.1
 20
0.0
 30
0.0
 11
0.19375
 21
0.0
 31
0.0
  0
ENDBLK
  5
320
330
31E
100
AcDbEntity
  8
0
100
AcDbBlockEnd
  0
BLOCK
  5
32B
330
32A
100
AcDbEntity
  8
0
100
AcDbBlockBegin
  2
SW_CENTERMARKSYMBOL_1
 70
     0
 10
0.0
 20
0.0
 30
0.0
  3
SW_CENTERMARKSYMBOL_1
  1

  0
LINE
  5
32D
330
32A
100
AcDbEntity
  8
DIMENSION
 62
     0
100
AcDbLine
 10
0.0
 20
0.0
 30
0.0
 11
0.0
 21
0.1
 31
0.0
  0
LINE
  5
32E
330
32A
100
AcDbEntity
  8
DIMENSION
 62
     0
100
AcDbLine
 10
0.0
 20
0.0
 30
0.0
 11
-0.1
 21
0.0
 31
0.0
  0
LINE
  5
32F
330
32A
100
AcDbEntity
  8
DIMENSION
 62
     0
100
AcDbLine
 10
0.0
 20
0.0
 30
0.0
 11
0.0
 21
-0.1
 31
0.0
  0
LINE
  5
330
330
32A
100
AcDbEntity
  8
DIMENSION
 62
     0
100
AcDbLine
 10
0.0
 20
0.0
 30
0.0
 11
0.1
 21
0.0
 31
0.0
  0
LINE
  5
331
330
32A
100
AcDbEntity
  8
DIMENSION
 62
     0
100
AcDbLine
 10
0.0
 20
0.1
 30
0.0
 11
0.0
 21
0.19375
 31
0.0
  0
LINE
  5
332
330
32A
100
AcDbEntity
  8
DIMENSION
 62
     0
100
AcDbLine
 10
-0.1
 20
0.0
 30
0.0
 11
-0.19375
 21
0.0
 31
0.0
  0
LINE
  5
333
330
32A
100
AcDbEntity
  8
DIMENSION
 62
     0
100
AcDbLine
 10
0.0
 20
-0.1
 30
0.0
 11
0.0
 21
-0.19375
 31
0.0
  0
LINE
  5
334
330
32A
100
AcDbEntity
  8
DIMENSION
 62
     0
100
AcDbLine
 10
0.1
 20
0.0
 30
0.0
 11
0.19375
 21
0.0
 31
0.0
  0
ENDBLK
  5
32C
330
32A
100
AcDbEntity
  8
0
100
AcDbBlockEnd
  0
BLOCK
  5
337
330
336
100
AcDbEntity
  8
0
100
AcDbBlockBegin
  2
SW_CENTERMARKSYMBOL_2
 70
     0
 10
0.0
 20
0.0
 30
0.0
  3
SW_CENTERMARKSYMBOL_2
  1

  0
LINE
  5
339
330
336
100
AcDbEntity
  8
DIMENSION
 62
     0
100
AcDbLine
 10
0.0
 20
0.0
 30
0.0
 11
0.0
 21
0.1
 31
0.0
  0
LINE
  5
33A
330
336
100
AcDbEntity
  8
DIMENSION
 62
     0
100
AcDbLine
 10
0.0
 20
0.0
 30
0.0
 11
-0.1
 21
0.0
 31
0.0
  0
LINE
  5
33B
330
336
100
AcDbEntity
  8
DIMENSION
 62
     0
100
AcDbLine
 10
0.0
 20
0.0
 30
0.0
 11
0.0
 21
-0.1
 31
0.0
  0
LINE
  5
33C
330
336
100
AcDbEntity
  8
DIMENSION
 62
     0
100
AcDbLine
 10
0.0
 20
0.0
 30
0.0
 11
0.1
 21
0.0
 31
0.0
  0
LINE
  5
33D
330
336
100
AcDbEntity
  8
DIMENSION
 62
     0
100
AcDbLine
 10
0.0
 20
0.1
 30
0.0
 11
0.0
 21
0.19375
 31
0.0
  0
LINE
  5
33E
330
336
100
AcDbEntity
  8
DIMENSION
 62
     0
100
AcDbLine
 10
-0.1
 20
0.0
 30
0.0
 11
-0.19375
 21
0.0
 31
0.0
  0
LINE
  5
33F
330
336
100
AcDbEntity
  8
DIMENSION
 62
     0
100
AcDbLine
 10
0.0
 20
-0.1
 30
0.0
 11
0.0
 21
-0.19375
 31
0.0
  0
LINE
  5
340
330
336
100
AcDbEntity
  8
DIMENSION
 62
     0
100
AcDbLine
 10
0.1
 20
0.0
 30
0.0
 11
0.19375
 21
0.0
 31
0.0
  0
ENDBLK
  5
338
330
336
100
AcDbEntity
  8
0
100
AcDbBlockEnd
  0
BLOCK
  5
343
330
342
100
AcDbEntity
  8
0
100
AcDbBlockBegin
  2
SW_CENTERMARKSYMBOL_3
 70
     0
 10
0.0
 20
0.0
 30
0.0
  3
SW_CENTERMARKSYMBOL_3
  1

  0
LINE
  5
345
330
342
100
AcDbEntity
  8
DIMENSION
 62
     0
100
AcDbLine
 10
0.0
 20
0.0
 30
0.0
 11
0.0
 21
0.1
 31
0.0
  0
LINE
  5
346
330
342
100
AcDbEntity
  8
DIMENSION
 62
     0
100
AcDbLine
 10
0.0
 20
0.0
 30
0.0
 11
-0.1
 21
0.0
 31
0.0
  0
LINE
  5
347
330
342
100
AcDbEntity
  8
DIMENSION
 62
     0
100
AcDbLine
 10
0.0
 20
0.0
 30
0.0
 11
0.0
 21
-0.1
 31
0.0
  0
LINE
  5
348
330
342
100
AcDbEntity
  8
DIMENSION
 62
     0
100
AcDbLine
 10
0.0
 20
0.0
 30
0.0
 11
0.1
 21
0.0
 31
0.0
  0
LINE
  5
349
330
342
100
AcDbEntity
  8
DIMENSION
 62
     0
100
AcDbLine
 10
0.0
 20
0.1
 30
0.0
 11
0.0
 21
0.19375
 31
0.0
  0
LINE
  5
34A
330
342
100
AcDbEntity
  8
DIMENSION
 62
     0
100
AcDbLine
 10
-0.1
 20
0.0
 30
0.0
 11
-0.19375
 21
0.0
 31
0.0
  0
LINE
  5
34B
330
342
100
AcDbEntity
  8
DIMENSION
 62
     0
100
AcDbLine
 10
0.0
 20
-0.1
 30
0.0
 11
0.0
 21
-0.19375
 31
0.0
  0
LINE
  5
34C
330
342
100
AcDbEntity
  8
DIMENSION
 62
     0
100
AcDbLine
 10
0.1
 20
0.0
 30
0.0
 11
0.19375
 21
0.0
 31
0.0
  0
ENDBLK
  5
344
330
342
100
AcDbEntity
  8
0
100
AcDbBlockEnd
  0
BLOCK
  5
34F
330
34E
100
AcDbEntity
  8
0
100
AcDbBlockBegin
  2
SW_CENTERMARKSYMBOL_4
 70
     0
 10
0.0
 20
0.0
 30
0.0
  3
SW_CENTERMARKSYMBOL_4
  1

  0
LINE
  5
351
330
34E
100
AcDbEntity
  8
DIMENSION
 62
     0
100
AcDbLine
 10
0.0
 20
0.0
 30
0.0
 11
0.0
 21
0.1
 31
0.0
  0
LINE
  5
352
330
34E
100
AcDbEntity
  8
DIMENSION
 62
     0
100
AcDbLine
 10
0.0
 20
0.0
 30
0.0
 11
-0.1
 21
0.0
 31
0.0
  0
LINE
  5
353
330
34E
100
AcDbEntity
  8
DIMENSION
 62
     0
100
AcDbLine
 10
0.0
 20
0.0
 30
0.0
 11
0.0
 21
-0.1
 31
0.0
  0
LINE
  5
354
330
34E
100
AcDbEntity
  8
DIMENSION
 62
     0
100
AcDbLine
 10
0.0
 20
0.0
 30
0.0
 11
0.1
 21
0.0
 31
0.0
  0
LINE
  5
355
330
34E
100
AcDbEntity
  8
DIMENSION
 62
     0
100
AcDbLine
 10
0.0
 20
0.1
 30
0.0
 11
0.0
 21
0.19375
 31
0.0
  0
LINE
  5
356
330
34E
100
AcDbEntity
  8
DIMENSION
 62
     0
100
AcDbLine
 10
-0.1
 20
0.0
 30
0.0
 11
-0.19375
 21
0.0
 31
0.0
  0
LINE
  5
357
330
34E
100
AcDbEntity
  8
DIMENSION
 62
     0
100
AcDbLine
 10
0.0
 20
-0.1
 30
0.0
 11
0.0
 21
-0.19375
 31
0.0
  0
LINE
  5
358
330
34E
100
AcDbEntity
  8
DIMENSION
 62
     0
100
AcDbLine
 10
0.1
 20
0.0
 30
0.0
 11
0.19375
 21
0.0
 31
0.0
  0
ENDBLK
  5
350
330
34E
100
AcDbEntity
  8
0
100
AcDbBlockEnd
  0
BLOCK
  5
35B
330
35A
100
AcDbEntity
  8
0
100
AcDbBlockBegin
  2
SW_CENTERMARKSYMBOL_5
 70
     0
 10
0.0
 20
0.0
 30
0.0
  3
SW_CENTERMARKSYMBOL_5
  1

  0
LINE
  5
35D
330
35A
100
AcDbEntity
  8
DIMENSION
 62
     0
100
AcDbLine
 10
0.0
 20
0.0
 30
0.0
 11
0.0
 21
0.1
 31
0.0
  0
LINE
  5
35E
330
35A
100
AcDbEntity
  8
DIMENSION
 62
     0
100
AcDbLine
 10
0.0
 20
0.0
 30
0.0
 11
-0.1
 21
0.0
 31
0.0
  0
LINE
  5
35F
330
35A
100
AcDbEntity
  8
DIMENSION
 62
     0
100
AcDbLine
 10
0.0
 20
0.0
 30
0.0
 11
0.0
 21
-0.1
 31
0.0
  0
LINE
  5
360
330
35A
100
AcDbEntity
  8
DIMENSION
 62
     0
100
AcDbLine
 10
0.0
 20
0.0
 30
0.0
 11
0.1
 21
0.0
 31
0.0
  0
LINE
  5
361
330
35A
100
AcDbEntity
  8
DIMENSION
 62
     0
100
AcDbLine
 10
0.0
 20
0.1
 30
0.0
 11
0.0
 21
0.19375
 31
0.0
  0
LINE
  5
362
330
35A
100
AcDbEntity
  8
DIMENSION
 62
     0
100
AcDbLine
 10
-0.1
 20
0.0
 30
0.0
 11
-0.19375
 21
0.0
 31
0.0
  0
LINE
  5
363
330
35A
100
AcDbEntity
  8
DIMENSION
 62
     0
100
AcDbLine
 10
0.0
 20
-0.1
 30
0.0
 11
0.0
 21
-0.19375
 31
0.0
  0
LINE
  5
364
330
35A
100
AcDbEntity
  8
DIMENSION
 62
     0
100
AcDbLine
 10
0.1
 20
0.0
 30
0.0
 11
0.19375
 21
0.0
 31
0.0
  0
ENDBLK
  5
35C
330
35A
100
AcDbEntity
  8
0
100
AcDbBlockEnd
  0
BLOCK
  5
367
330
366
100
AcDbEntity
  8
0
100
AcDbBlockBegin
  2
SW_CENTERMARKSYMBOL_6
 70
     0
 10
0.0
 20
0.0
 30
0.0
  3
SW_CENTERMARKSYMBOL_6
  1

  0
LINE
  5
369
330
366
100
AcDbEntity
  8
DIMENSION
 62
     0
100
AcDbLine
 10
0.0
 20
0.0
 30
0.0
 11
0.0
 21
0.1
 31
0.0
  0
LINE
  5
36A
330
366
100
AcDbEntity
  8
DIMENSION
 62
     0
100
AcDbLine
 10
0.0
 20
0.0
 30
0.0
 11
-0.1
 21
0.0
 31
0.0
  0
LINE
  5
36B
330
366
100
AcDbEntity
  8
DIMENSION
 62
     0
100
AcDbLine
 10
0.0
 20
0.0
 30
0.0
 11
0.0
 21
-0.1
 31
0.0
  0
LINE
  5
36C
330
366
100
AcDbEntity
  8
DIMENSION
 62
     0
100
AcDbLine
 10
0.0
 20
0.0
 30
0.0
 11
0.1
 21
0.0
 31
0.0
  0
LINE
  5
36D
330
366
100
AcDbEntity
  8
DIMENSION
 62
     0
100
AcDbLine
 10
0.0
 20
0.1
 30
0.0
 11
0.0
 21
0.19375
 31
0.0
  0
LINE
  5
36E
330
366
100
AcDbEntity
  8
DIMENSION
 62
     0
100
AcDbLine
 10
-0.1
 20
0.0
 30
0.0
 11
-0.19375
 21
0.0
 31
0.0
  0
LINE
  5
36F
330
366
100
AcDbEntity
  8
DIMENSION
 62
     0
100
AcDbLine
 10
0.0
 20
-0.1
 30
0.0
 11
0.0
 21
-0.19375
 31
0.0
  0
LINE
  5
370
330
366
100
AcDbEntity
  8
DIMENSION
 62
     0
100
AcDbLine
 10
0.1
 20
0.0
 30
0.0
 11
0.19375
 21
0.0
 31
0.0
  0
ENDBLK
  5
368
330
366
100
AcDbEntity
  8
0
100
AcDbBlockEnd
  0
BLOCK
  5
373
330
372
100
AcDbEntity
  8
0
100
AcDbBlockBegin
  2
SW_CENTERMARKSYMBOL_7
 70
     0
 10
0.0
 20
0.0
 30
0.0
  3
SW_CENTERMARKSYMBOL_7
  1

  0
LINE
  5
375
330
372
100
AcDbEntity
  8
DIMENSION
 62
     0
100
AcDbLine
 10
0.0
 20
0.0
 30
0.0
 11
0.0
 21
0.1
 31
0.0
  0
LINE
  5
376
330
372
100
AcDbEntity
  8
DIMENSION
 62
     0
100
AcDbLine
 10
0.0
 20
0.0
 30
0.0
 11
-0.1
 21
0.0
 31
0.0
  0
LINE
  5
377
330
372
100
AcDbEntity
  8
DIMENSION
 62
     0
100
AcDbLine
 10
0.0
 20
0.0
 30
0.0
 11
0.0
 21
-0.1
 31
0.0
  0
LINE
  5
378
330
372
100
AcDbEntity
  8
DIMENSION
 62
     0
100
AcDbLine
 10
0.0
 20
0.0
 30
0.0
 11
0.1
 21
0.0
 31
0.0
  0
LINE
  5
379
330
372
100
AcDbEntity
  8
DIMENSION
 62
     0
100
AcDbLine
 10
0.0
 20
0.1
 30
0.0
 11
0.0
 21
0.19375
 31
0.0
  0
LINE
  5
37A
330
372
100
AcDbEntity
  8
DIMENSION
 62
     0
100
AcDbLine
 10
-0.1
 20
0.0
 30
0.0
 11
-0.19375
 21
0.0
 31
0.0
  0
LINE
  5
37B
330
372
100
AcDbEntity
  8
DIMENSION
 62
     0
100
AcDbLine
 10
0.0
 20
-0.1
 30
0.0
 11
0.0
 21
-0.19375
 31
0.0
  0
LINE
  5
37C
330
372
100
AcDbEntity
  8
DIMENSION
 62
     0
100
AcDbLine
 10
0.1
 20
0.0
 30
0.0
 11
0.19375
 21
0.0
 31
0.0
  0
ENDBLK
  5
374
330
372
100
AcDbEntity
  8
0
100
AcDbBlockEnd
  0
BLOCK
  5
37F
330
37E
100
AcDbEntity
  8
0
100
AcDbBlockBegin
  2
SW_CENTERMARKSYMBOL_8
 70
     0
 10
0.0
 20
0.0
 30
0.0
  3
SW_CENTERMARKSYMBOL_8
  1

  0
LINE
  5
381
330
37E
100
AcDbEntity
  8
DIMENSION
 62
     0
100
AcDbLine
 10
0.0
 20
0.0
 30
0.0
 11
0.0
 21
0.1
 31
0.0
  0
LINE
  5
382
330
37E
100
AcDbEntity
  8
DIMENSION
 62
     0
100
AcDbLine
 10
0.0
 20
0.0
 30
0.0
 11
-0.1
 21
0.0
 31
0.0
  0
LINE
  5
383
330
37E
100
AcDbEntity
  8
DIMENSION
 62
     0
100
AcDbLine
 10
0.0
 20
0.0
 30
0.0
 11
0.0
 21
-0.1
 31
0.0
  0
LINE
  5
384
330
37E
100
AcDbEntity
  8
DIMENSION
 62
     0
100
AcDbLine
 10
0.0
 20
0.0
 30
0.0
 11
0.1
 21
0.0
 31
0.0
  0
LINE
  5
385
330
37E
100
AcDbEntity
  8
DIMENSION
 62
     0
100
AcDbLine
 10
0.0
 20
0.1
 30
0.0
 11
0.0
 21
0.19375
 31
0.0
  0
LINE
  5
386
330
37E
100
AcDbEntity
  8
DIMENSION
 62
     0
100
AcDbLine
 10
-0.1
 20
0.0
 30
0.0
 11
-0.19375
 21
0.0
 31
0.0
  0
LINE
  5
387
330
37E
100
AcDbEntity
  8
DIMENSION
 62
     0
100
AcDbLine
 10
0.0
 20
-0.1
 30
0.0
 11
0.0
 21
-0.19375
 31
0.0
  0
LINE
  5
388
330
37E
100
AcDbEntity
  8
DIMENSION
 62
     0
100
AcDbLine
 10
0.1
 20
0.0
 30
0.0
 11
0.19375
 21
0.0
 31
0.0
  0
ENDBLK
  5
380
330
37E
100
AcDbEntity
  8
0
100
AcDbBlockEnd
  0
BLOCK
  5
38B
330
38A
100
AcDbEntity
  8
0
100
AcDbBlockBegin
  2
SW_CENTERMARKSYMBOL_9
 70
     0
 10
0.0
 20
0.0
 30
0.0
  3
SW_CENTERMARKSYMBOL_9
  1

  0
LINE
  5
38D
330
38A
100
AcDbEntity
  8
DIMENSION
 62
     0
100
AcDbLine
 10
0.0
 20
0.0
 30
0.0
 11
0.0
 21
0.1
 31
0.0
  0
LINE
  5
38E
330
38A
100
AcDbEntity
  8
DIMENSION
 62
     0
100
AcDbLine
 10
0.0
 20
0.0
 30
0.0
 11
-0.1
 21
0.0
 31
0.0
  0
LINE
  5
38F
330
38A
100
AcDbEntity
  8
DIMENSION
 62
     0
100
AcDbLine
 10
0.0
 20
0.0
 30
0.0
 11
0.0
 21
-0.1
 31
0.0
  0
LINE
  5
390
330
38A
100
AcDbEntity
  8
DIMENSION
 62
     0
100
AcDbLine
 10
0.0
 20
0.0
 30
0.0
 11
0.1
 21
0.0
 31
0.0
  0
LINE
  5
391
330
38A
100
AcDbEntity
  8
DIMENSION
 62
     0
100
AcDbLine
 10
0.0
 20
0.1
 30
0.0
 11
0.0
 21
0.19375
 31
0.0
  0
LINE
  5
392
330
38A
100
AcDbEntity
  8
DIMENSION
 62
     0
100
AcDbLine
 10
-0.1
 20
0.0
 30
0.0
 11
-0.19375
 21
0.0
 31
0.0
  0
LINE
  5
393
330
38A
100
AcDbEntity
  8
DIMENSION
 62
     0
100
AcDbLine
 10
0.0
 20
-0.1
 30
0.0
 11
0.0
 21
-0.19375
 31
0.0
  0
LINE
  5
394
330
38A
100
AcDbEntity
  8
DIMENSION
 62
     0
100
AcDbLine
 10
0.1
 20
0.0
 30
0.0
 11
0.19375
 21
0.0
 31
0.0
  0
ENDBLK
  5
38C
330
38A
100
AcDbEntity
  8
0
100
AcDbBlockEnd
  0
BLOCK
  5
397
330
396
100
AcDbEntity
  8
0
100
AcDbBlockBegin
  2
SW_CENTERMARKSYMBOL_10
 70
     0
 10
0.0
 20
0.0
 30
0.0
  3
SW_CENTERMARKSYMBOL_10
  1

  0
LINE
  5
399
330
396
100
AcDbEntity
  8
DIMENSION
 62
     0
100
AcDbLine
 10
0.0
 20
0.0
 30
0.0
 11
0.0
 21
0.1
 31
0.0
  0
LINE
  5
39A
330
396
100
AcDbEntity
  8
DIMENSION
 62
     0
100
AcDbLine
 10
0.0
 20
0.0
 30
0.0
 11
-0.1
 21
0.0
 31
0.0
  0
LINE
  5
39B
330
396
100
AcDbEntity
  8
DIMENSION
 62
     0
100
AcDbLine
 10
0.0
 20
0.0
 30
0.0
 11
0.0
 21
-0.1
 31
0.0
  0
LINE
  5
39C
330
396
100
AcDbEntity
  8
DIMENSION
 62
     0
100
AcDbLine
 10
0.0
 20
0.0
 30
0.0
 11
0.1
 21
0.0
 31
0.0
  0
LINE
  5
39D
330
396
100
AcDbEntity
  8
DIMENSION
 62
     0
100
AcDbLine
 10
0.0
 20
0.1
 30
0.0
 11
0.0
 21
0.19375
 31
0.0
  0
LINE
  5
39E
330
396
100
AcDbEntity
  8
DIMENSION
 62
     0
100
AcDbLine
 10
-0.1
 20
0.0
 30
0.0
 11
-0.19375
 21
0.0
 31
0.0
  0
LINE
  5
39F
330
396
100
AcDbEntity
  8
DIMENSION
 62
     0
100
AcDbLine
 10
0.0
 20
-0.1
 30
0.0
 11
0.0
 21
-0.19375
 31
0.0
  0
LINE
  5
3A0
330
396
100
AcDbEntity
  8
DIMENSION
 62
     0
100
AcDbLine
 10
0.1
 20
0.0
 30
0.0
 11
0.19375
 21
0.0
 31
0.0
  0
ENDBLK
  5
398
330
396
100
AcDbEntity
  8
0
100
AcDbBlockEnd
  0
BLOCK
  5
3A3
330
3A2
100
AcDbEntity
  8
0
100
AcDbBlockBegin
  2
SW_CENTERMARKSYMBOL_11
 70
     0
 10
0.0
 20
0.0
 30
0.0
  3
SW_CENTERMARKSYMBOL_11
  1

  0
LINE
  5
3A5
330
3A2
100
AcDbEntity
  8
DIMENSION
 62
     0
100
AcDbLine
 10
0.0
 20
0.0
 30
0.0
 11
0.0
 21
0.1
 31
0.0
  0
LINE
  5
3A6
330
3A2
100
AcDbEntity
  8
DIMENSION
 62
     0
100
AcDbLine
 10
0.0
 20
0.0
 30
0.0
 11
-0.1
 21
0.0
 31
0.0
  0
LINE
  5
3A7
330
3A2
100
AcDbEntity
  8
DIMENSION
 62
     0
100
AcDbLine
 10
0.0
 20
0.0
 30
0.0
 11
0.0
 21
-0.1
 31
0.0
  0
LINE
  5
3A8
330
3A2
100
AcDbEntity
  8
DIMENSION
 62
     0
100
AcDbLine
 10
0.0
 20
0.0
 30
0.0
 11
0.1
 21
0.0
 31
0.0
  0
LINE
  5
3A9
330
3A2
100
AcDbEntity
  8
DIMENSION
 62
     0
100
AcDbLine
 10
0.0
 20
0.1
 30
0.0
 11
0.0
 21
0.19375
 31
0.0
  0
LINE
  5
3AA
330
3A2
100
AcDbEntity
  8
DIMENSION
 62
     0
100
AcDbLine
 10
-0.1
 20
0.0
 30
0.0
 11
-0.19375
 21
0.0
 31
0.0
  0
LINE
  5
3AB
330
3A2
100
AcDbEntity
  8
DIMENSION
 62
     0
100
AcDbLine
 10
0.0
 20
-0.1
 30
0.0
 11
0.0
 21
-0.19375
 31
0.0
  0
LINE
  5
3AC
330
3A2
100
AcDbEntity
  8
DIMENSION
 62
     0
100
AcDbLine
 10
0.1
 20
0.0
 30
0.0
 11
0.19375
 21
0.0
 31
0.0
  0
ENDBLK
  5
3A4
330
3A2
100
AcDbEntity
  8
0
100
AcDbBlockEnd
  0
BLOCK
  5
3AF
330
3AE
100
AcDbEntity
  8
0
100
AcDbBlockBegin
  2
SW_CENTERMARKSYMBOL_12
 70
     0
 10
0.0
 20
0.0
 30
0.0
  3
SW_CENTERMARKSYMBOL_12
  1

  0
LINE
  5
3B1
330
3AE
100
AcDbEntity
  8
DIMENSION
 62
     0
100
AcDbLine
 10
0.0
 20
0.0
 30
0.0
 11
0.0
 21
0.1
 31
0.0
  0
LINE
  5
3B2
330
3AE
100
AcDbEntity
  8
DIMENSION
 62
     0
100
AcDbLine
 10
0.0
 20
0.0
 30
0.0
 11
-0.1
 21
0.0
 31
0.0
  0
LINE
  5
3B3
330
3AE
100
AcDbEntity
  8
DIMENSION
 62
     0
100
AcDbLine
 10
0.0
 20
0.0
 30
0.0
 11
0.0
 21
-0.1
 31
0.0
  0
LINE
  5
3B4
330
3AE
100
AcDbEntity
  8
DIMENSION
 62
     0
100
AcDbLine
 10
0.0
 20
0.0
 30
0.0
 11
0.1
 21
0.0
 31
0.0
  0
LINE
  5
3B5
330
3AE
100
AcDbEntity
  8
DIMENSION
 62
     0
100
AcDbLine
 10
0.0
 20
0.1
 30
0.0
 11
0.0
 21
0.19375
 31
0.0
  0
LINE
  5
3B6
330
3AE
100
AcDbEntity
  8
DIMENSION
 62
     0
100
AcDbLine
 10
-0.1
 20
0.0
 30
0.0
 11
-0.19375
 21
0.0
 31
0.0
  0
LINE
  5
3B7
330
3AE
100
AcDbEntity
  8
DIMENSION
 62
     0
100
AcDbLine
 10
0.0
 20
-0.1
 30
0.0
 11
0.0
 21
-0.19375
 31
0.0
  0
LINE
  5
3B8
330
3AE
100
AcDbEntity
  8
DIMENSION
 62
     0
100
AcDbLine
 10
0.1
 20
0.0
 30
0.0
 11
0.19375
 21
0.0
 31
0.0
  0
ENDBLK
  5
3B0
330
3AE
100
AcDbEntity
  8
0
100
AcDbBlockEnd
  0
BLOCK
  5
3BB
330
3BA
100
AcDbEntity
  8
0
100
AcDbBlockBegin
  2
SW_CENTERMARKSYMBOL_13
 70
     0
 10
0.0
 20
0.0
 30
0.0
  3
SW_CENTERMARKSYMBOL_13
  1

  0
LINE
  5
3BD
330
3BA
100
AcDbEntity
  8
DIMENSION
 62
     0
100
AcDbLine
 10
0.0
 20
0.0
 30
0.0
 11
0.0
 21
0.1
 31
0.0
  0
LINE
  5
3BE
330
3BA
100
AcDbEntity
  8
DIMENSION
 62
     0
100
AcDbLine
 10
0.0
 20
0.0
 30
0.0
 11
-0.1
 21
0.0
 31
0.0
  0
LINE
  5
3BF
330
3BA
100
AcDbEntity
  8
DIMENSION
 62
     0
100
AcDbLine
 10
0.0
 20
0.0
 30
0.0
 11
0.0
 21
-0.1
 31
0.0
  0
LINE
  5
3C0
330
3BA
100
AcDbEntity
  8
DIMENSION
 62
     0
100
AcDbLine
 10
0.0
 20
0.0
 30
0.0
 11
0.1
 21
0.0
 31
0.0
  0
LINE
  5
3C1
330
3BA
100
AcDbEntity
  8
DIMENSION
 62
     0
100
AcDbLine
 10
0.0
 20
0.1
 30
0.0
 11
0.0
 21
0.19375
 31
0.0
  0
LINE
  5
3C2
330
3BA
100
AcDbEntity
  8
DIMENSION
 62
     0
100
AcDbLine
 10
-0.1
 20
0.0
 30
0.0
 11
-0.19375
 21
0.0
 31
0.0
  0
LINE
  5
3C3
330
3BA
100
AcDbEntity
  8
DIMENSION
 62
     0
100
AcDbLine
 10
0.0
 20
-0.1
 30
0.0
 11
0.0
 21
-0.19375
 31
0.0
  0
LINE
  5
3C4
330
3BA
100
AcDbEntity
  8
DIMENSION
 62
     0
100
AcDbLine
 10
0.1
 20
0.0
 30
0.0
 11
0.19375
 21
0.0
 31
0.0
  0
ENDBLK
  5
3BC
330
3BA
100
AcDbEntity
  8
0
100
AcDbBlockEnd
  0
BLOCK
  5
3C7
330
3C6
100
AcDbEntity
  8
0
100
AcDbBlockBegin
  2
SW_CENTERMARKSYMBOL_14
 70
     0
 10
0.0
 20
0.0
 30
0.0
  3
SW_CENTERMARKSYMBOL_14
  1

  0
LINE
  5
3C9
330
3C6
100
AcDbEntity
  8
DIMENSION
 62
     0
100
AcDbLine
 10
0.0
 20
0.0
 30
0.0
 11
0.0
 21
0.1
 31
0.0
  0
LINE
  5
3CA
330
3C6
100
AcDbEntity
  8
DIMENSION
 62
     0
100
AcDbLine
 10
0.0
 20
0.0
 30
0.0
 11
-0.1
 21
0.0
 31
0.0
  0
LINE
  5
3CB
330
3C6
100
AcDbEntity
  8
DIMENSION
 62
     0
100
AcDbLine
 10
0.0
 20
0.0
 30
0.0
 11
0.0
 21
-0.1
 31
0.0
  0
LINE
  5
3CC
330
3C6
100
AcDbEntity
  8
DIMENSION
 62
     0
100
AcDbLine
 10
0.0
 20
0.0
 30
0.0
 11
0.1
 21
0.0
 31
0.0
  0
LINE
  5
3CD
330
3C6
100
AcDbEntity
  8
DIMENSION
 62
     0
100
AcDbLine
 10
0.0
 20
0.1
 30
0.0
 11
0.0
 21
0.19375
 31
0.0
  0
LINE
  5
3CE
330
3C6
100
AcDbEntity
  8
DIMENSION
 62
     0
100
AcDbLine
 10
-0.1
 20
0.0
 30
0.0
 11
-0.19375
 21
0.0
 31
0.0
  0
LINE
  5
3CF
330
3C6
100
AcDbEntity
  8
DIMENSION
 62
     0
100
AcDbLine
 10
0.0
 20
-0.1
 30
0.0
 11
0.0
 21
-0.19375
 31
0.0
  0
LINE
  5
3D0
330
3C6
100
AcDbEntity
  8
DIMENSION
 62
     0
100
AcDbLine
 10
0.1
 20
0.0
 30
0.0
 11
0.19375
 21
0.0
 31
0.0
  0
ENDBLK
  5
3C8
330
3C6
100
AcDbEntity
  8
0
100
AcDbBlockEnd
  0
BLOCK
  5
3D3
330
3D2
100
AcDbEntity
  8
0
100
AcDbBlockBegin
  2
SW_CENTERMARKSYMBOL_15
 70
     0
 10
0.0
 20
0.0
 30
0.0
  3
SW_CENTERMARKSYMBOL_15
  1

  0
LINE
  5
3D5
330
3D2
100
AcDbEntity
  8
DIMENSION
 62
     0
100
AcDbLine
 10
0.0
 20
0.0
 30
0.0
 11
0.0
 21
0.1
 31
0.0
  0
LINE
  5
3D6
330
3D2
100
AcDbEntity
  8
DIMENSION
 62
     0
100
AcDbLine
 10
0.0
 20
0.0
 30
0.0
 11
-0.1
 21
0.0
 31
0.0
  0
LINE
  5
3D7
330
3D2
100
AcDbEntity
  8
DIMENSION
 62
     0
100
AcDbLine
 10
0.0
 20
0.0
 30
0.0
 11
0.0
 21
-0.1
 31
0.0
  0
LINE
  5
3D8
330
3D2
100
AcDbEntity
  8
DIMENSION
 62
     0
100
AcDbLine
 10
0.0
 20
0.0
 30
0.0
 11
0.1
 21
0.0
 31
0.0
  0
LINE
  5
3D9
330
3D2
100
AcDbEntity
  8
DIMENSION
 62
     0
100
AcDbLine
 10
0.0
 20
0.1
 30
0.0
 11
0.0
 21
0.19375
 31
0.0
  0
LINE
  5
3DA
330
3D2
100
AcDbEntity
  8
DIMENSION
 62
     0
100
AcDbLine
 10
-0.1
 20
0.0
 30
0.0
 11
-0.19375
 21
0.0
 31
0.0
  0
LINE
  5
3DB
330
3D2
100
AcDbEntity
  8
DIMENSION
 62
     0
100
AcDbLine
 10
0.0
 20
-0.1
 30
0.0
 11
0.0
 21
-0.19375
 31
0.0
  0
LINE
  5
3DC
330
3D2
100
AcDbEntity
  8
DIMENSION
 62
     0
100
AcDbLine
 10
0.1
 20
0.0
 30
0.0
 11
0.19375
 21
0.0
 31
0.0
  0
ENDBLK
  5
3D4
330
3D2
100
AcDbEntity
  8
0
100
AcDbBlockEnd
  0
BLOCK
  5
3DF
330
3DE
100
AcDbEntity
  8
0
100
AcDbBlockBegin
  2
SW_CENTERMARKSYMBOL_16
 70
     0
 10
0.0
 20
0.0
 30
0.0
  3
SW_CENTERMARKSYMBOL_16
  1

  0
LINE
  5
3E1
330
3DE
100
AcDbEntity
  8
DIMENSION
 62
     0
100
AcDbLine
 10
0.0
 20
0.0
 30
0.0
 11
0.0
 21
0.1
 31
0.0
  0
LINE
  5
3E2
330
3DE
100
AcDbEntity
  8
DIMENSION
 62
     0
100
AcDbLine
 10
0.0
 20
0.0
 30
0.0
 11
-0.1
 21
0.0
 31
0.0
  0
LINE
  5
3E3
330
3DE
100
AcDbEntity
  8
DIMENSION
 62
     0
100
AcDbLine
 10
0.0
 20
0.0
 30
0.0
 11
0.0
 21
-0.1
 31
0.0
  0
LINE
  5
3E4
330
3DE
100
AcDbEntity
  8
DIMENSION
 62
     0
100
AcDbLine
 10
0.0
 20
0.0
 30
0.0
 11
0.1
 21
0.0
 31
0.0
  0
LINE
  5
3E5
330
3DE
100
AcDbEntity
  8
DIMENSION
 62
     0
100
AcDbLine
 10
0.0
 20
0.1
 30
0.0
 11
0.0
 21
0.19375
 31
0.0
  0
LINE
  5
3E6
330
3DE
100
AcDbEntity
  8
DIMENSION
 62
     0
100
AcDbLine
 10
-0.1
 20
0.0
 30
0.0
 11
-0.19375
 21
0.0
 31
0.0
  0
LINE
  5
3E7
330
3DE
100
AcDbEntity
  8
DIMENSION
 62
     0
100
AcDbLine
 10
0.0
 20
-0.1
 30
0.0
 11
0.0
 21
-0.19375
 31
0.0
  0
LINE
  5
3E8
330
3DE
100
AcDbEntity
  8
DIMENSION
 62
     0
100
AcDbLine
 10
0.1
 20
0.0
 30
0.0
 11
0.19375
 21
0.0
 31
0.0
  0
ENDBLK
  5
3E0
330
3DE
100
AcDbEntity
  8
0
100
AcDbBlockEnd
  0
BLOCK
  5
3EB
330
3EA
100
AcDbEntity
  8
0
100
AcDbBlockBegin
  2
SW_CENTERMARKSYMBOL_17
 70
     0
 10
0.0
 20
0.0
 30
0.0
  3
SW_CENTERMARKSYMBOL_17
  1

  0
LINE
  5
3ED
330
3EA
100
AcDbEntity
  8
DIMENSION
 62
     0
100
AcDbLine
 10
0.0
 20
0.0
 30
0.0
 11
0.0
 21
0.1
 31
0.0
  0
LINE
  5
3EE
330
3EA
100
AcDbEntity
  8
DIMENSION
 62
     0
100
AcDbLine
 10
0.0
 20
0.0
 30
0.0
 11
-0.1
 21
0.0
 31
0.0
  0
LINE
  5
3EF
330
3EA
100
AcDbEntity
  8
DIMENSION
 62
     0
100
AcDbLine
 10
0.0
 20
0.0
 30
0.0
 11
0.0
 21
-0.1
 31
0.0
  0
LINE
  5
3F0
330
3EA
100
AcDbEntity
  8
DIMENSION
 62
     0
100
AcDbLine
 10
0.0
 20
0.0
 30
0.0
 11
0.1
 21
0.0
 31
0.0
  0
LINE
  5
3F1
330
3EA
100
AcDbEntity
  8
DIMENSION
 62
     0
100
AcDbLine
 10
0.0
 20
0.1
 30
0.0
 11
0.0
 21
0.19375
 31
0.0
  0
LINE
  5
3F2
330
3EA
100
AcDbEntity
  8
DIMENSION
 62
     0
100
AcDbLine
 10
-0.1
 20
0.0
 30
0.0
 11
-0.19375
 21
0.0
 31
0.0
  0
LINE
  5
3F3
330
3EA
100
AcDbEntity
  8
DIMENSION
 62
     0
100
AcDbLine
 10
0.0
 20
-0.1
 30
0.0
 11
0.0
 21
-0.19375
 31
0.0
  0
LINE
  5
3F4
330
3EA
100
AcDbEntity
  8
DIMENSION
 62
     0
100
AcDbLine
 10
0.1
 20
0.0
 30
0.0
 11
0.19375
 21
0.0
 31
0.0
  0
ENDBLK
  5
3EC
330
3EA
100
AcDbEntity
  8
0
100
AcDbBlockEnd
  0
BLOCK
  5
3F7
330
3F6
100
AcDbEntity
  8
0
100
AcDbBlockBegin
  2
SW_CENTERMARKSYMBOL_18
 70
     0
 10
0.0
 20
0.0
 30
0.0
  3
SW_CENTERMARKSYMBOL_18
  1

  0
LINE
  5
3F9
330
3F6
100
AcDbEntity
  8
DIMENSION
 62
     0
100
AcDbLine
 10
0.0
 20
0.0
 30
0.0
 11
0.0
 21
0.1
 31
0.0
  0
LINE
  5
3FA
330
3F6
100
AcDbEntity
  8
DIMENSION
 62
     0
100
AcDbLine
 10
0.0
 20
0.0
 30
0.0
 11
-0.1
 21
0.0
 31
0.0
  0
LINE
  5
3FB
330
3F6
100
AcDbEntity
  8
DIMENSION
 62
     0
100
AcDbLine
 10
0.0
 20
0.0
 30
0.0
 11
0.0
 21
-0.1
 31
0.0
  0
LINE
  5
3FC
330
3F6
100
AcDbEntity
  8
DIMENSION
 62
     0
100
AcDbLine
 10
0.0
 20
0.0
 30
0.0
 11
0.1
 21
0.0
 31
0.0
  0
LINE
  5
3FD
330
3F6
100
AcDbEntity
  8
DIMENSION
 62
     0
100
AcDbLine
 10
0.0
 20
0.1
 30
0.0
 11
0.0
 21
0.19375
 31
0.0
  0
LINE
  5
3FE
330
3F6
100
AcDbEntity
  8
DIMENSION
 62
     0
100
AcDbLine
 10
-0.1
 20
0.0
 30
0.0
 11
-0.19375
 21
0.0
 31
0.0
  0
LINE
  5
3FF
330
3F6
100
AcDbEntity
  8
DIMENSION
 62
     0
100
AcDbLine
 10
0.0
 20
-0.1
 30
0.0
 11
0.0
 21
-0.19375
 31
0.0
  0
LINE
  5
400
330
3F6
100
AcDbEntity
  8
DIMENSION
 62
     0
100
AcDbLine
 10
0.1
 20
0.0
 30
0.0
 11
0.19375
 21
0.0
 31
0.0
  0
ENDBLK
  5
3F8
330
3F6
100
AcDbEntity
  8
0
100
AcDbBlockEnd
  0
BLOCK
  5
403
330
402
100
AcDbEntity
  8
0
100
AcDbBlockBegin
  2
SW_CENTERMARKSYMBOL_19
 70
     0
 10
0.0
 20
0.0
 30
0.0
  3
SW_CENTERMARKSYMBOL_19
  1

  0
LINE
  5
405
330
402
100
AcDbEntity
  8
DIMENSION
 62
     0
100
AcDbLine
 10
0.0
 20
0.0
 30
0.0
 11
0.0
 21
0.1
 31
0.0
  0
LINE
  5
406
330
402
100
AcDbEntity
  8
DIMENSION
 62
     0
100
AcDbLine
 10
0.0
 20
0.0
 30
0.0
 11
-0.1
 21
0.0
 31
0.0
  0
LINE
  5
407
330
402
100
AcDbEntity
  8
DIMENSION
 62
     0
100
AcDbLine
 10
0.0
 20
0.0
 30
0.0
 11
0.0
 21
-0.1
 31
0.0
  0
LINE
  5
408
330
402
100
AcDbEntity
  8
DIMENSION
 62
     0
100
AcDbLine
 10
0.0
 20
0.0
 30
0.0
 11
0.1
 21
0.0
 31
0.0
  0
LINE
  5
409
330
402
100
AcDbEntity
  8
DIMENSION
 62
     0
100
AcDbLine
 10
0.0
 20
0.1
 30
0.0
 11
0.0
 21
0.19375
 31
0.0
  0
LINE
  5
40A
330
402
100
AcDbEntity
  8
DIMENSION
 62
     0
100
AcDbLine
 10
-0.1
 20
0.0
 30
0.0
 11
-0.19375
 21
0.0
 31
0.0
  0
LINE
  5
40B
330
402
100
AcDbEntity
  8
DIMENSION
 62
     0
100
AcDbLine
 10
0.0
 20
-0.1
 30
0.0
 11
0.0
 21
-0.19375
 31
0.0
  0
LINE
  5
40C
330
402
100
AcDbEntity
  8
DIMENSION
 62
     0
100
AcDbLine
 10
0.1
 20
0.0
 30
0.0
 11
0.19375
 21
0.0
 31
0.0
  0
ENDBLK
  5
404
330
402
100
AcDbEntity
  8
0
100
AcDbBlockEnd
  0
BLOCK
  5
432
330
431
100
AcDbEntity
  8
0
100
AcDbBlockBegin
  2
_D_16
 70
     0
 10
0.0
 20
0.0
 30
0.0
  3
_D_16
  1

  0
SOLID
  5
434
330
431
100
AcDbEntity
  8
DIMENSION
100
AcDbTrace
 10
48.8542041048
 20
11.2423447888
 30
0.0
 11
49.2708707714
 21
11.1782422247
 31
0.0
 12
49.2708707714
 22
11.3064473529
 32
0.0
 13
49.2708707714
 23
11.3064473529
 33
0.0
  0
SOLID
  5
435
330
431
100
AcDbEntity
  8
DIMENSION
100
AcDbTrace
 10
48.7292041048
 20
11.2423447888
 30
0.0
 11
48.3125374381
 21
11.3064473529
 31
0.0
 12
48.3125374381
 22
11.1782422247
 32
0.0
 13
48.3125374381
 23
11.1782422247
 33
0.0
  0
LINE
  5
436
330
431
100
AcDbEntity
  8
DIMENSION
100
AcDbLine
 10
47.1802268116
 20
11.2423447429
 30
0.0
 11
47.0534906986
 21
11.2423447429
 31
0.0
  0
LINE
  5
437
330
431
100
AcDbEntity
  8
DIMENSION
100
AcDbLine
 10
47.0534906986
 20
11.2423447429
 30
0.0
 11
47.0534906986
 21
10.58030772
 31
0.0
  0
LINE
  5
438
330
431
100
AcDbEntity
  8
DIMENSION
100
AcDbLine
 10
47.0534906986
 20
10.58030772
 30
0.0
 11
47.1802268116
 21
10.58030772
 31
0.0
  0
LINE
  5
439
330
431
100
AcDbEntity
  8
DIMENSION
100
AcDbLine
 10
47.9495169497
 20
11.2423447429
 30
0.0
 11
48.0762530627
 21
11.2423447429
 31
0.0
  0
LINE
  5
43A
330
431
100
AcDbEntity
  8
DIMENSION
100
AcDbLine
 10
48.0762530627
 20
11.2423447429
 30
0.0
 11
48.0762530627
 21
10.58030772
 31
0.0
  0
LINE
  5
43B
330
431
100
AcDbEntity
  8
DIMENSION
100
AcDbLine
 10
48.0762530627
 20
10.58030772
 30
0.0
 11
47.9495169497
 21
10.58030772
 31
0.0
  0
LINE
  5
43C
330
431
100
AcDbEntity
  8
DIMENSION
100
AcDbLine
 10
48.8542041048
 20
12.9608487258
 30
0.0
 11
48.8542041048
 21
10.6173447888
 31
0.0
  0
LINE
  5
43D
330
431
100
AcDbEntity
  8
DIMENSION
100
AcDbLine
 10
48.7292041048
 20
12.9608487258
 30
0.0
 11
48.7292041048
 21
10.6173447888
 31
0.0
  0
LINE
  5
43E
330
431
100
AcDbEntity
  8
DIMENSION
100
AcDbLine
 10
48.8542041048
 20
11.2423447888
 30
0.0
 11
49.6554861561
 21
11.2423447888
 31
0.0
  0
LINE
  5
43F
330
431
100
AcDbEntity
  8
DIMENSION
100
AcDbLine
 10
48.7292041048
 20
11.2423447888
 30
0.0
 11
48.5946943737
 21
11.2423447888
 31
0.0
  0
MTEXT
  5
440
330
431
100
AcDbEntity
  8
DIMENSION
100
AcDbMText
 10
46.9321558248
 20
11.8639470355
 30
0.0
 40
0.4166666667
 41
0.0
 71
     1
 72
     1
  1

  7
SLDTEXTSTYLE1
 73
     1
 44
1.0
  0
MTEXT
  5
441
330
431
100
AcDbEntity
  8
DIMENSION
100
AcDbMText
 10
47.0262916107
 20
11.8639470355
 30
0.0
 40
0.4166666667
 41
0.0
 71
     1
 72
     1
  1
.125
  7
SLDTEXTSTYLE1
 73
     1
 44
1.0
  0
MTEXT
  5
442
330
431
100
AcDbEntity
  8
DIMENSION
100
AcDbMText
 10
47.1802268116
 20
11.1174192553
 30
0.0
 40
0.4166666667
 41
0.0
 71
     1
 72
     1
  1
3.2
  7
SLDTEXTSTYLE1
 73
     1
 44
1.0
  0
MTEXT
  5
443
330
431
100
AcDbEntity
  8
DIMENSION
100
AcDbMText
 10
48.5154892674
 20
11.8639470355
 30
0.0
 40
0.4166666667
 41
0.0
 71
     1
 72
     1
  1

  7
SLDTEXTSTYLE1
 73
     1
 44
1.0
  0
ENDBLK
  5
433
330
431
100
AcDbEntity
  8
0
100
AcDbBlockEnd
  0
ENDSEC
  0
SECTION
  2
ENTITIES
  0
LINE
  5
163
330
1F
100
AcDbEntity
  8
0
  6
Continuous
 62
     7
370
    25
100
AcDbLine
 10
1.4110640866
 20
40.8596130279
 30
0.0
 11
53.149635
 21
40.8596130279
 31
0.0
  0
LINE
  5
164
330
1F
100
AcDbEntity
  8
0
  6
Continuous
 62
     7
370
    25
100
AcDbLine
 10
1.4110640866
 20
40.8596130279
 30
0.0
 11
1.4110640866
 21
1.9603658537
 31
0.0
  0
LINE
  5
165
330
1F
100
AcDbEntity
  8
0
  6
Continuous
 62
     7
370
    25
100
AcDbLine
 10
53.149635
 20
1.9603658537
 30
0.0
 11
1.4110640866
 21
1.9603658537
 31
0.0
  0
LINE
  5
166
330
1F
100
AcDbEntity
  8
0
  6
Continuous
 62
     7
370
    25
100
AcDbLine
 10
53.149635
 20
1.9603658537
 30
0.0
 11
53.149635
 21
40.8596130279
 31
0.0
  0
LINE
  5
167
330
1F
100
AcDbEntity
  8
0
  6
Continuous
 62
     7
370
    18
100
AcDbLine
 10
26.1229815289
 20
1.9603658537
 30
0.0
 11
26.1229815289
 21
3.8623590602
 31
0.0
  0
LINE
  5
168
330
1F
100
AcDbEntity
  8
0
  6
Continuous
 62
     7
370
    18
100
AcDbLine
 10
32.3684082031
 20
1.9603658537
 30
0.0
 11
32.3684082031
 21
3.8623590602
 31
0.0
  0
LINE
  5
169
330
1F
100
AcDbEntity
  8
0
  6
Continuous
 62
     7
370
    18
100
AcDbLine
 10
50.7543936796
 20
1.9603658537
 30
0.0
 11
50.7543936796
 21
3.8623590602
 31
0.0
  0
LINE
  5
16A
330
1F
100
AcDbEntity
  8
0
  6
Continuous
 62
     7
370
    18
100
AcDbLine
 10
28.8417829933
 20
40.8596130279
 30
0.0
 11
28.8417829933
 21
38.2617956905
 31
0.0
  0
LINE
  5
16B
330
1F
100
AcDbEntity
  8
0
  6
Continuous
 62
     7
370
    25
100
AcDbLine
 10
1.4110640866
 20
35.6639783531
 30
0.0
 11
53.149635
 21
35.6639783531
 31
0.0
  0
LINE
  5
16C
330
1F
100
AcDbEntity
  8
0
  6
Continuous
 62
     7
370
    18
100
AcDbLine
 10
14.5076964897
 20
40.8596130279
 30
0.0
 11
14.5076964897
 21
35.6639783531
 31
0.0
  0
LINE
  5
16D
330
1F
100
AcDbEntity
  8
0
  6
Continuous
 62
     7
370
    18
100
AcDbLine
 10
38.7962337751
 20
40.8596130279
 30
0.0
 11
38.7962337751
 21
35.6639783531
 31
0.0
  0
LINE
  5
16E
330
1F
100
AcDbEntity
  8
0
  6
Continuous
 62
     7
370
    18
100
AcDbLine
 10
53.149635
 20
35.6639783531
 30
0.0
 11
38.7962337751
 21
35.6639783531
 31
0.0
  0
LINE
  5
16F
330
1F
100
AcDbEntity
  8
0
  6
Continuous
 62
     7
370
    25
100
AcDbLine
 10
53.149635
 20
3.8623590602
 30
0.0
 11
1.4110640866
 21
3.8623590602
 31
0.0
  0
LINE
  5
170
330
1F
100
AcDbEntity
  8
0
  6
Continuous
 62
     7
370
    18
100
AcDbLine
 10
14.5076964897
 20
38.2617956905
 30
0.0
 11
53.149635
 21
38.2617956905
 31
0.0
  0
INSERT
  5
171
330
1F
100
AcDbEntity
  8
0
  6
Continuous
 62
     7
100
AcDbBlockReference
  2
Block17_1_1_1_1
 10
1.8085331886
 20
38.9799108146
 30
0.0
  0
MTEXT
  5
173
330
1F
100
AcDbEntity
  8
0
  6
Continuous
 62
     7
370
     0
100
AcDbMText
 10
27.2670417407
 20
2.5809325853
 30
0.0
 40
0.3125
 41
0.0
 71
     1
 72
     1
  1
ÉCHELLE_SCALE 1:5
  7
SLDTEXTSTYLE0
 73
     1
 44
1.0
  0
INSERT
  5
17B
330
1F
100
AcDbEntity
  8
0
  6
Continuous
 62
     7
370
     0
100
AcDbBlockReference
  2
SW_NOTE_0
 10
1.7262854377
 20
3.328978967
 30
0.0
  0
MTEXT
  5
17C
330
1F
100
AcDbEntity
  8
0
  6
Continuous
 62
     7
370
     0
100
AcDbMText
 10
14.8623668661
 20
40.2447388823
 30
0.0
 40
0.6770833333
 41
0.0
 71
     1
 72
     1
  1
ALUMINIUM BEZEL PLATE_BTM
  7
SLDTEXTSTYLE0
 73
     1
 44
1.0
  0
MTEXT
  5
17D
330
1F
100
AcDbEntity
  8
0
  6
Continuous
 62
     7
370
     0
100
AcDbMText
 10
14.9076805167
 20
38.8810952226
 30
0.0
 40
0.3125
 41
0.0
 71
     1
 72
     1
  1
PROJET_PROJECT
  7
SLDTEXTSTYLE0
 73
     1
 44
1.0
  0
MTEXT
  5
17E
330
1F
100
AcDbEntity
  8
0
  6
Continuous
 62
     7
370
     0
100
AcDbMText
 10
32.8356116158
 20
2.5809325853
 30
0.0
 40
0.3125
 41
0.0
 71
     1
 72
     1
  1
REPÉSENTANT_REPRESENTATIVE
  7
SLDTEXTSTYLE0
 73
     1
 44
1.0
  0
MTEXT
  5
17F
330
1F
100
AcDbEntity
  8
0
  6
Continuous
 62
     7
370
     0
100
AcDbMText
 10
40.2767747446
 20
2.6281839698
 30
0.0
 40
0.3125
 41
0.0
 71
     1
 72
     1
  1
CONCEPTEUR_DESIGNER
  7
SLDTEXTSTYLE0
 73
     1
 44
1.0
  0
MTEXT
  5
180
330
1F
100
AcDbEntity
  8
0
  6
Continuous
 62
     7
370
     0
100
AcDbMText
 10
47.6276127241
 20
2.6201784849
 30
0.0
 40
0.3125
 41
0.0
 71
     1
 72
     1
  1
DATE
  7
SLDTEXTSTYLE0
 73
     1
 44
1.0
  0
MTEXT
  5
181
330
1F
100
AcDbEntity
  8
0
  6
Continuous
 62
     7
370
     0
100
AcDbMText
 10
51.1766481341
 20
3.3878306506
 30
0.0
 40
0.8333333333
 41
0.0
 71
     1
 72
     1
  1
2/2
  7
SLDTEXTSTYLE0
 73
     1
 44
1.0
  0
MTEXT
  5
182
330
1F
100
AcDbEntity
  8
0
  6
Continuous
 62
     7
370
     0
100
AcDbMText
 10
41.9364307738
 20
3.3657465591
 30
0.0
 40
0.3645833333
 41
0.0
 71
     2
 72
     1
  1
Sylvain Charria
  7
SLDTEXTSTYLE0
 73
     1
 44
1.0
  0
MTEXT
  5
183
330
1F
100
AcDbEntity
  8
0
  6
Continuous
 62
     7
370
     0
100
AcDbMText
 10
48.8587144633
 20
3.3657465591
 30
0.0
 40
0.3645833333
 41
0.0
 71
     2
 72
     1
  1
2019-10-31
  7
SLDTEXTSTYLE0
 73
     1
 44
1.0
  0
INSERT
  5
18C
330
1F
100
AcDbEntity
  8
LAYER1
100
AcDbBlockReference
  2
SW_NOTE_1
 10
4.2565012912
 20
38.1855250694
 30
0.0
  0
INSERT
  5
192
330
1F
100
AcDbEntity
  8
LAYER1
 62
     7
100
AcDbBlockReference
  2
SW_NOTE_2
 10
37.6219167383
 20
4.42925662
 30
0.0
  0
MTEXT
  5
193
330
1F
100
AcDbEntity
  8
LAYER1
 62
     7
100
AcDbMText
 10
29.2150901398
 20
38.8810952226
 30
0.0
 40
0.3125
 41
0.0
 71
     1
 72
     1
  1
PRODUIT_PRODUCT
  7
SLDTEXTSTYLE0
 73
     1
 44
1.0
  0
INSERT
  5
199
330
1F
100
AcDbEntity
  8
LAYER1
 62
     7
100
AcDbBlockReference
  2
SW_NOTE_3
 10
39.1053023895
 20
39.5255784929
 30
0.0
  0
MTEXT
  5
19A
330
1F
100
AcDbEntity
  8
LAYER1
 62
     7
100
AcDbMText
 10
39.1053023895
 20
39.0460248575
 30
0.0
 40
0.3125
 41
0.0
 71
     1
 72
     1
  1
DESSIN_DRAWING
  7
SLDTEXTSTYLE0
 73
     1
 44
1.0
  0
MTEXT
  5
19B
330
1F
100
AcDbEntity
  8
LAYER1
 62
     7
100
AcDbMText
 10
52.7560275742
 20
39.0400043749
 30
0.0
 40
0.3125
 41
0.0
 71
     3
 72
     1
  1
STATUS
  7
SLDTEXTSTYLE0
 73
     1
 44
1.0
  0
MTEXT
  5
19C
330
1F
100
AcDbEntity
  8
LAYER1
 62
     7
100
AcDbMText
 10
39.1053023895
 20
36.4435106732
 30
0.0
 40
0.3125
 41
0.0
 71
     1
 72
     1
  1
TOLÉRANCE_TOLERANCE
  7
SLDTEXTSTYLE0
 73
     1
 44
1.0
  0
MTEXT
  5
19D
330
1F
100
AcDbEntity
  8
LAYER1
 62
     7
100
AcDbMText
 10
39.1053023895
 20
37.5901870297
 30
0.0
 40
0.7291666667
 41
0.0
 71
     1
 72
     1
  1
±.030" [±0.6mm]
  7
SLDTEXTSTYLE0
 73
     1
 44
1.0
  0
MTEXT
  5
19E
330
1F
100
AcDbEntity
  8
DIMENSION
 62
     7
100
AcDbMText
 10
29.183494036
 20
40.2424334293
 30
0.0
 40
0.7291666667
 41
0.0
 71
     1
 72
     1
  1
963-965_NANUK
  7
SLDTEXTSTYLE0
 73
     1
 44
1.0
  0
MTEXT
  5
19F
330
1F
100
AcDbEntity
  8
DIMENSION
 62
     7
100
AcDbMText
 10
34.5678226036
 20
3.3657465591
 30
0.0
 40
0.3645833333
 41
0.0
 71
     2
 72
     1
  1
Benjamin Coley
  7
SLDTEXTSTYLE0
 73
     1
 44
1.0
  0
MTEXT
  5
1A0
330
1F
100
AcDbEntity
  8
DIMENSION
 62
     7
100
AcDbMText
 10
14.8810036363
 20
36.4435106732
 30
0.0
 40
0.3125
 41
0.0
 71
     1
 72
     1
  1
MATÉRIEL_MATERIAL
  7
SLDTEXTSTYLE0
 73
     1
 44
1.0
  0
MTEXT
  5
1A1
330
1F
100
AcDbEntity
  8
DIMENSION
 62
     7
100
AcDbMText
 10
14.8810036363
 20
37.5901870297
 30
0.0
 40
0.7291666667
 41
0.0
 71
     1
 72
     1
  1
ALUMINIUM 1/8"
  7
SLDTEXTSTYLE0
 73
     1
 44
1.0
  0
ARC
  5
1A2
330
1F
100
AcDbEntity
  8
0
  6
Continuous
 62
     7
370
    18
100
AcDbCircle
 10
9.1336272362
 20
16.7618592734
 30
0.0
 40
0.1000000000000085
100
AcDbArc
 50
330.9301779214
 51
0.0
  0
LINE
  5
1A3
330
1F
100
AcDbEntity
  8
0
  6
Continuous
 62
     7
370
    18
100
AcDbLine
 10
9.2336272362
 20
27.8897914981
 30
0.0
 11
9.2336272362
 21
16.7618592734
 31
0.0
  0
ARC
  5
1A4
330
1F
100
AcDbEntity
  8
0
  6
Continuous
 62
     7
370
    18
100
AcDbCircle
 10
9.1336272362
 20
27.8897914981
 30
0.0
 40
0.0999999999999719
100
AcDbArc
 50
0.0
 51
29.0698044427
  0
SPLINE
  5
1A5
330
1F
100
AcDbEntity
  8
0
  6
Continuous
 62
     7
370
    18
100
AcDbSpline
210
0.0
220
0.0
230
1.0
 70
     8
 71
     3
 72
    10
 73
     6
 74
     0
 42
0.000000001
 43
0.00000001
 40
-0.0019801780592525
 40
-0.0019801780592525
 40
-0.0019801780592525
 40
-0.0019801780592525
 40
0.4770750557622544
 40
0.7922523902692847
 40
0.9898973283495928
 40
0.9898973283495928
 40
0.9898973283495928
 40
0.9898973283495928
 10
9.099887135717475
 20
28.12457584249112
 30
0.0
 10
9.12208664346524
 20
28.09635896751628
 30
0.0
 10
9.156818625664645
 20
28.04797785864625
 30
0.0
 10
9.195867818861302
 20
27.98378757258654
 30
0.0
 10
9.214017298252902
 20
27.9509940974253
 30
0.0
 10
9.221030076833598
 20
27.93837898057571
 30
0.0
  0
ARC
  5
1A6
330
1F
100
AcDbEntity
  8
0
  6
Continuous
 62
     7
370
    18
100
AcDbCircle
 10
9.17847957
 20
28.1864081097
 30
0.0
 40
0.1000000000000121
100
AcDbArc
 50
180.0
 51
218.1937503193
  0
LINE
  5
1A7
330
1F
100
AcDbEntity
  8
0
  6
Continuous
 62
     7
370
    18
100
AcDbLine
 10
9.07847957
 20
30.5267014994
 30
0.0
 11
9.07847957
 21
28.1864081097
 31
0.0
  0
SPLINE
  5
1A8
330
1F
100
AcDbEntity
  8
0
  6
Continuous
 62
     7
370
    18
100
AcDbSpline
210
0.0
220
0.0
230
1.0
 70
     8
 71
     3
 72
    17
 73
    13
 74
     0
 42
0.000000001
 43
0.00000001
 40
0.0
 40
0.0
 40
0.0
 40
0.0
 40
0.0625
 40
0.125
 40
0.25
 40
0.375
 40
0.5
 40
0.625
 40
0.75
 40
0.875
 40
0.9375
 40
1.0
 40
1.0
 40
1.0
 40
1.0
 10
9.992580139406877
 20
31.44080206880747
 30
0.0
 10
9.965149667668445
 20
31.44080206880747
 30
0.0
 10
9.910929133793118
 20
31.43841710455289
 30
0.0
 10
9.798029668849699
 20
31.42314682766517
 30
0.0
 10
9.654925542583552
 20
31.38274232421763
 30
0.0
 10
9.489234457158203
 20
31.29763415288622
 30
0.0
 10
9.341436353129199
 20
31.17784528569029
 30
0.0
 10
9.221647485933271
 20
31.03004718166129
 30
0.0
 10
9.136539314601864
 20
30.86435609623594
 30
0.0
 10
9.096134811154322
 20
30.7212519699698
 30
0.0
 10
9.080864534266603
 20
30.60835250502638
 30
0.0
 10
9.07847957001202
 20
30.55413197115105
 30
0.0
 10
9.07847957001202
 20
30.52670149941262
 30
0.0
  0
LINE
  5
1A9
330
1F
100
AcDbEntity
  8
0
  6
Continuous
 62
     7
370
    18
100
AcDbLine
 10
15.006092383
 20
31.4408020688
 30
0.0
 11
9.9925801394
 21
31.4408020688
 31
0.0
  0
ARC
  5
1AA
330
1F
100
AcDbEntity
  8
0
  6
Continuous
 62
     7
370
    18
100
AcDbCircle
 10
15.006092383
 20
31.3408020688
 30
0.0
 40
0.1000000000000014
100
AcDbArc
 50
53.258010985
 51
90.0
  0
LINE
  5
1AB
330
1F
100
AcDbEntity
  8
0
  6
Continuous
 62
     7
370
    18
100
AcDbLine
 10
15.2205183662
 20
31.3055206565
 30
0.0
 11
15.0659136395
 21
31.420935815
 31
0.0
  0
ARC
  5
1AC
330
1F
100
AcDbEntity
  8
0
  6
Continuous
 62
     7
370
    18
100
AcDbCircle
 10
15.2803396227
 20
31.3856544026
 30
0.0
 40
0.0999999999999982
100
AcDbArc
 50
233.258010985
 51
270.0
  0
LINE
  5
1AD
330
1F
100
AcDbEntity
  8
0
  6
Continuous
 62
     7
370
    18
100
AcDbLine
 10
32.1065728604
 20
31.2856544026
 30
0.0
 11
15.2803396227
 21
31.2856544026
 31
0.0
  0
ARC
  5
1AE
330
1F
100
AcDbEntity
  8
0
  6
Continuous
 62
     7
370
    18
100
AcDbCircle
 10
32.1065728604
 20
31.3856544026
 30
0.0
 40
0.0999999999999992
100
AcDbArc
 50
270.0
 51
306.741989015
  0
LINE
  5
1AF
330
1F
100
AcDbEntity
  8
0
  6
Continuous
 62
     7
370
    18
100
AcDbLine
 10
32.3209988436
 20
31.420935815
 30
0.0
 11
32.1663941169
 21
31.3055206565
 31
0.0
  0
ARC
  5
1B0
330
1F
100
AcDbEntity
  8
0
  6
Continuous
 62
     7
370
    18
100
AcDbCircle
 10
32.3808201001
 20
31.3408020688
 30
0.0
 40
0.1000000000000049
100
AcDbArc
 50
90.0
 51
126.741989015
  0
LINE
  5
1B1
330
1F
100
AcDbEntity
  8
0
  6
Continuous
 62
     7
370
    18
100
AcDbLine
 10
37.3943323436
 20
31.4408020688
 30
0.0
 11
32.3808201001
 21
31.4408020688
 31
0.0
  0
SPLINE
  5
1B2
330
1F
100
AcDbEntity
  8
0
  6
Continuous
 62
     7
370
    18
100
AcDbSpline
210
0.0
220
0.0
230
1.0
 70
     8
 71
     3
 72
    17
 73
    13
 74
     0
 42
0.000000001
 43
0.00000001
 40
0.0
 40
0.0
 40
0.0
 40
0.0
 40
0.0625
 40
0.125
 40
0.25
 40
0.375
 40
0.5
 40
0.625
 40
0.75
 40
0.875
 40
0.9375
 40
1.0
 40
1.0
 40
1.0
 40
1.0
 10
38.3084329130408
 20
30.52670149941262
 30
0.0
 10
38.3084329130408
 20
30.55413197115105
 30
0.0
 10
38.30604794878621
 20
30.60835250502638
 30
0.0
 10
38.29077767189849
 20
30.7212519699698
 30
0.0
 10
38.25037316845096
 20
30.86435609623594
 30
0.0
 10
38.16526499711954
 20
31.03004718166129
 30
0.0
 10
38.04547612992361
 20
31.1778452856903
 30
0.0
 10
37.89767802589461
 20
31.29763415288622
 30
0.0
 10
37.73198694046926
 20
31.38274232421763
 30
0.0
 10
37.58888281420312
 20
31.42314682766517
 30
0.0
 10
37.47598334925969
 20
31.43841710455289
 30
0.0
 10
37.42176281538436
 20
31.44080206880747
 30
0.0
 10
37.39433234364594
 20
31.44080206880747
 30
0.0
  0
LINE
  5
1B3
330
1F
100
AcDbEntity
  8
0
  6
Continuous
 62
     7
370
    18
100
AcDbLine
 10
38.308432913
 20
28.186406087
 30
0.0
 11
38.308432913
 21
30.5267014994
 31
0.0
  0
ARC
  5
1B4
330
1F
100
AcDbEntity
  8
0
  6
Continuous
 62
     7
370
    18
100
AcDbCircle
 10
38.208432913
 20
28.186406087
 30
0.0
 40
0.100000000000009
100
AcDbArc
 50
321.8088652876
 51
0.0
  0
SPLINE
  5
1B5
330
1F
100
AcDbEntity
  8
0
  6
Continuous
 62
     7
370
    18
100
AcDbSpline
210
0.0
220
0.0
230
1.0
 70
     8
 71
     3
 72
    10
 73
     6
 74
     0
 42
0.000000001
 43
0.00000001
 40
0.0102963024342141
 40
0.0102963024342141
 40
0.0102963024342141
 40
0.0102963024342141
 40
0.2079655081549331
 40
0.5230162800356294
 40
1.001934540596154
 40
1.001934540596154
 40
1.001934540596154
 40
1.001934540596154
 10
38.16588235910847
 20
27.93837782851634
 30
0.0
 10
38.17290586699316
 20
27.95101227489707
 30
0.0
 10
38.19107660723887
 20
27.9838427596208
 30
0.0
 10
38.23006413253948
 20
28.04792956743728
 30
0.0
 10
38.26481827906129
 20
28.0963446829421
 30
0.0
 10
38.28702816995542
 20
28.12457740761188
 30
0.0
  0
ARC
  5
1B6
330
1F
100
AcDbEntity
  8
0
  6
Continuous
 62
     7
370
    18
100
AcDbCircle
 10
38.2532852468
 20
27.8897904308
 30
0.0
 40
0.1000000000000004
100
AcDbArc
 50
150.9302511117
 51
180.0
  0
LINE
  5
1B7
330
1F
100
AcDbEntity
  8
0
  6
Continuous
 62
     7
370
    18
100
AcDbLine
 10
38.1532852468
 20
16.7618603637
 30
0.0
 11
38.1532852468
 21
27.8897904308
 31
0.0
  0
ARC
  5
1B8
330
1F
100
AcDbEntity
  8
0
  6
Continuous
 62
     7
370
    18
100
AcDbCircle
 10
38.2532852468
 20
16.7618603637
 30
0.0
 40
0.0999999999999917
100
AcDbArc
 50
180.0
 51
209.0697491911
  0
SPLINE
  5
1B9
330
1F
100
AcDbEntity
  8
0
  6
Continuous
 62
     7
370
    18
100
AcDbSpline
210
0.0
220
0.0
230
1.0
 70
     8
 71
     3
 72
    10
 73
     6
 74
     0
 42
0.000000001
 43
0.00000001
 40
-0.0019346807021399
 40
-0.0019346807021399
 40
-0.0019346807021399
 40
-0.0019346807021399
 40
0.4769836461159574
 40
0.792034417986394
 40
0.9897035623507104
 40
0.9897035623507104
 40
0.9897035623507104
 40
0.9897035623507104
 10
38.28702817053305
 20
16.52707338662108
 30
0.0
 10
38.26481826658426
 20
16.55530612842841
 30
0.0
 10
38.23006410013743
 20
16.60372127485317
 30
0.0
 10
38.1910765900901
 20
16.66780806596028
 30
0.0
 10
38.17290586143411
 20
16.70063852973368
 30
0.0
 10
38.1658823593653
 20
16.7132729654951
 30
0.0
  0
ARC
  5
1BA
330
1F
100
AcDbEntity
  8
0
  6
Continuous
 62
     7
370
    18
100
AcDbCircle
 10
38.208432913
 20
16.465244708
 30
0.0
 40
0.1000000000000003
100
AcDbArc
 50
360.0
 51
38.1911341771
  0
LINE
  5
1BB
330
1F
100
AcDbEntity
  8
0
  6
Continuous
 62
     7
370
    18
100
AcDbLine
 10
38.308432913
 20
14.1249492952
 30
0.0
 11
38.308432913
 21
16.465244708
 31
0.0
  0
SPLINE
  5
1BC
330
1F
100
AcDbEntity
  8
0
  6
Continuous
 62
     7
370
    18
100
AcDbSpline
210
0.0
220
0.0
230
1.0
 70
     8
 71
     3
 72
    17
 73
    13
 74
     0
 42
0.000000001
 43
0.00000001
 40
0.0
 40
0.0
 40
0.0
 40
0.0
 40
0.0625
 40
0.125
 40
0.25
 40
0.375
 40
0.5
 40
0.625
 40
0.75
 40
0.875
 40
0.9375
 40
1.0
 40
1.0
 40
1.0
 40
1.0
 10
37.39433234364594
 20
13.21084872577871
 30
0.0
 10
37.42176281538436
 20
13.21084872577871
 30
0.0
 10
37.47598334925969
 20
13.2132336900333
 30
0.0
 10
37.58888281420312
 20
13.22850396692101
 30
0.0
 10
37.73198694046926
 20
13.26890847036855
 30
0.0
 10
37.89767802589461
 20
13.35401664169996
 30
0.0
 10
38.04547612992361
 20
13.47380550889589
 30
0.0
 10
38.16526499711954
 20
13.62160361292489
 30
0.0
 10
38.25037316845095
 20
13.78729469835024
 30
0.0
 10
38.29077767189849
 20
13.93039882461638
 30
0.0
 10
38.30604794878621
 20
14.0432982895598
 30
0.0
 10
38.3084329130408
 20
14.09751882343513
 30
0.0
 10
38.3084329130408
 20
14.12494929517356
 30
0.0
  0
LINE
  5
1BD
330
1F
100
AcDbEntity
  8
0
  6
Continuous
 62
     7
370
    18
100
AcDbLine
 10
32.3808201001
 20
13.2108487258
 30
0.0
 11
37.3943323436
 21
13.2108487258
 31
0.0
  0
ARC
  5
1BE
330
1F
100
AcDbEntity
  8
0
  6
Continuous
 62
     7
370
    18
100
AcDbCircle
 10
32.3808201001
 20
13.3108487258
 30
0.0
 40
0.1000000000000007
100
AcDbArc
 50
233.258010985
 51
270.0
  0
LINE
  5
1BF
330
1F
100
AcDbEntity
  8
0
  6
Continuous
 62
     7
370
    18
100
AcDbLine
 10
32.1663941169
 20
13.3461301381
 30
0.0
 11
32.3209988436
 21
13.2307149796
 31
0.0
  0
ARC
  5
1C0
330
1F
100
AcDbEntity
  8
0
  6
Continuous
 62
     7
370
    18
100
AcDbCircle
 10
32.1065728604
 20
13.265996392
 30
0.0
 40
0.0999999999999979
100
AcDbArc
 50
53.258010985
 51
90.0
  0
LINE
  5
1C1
330
1F
100
AcDbEntity
  8
0
  6
Continuous
 62
     7
370
    18
100
AcDbLine
 10
15.2803396227
 20
13.365996392
 30
0.0
 11
32.1065728604
 21
13.365996392
 31
0.0
  0
ARC
  5
1C2
330
1F
100
AcDbEntity
  8
0
  6
Continuous
 62
     7
370
    18
100
AcDbCircle
 10
15.2803396227
 20
13.265996392
 30
0.0
 40
0.0999999999999982
100
AcDbArc
 50
90.0
 51
126.741989015
  0
LINE
  5
1C3
330
1F
100
AcDbEntity
  8
0
  6
Continuous
 62
     7
370
    18
100
AcDbLine
 10
15.0659136395
 20
13.2307149796
 30
0.0
 11
15.2205183662
 21
13.3461301381
 31
0.0
  0
ARC
  5
1C4
330
1F
100
AcDbEntity
  8
0
  6
Continuous
 62
     7
370
    18
100
AcDbCircle
 10
15.006092383
 20
13.3108487258
 30
0.0
 40
0.1000000000000032
100
AcDbArc
 50
270.0
 51
306.741989015
  0
LINE
  5
1C5
330
1F
100
AcDbEntity
  8
0
  6
Continuous
 62
     7
370
    18
100
AcDbLine
 10
9.9925801394
 20
13.2108487258
 30
0.0
 11
15.006092383
 21
13.2108487258
 31
0.0
  0
SPLINE
  5
1C6
330
1F
100
AcDbEntity
  8
0
  6
Continuous
 62
     7
370
    18
100
AcDbSpline
210
0.0
220
0.0
230
1.0
 70
     8
 71
     3
 72
    17
 73
    13
 74
     0
 42
0.000000001
 43
0.00000001
 40
0.0
 40
0.0
 40
0.0
 40
0.0
 40
0.0625
 40
0.125
 40
0.25
 40
0.375
 40
0.5
 40
0.625
 40
0.75
 40
0.875
 40
0.9375
 40
1.0
 40
1.0
 40
1.0
 40
1.0
 10
9.07847957001202
 20
14.12494929517356
 30
0.0
 10
9.07847957001202
 20
14.09751882343513
 30
0.0
 10
9.080864534266606
 20
14.0432982895598
 30
0.0
 10
9.096134811154325
 20
13.93039882461638
 30
0.0
 10
9.136539314601855
 20
13.78729469835024
 30
0.0
 10
9.221647485933277
 20
13.6216036129249
 30
0.0
 10
9.341436353129195
 20
13.47380550889589
 30
0.0
 10
9.489234457158203
 20
13.35401664169997
 30
0.0
 10
9.654925542583555
 20
13.26890847036855
 30
0.0
 10
9.798029668849694
 20
13.22850396692101
 30
0.0
 10
9.91092913379312
 20
13.2132336900333
 30
0.0
 10
9.965149667668445
 20
13.21084872577871
 30
0.0
 10
9.992580139406877
 20
13.21084872577871
 30
0.0
  0
LINE
  5
1C7
330
1F
100
AcDbEntity
  8
0
  6
Continuous
 62
     7
370
    18
100
AcDbLine
 10
9.07847957
 20
16.4652427351
 30
0.0
 11
9.07847957
 21
14.1249492952
 31
0.0
  0
ARC
  5
1C8
330
1F
100
AcDbEntity
  8
0
  6
Continuous
 62
     7
370
    18
100
AcDbCircle
 10
9.17847957
 20
16.4652427351
 30
0.0
 40
0.1000000000000103
100
AcDbArc
 50
141.8062949491
 51
180.0
  0
SPLINE
  5
1C9
330
1F
100
AcDbEntity
  8
0
  6
Continuous
 62
     7
370
    18
100
AcDbSpline
210
0.0
220
0.0
230
1.0
 70
     8
 71
     3
 72
    10
 73
     6
 74
     0
 42
0.000000001
 43
0.00000001
 40
0.0101112794778064
 40
0.0101112794778064
 40
0.0101112794778064
 40
0.0101112794778064
 40
0.2077515321211048
 40
0.5229295724425486
 40
1.001988430495591
 40
1.001988430495591
 40
1.001988430495591
 40
1.001988430495591
 10
9.221030061878086
 20
16.71327176405358
 30
0.0
 10
9.214017784106844
 20
16.70065755724087
 30
0.0
 10
9.195869297594916
 20
16.66786585574823
 30
0.0
 10
9.156819773294208
 20
16.60367449328646
 30
0.0
 10
9.122087062356329
 20
16.55529245567308
 30
0.0
 10
9.099887086864904
 20
16.52707494029163
 30
0.0
  0
CIRCLE
  5
1CA
330
1F
100
AcDbEntity
  8
0
  6
Continuous
 62
     7
370
    18
100
AcDbCircle
 10
9.4731272362
 20
25.0758253973
 30
0.0
 40
0.0937500000000036
  0
CIRCLE
  5
1CB
330
1F
100
AcDbEntity
  8
0
  6
Continuous
 62
     7
370
    18
100
AcDbCircle
 10
37.9137852468
 20
25.0758253973
 30
0.0
 40
0.09375
  0
CIRCLE
  5
1CC
330
1F
100
AcDbEntity
  8
0
  6
Continuous
 62
     7
370
    18
100
AcDbCircle
 10
38.068932913
 20
29.8258253973
 30
0.0
 40
0.0937500000000036
  0
CIRCLE
  5
1CD
330
1F
100
AcDbEntity
  8
0
  6
Continuous
 62
     7
370
    18
100
AcDbCircle
 10
36.1934562415
 20
31.2013020688
 30
0.0
 40
0.0937500000000036
  0
CIRCLE
  5
1CE
330
1F
100
AcDbEntity
  8
0
  6
Continuous
 62
     7
370
    18
100
AcDbCircle
 10
9.31797957
 20
29.8258253973
 30
0.0
 40
0.09375
  0
CIRCLE
  5
1CF
330
1F
100
AcDbEntity
  8
0
  6
Continuous
 62
     7
370
    18
100
AcDbCircle
 10
11.1934562415
 20
31.2013020688
 30
0.0
 40
0.0937500000000036
  0
CIRCLE
  5
1D0
330
1F
100
AcDbEntity
  8
0
  6
Continuous
 62
     7
370
    18
100
AcDbCircle
 10
16.1934562415
 20
31.0461544026
 30
0.0
 40
0.0937500000000036
  0
CIRCLE
  5
1D1
330
1F
100
AcDbEntity
  8
0
  6
Continuous
 62
     7
370
    18
100
AcDbCircle
 10
21.2934562415
 20
31.0461544026
 30
0.0
 40
0.0937500000000036
  0
CIRCLE
  5
1D2
330
1F
100
AcDbEntity
  8
0
  6
Continuous
 62
     7
370
    18
100
AcDbCircle
 10
21.2934562415
 20
13.605496392
 30
0.0
 40
0.0937500000000018
  0
CIRCLE
  5
1D3
330
1F
100
AcDbEntity
  8
0
  6
Continuous
 62
     7
370
    18
100
AcDbCircle
 10
16.1934562415
 20
13.605496392
 30
0.0
 40
0.0937500000000018
  0
CIRCLE
  5
1D4
330
1F
100
AcDbEntity
  8
0
  6
Continuous
 62
     7
370
    18
100
AcDbCircle
 10
11.1934562415
 20
13.4503487258
 30
0.0
 40
0.0937500000000018
  0
CIRCLE
  5
1D5
330
1F
100
AcDbEntity
  8
0
  6
Continuous
 62
     7
370
    18
100
AcDbCircle
 10
9.31797957
 20
14.8258253973
 30
0.0
 40
0.09375
  0
CIRCLE
  5
1D6
330
1F
100
AcDbEntity
  8
0
  6
Continuous
 62
     7
370
    18
100
AcDbCircle
 10
31.1934562415
 20
31.0461544026
 30
0.0
 40
0.0937499999999964
  0
CIRCLE
  5
1D7
330
1F
100
AcDbEntity
  8
0
  6
Continuous
 62
     7
370
    18
100
AcDbCircle
 10
26.0934562415
 20
31.0461544026
 30
0.0
 40
0.0937499999999964
  0
CIRCLE
  5
1D8
330
1F
100
AcDbEntity
  8
0
  6
Continuous
 62
     7
370
    18
100
AcDbCircle
 10
26.0934562415
 20
13.605496392
 30
0.0
 40
0.0937499999999964
  0
CIRCLE
  5
1D9
330
1F
100
AcDbEntity
  8
0
  6
Continuous
 62
     7
370
    18
100
AcDbCircle
 10
31.1934562415
 20
13.605496392
 30
0.0
 40
0.0937499999999964
  0
CIRCLE
  5
1DA
330
1F
100
AcDbEntity
  8
0
  6
Continuous
 62
     7
370
    18
100
AcDbCircle
 10
36.1934562415
 20
13.4503487258
 30
0.0
 40
0.09375
  0
CIRCLE
  5
1DB
330
1F
100
AcDbEntity
  8
0
  6
Continuous
 62
     7
370
    18
100
AcDbCircle
 10
38.068932913
 20
14.8258253973
 30
0.0
 40
0.0937500000000018
  0
CIRCLE
  5
1DC
330
1F
100
AcDbEntity
  8
0
  6
Continuous
 62
     7
370
    18
100
AcDbCircle
 10
37.9137852468
 20
19.5758253973
 30
0.0
 40
0.0937499999999964
  0
CIRCLE
  5
1DD
330
1F
100
AcDbEntity
  8
0
  6
Continuous
 62
     7
370
    18
100
AcDbCircle
 10
9.4731272362
 20
19.5758253973
 30
0.0
 40
0.09375
  0
LINE
  5
1DE
330
1F
100
AcDbEntity
  8
DIMENSION
100
AcDbLine
 10
23.6934562415
 20
31.2856544026
 30
0.0
 11
23.6934562415
 21
13.365996392
 31
0.0
  0
LINE
  5
1DF
330
1F
100
AcDbEntity
  8
DIMENSION
100
AcDbLine
 10
9.2336272362
 20
22.3258253973
 30
0.0
 11
38.1532852468
 21
22.3258253973
 31
0.0
  0
DIMENSION
  5
1E0
330
1F
100
AcDbEntity
  8
DIMENSION
100
AcDbDimension
  2
_D
 10
23.6934562415
 20
5.3368329777
 30
0.0
 11
16.8708704262
 21
5.3368329777
 31
0.0
 70
   160
  1
<>
 71
     2
 42
-1.0
  3
SLDDIMSTYLE0
100
AcDbAlignedDimension
 13
9.07847957
 23
14.1249492952
 33
0.0
 14
23.6934562415
 24
13.365996392
 34
0.0
 50
0.0
100
AcDbRotatedDimension
  0
DIMENSION
  5
1F6
330
1F
100
AcDbEntity
  8
DIMENSION
100
AcDbDimension
  2
_D_1
 10
4.4151179008
 20
13.2108487258
 30
0.0
 11
4.4151179008
 21
17.9291980417
 31
0.0
 70
   160
  1
<>
 71
     2
 42
-1.0
  3
SLDDIMSTYLE0
100
AcDbAlignedDimension
 13
9.2336272362
 23
22.3258253973
 33
0.0
 14
9.9925801394
 24
13.2108487258
 34
0.0
 50
90.0
100
AcDbRotatedDimension
  0
DIMENSION
  5
20A
330
1F
100
AcDbEntity
  8
DIMENSION
100
AcDbDimension
  2
_D_2
 10
38.308432913
 20
33.4093060058
 30
0.0
 11
23.8138623867
 21
33.4093060058
 31
0.0
 70
   160
  1
<>
 71
     2
 42
-1.0
  3
SLDDIMSTYLE1
100
AcDbAlignedDimension
 13
9.07847957
 23
30.5267014994
 33
0.0
 14
38.308432913
 24
30.5267014994
 34
0.0
 50
0.0
100
AcDbRotatedDimension
  0
DIMENSION
  5
21F
330
1F
100
AcDbEntity
  8
DIMENSION
100
AcDbDimension
  2
_D_3
 10
38.1532852468
 20
26.7872441118
 30
0.0
 11
20.943012464
 21
26.7872441118
 31
0.0
 70
   160
  1
<>
 71
     2
 42
-1.0
  3
SLDDIMSTYLE1
100
AcDbAlignedDimension
 13
9.2336272362
 23
27.8897914981
 33
0.0
 14
38.1532852468
 24
27.8897904308
 34
0.0
100
AcDbRotatedDimension
  0
DIMENSION
  5
231
330
1F
100
AcDbEntity
  8
DIMENSION
100
AcDbDimension
  2
_D_4
 10
45.0013462989
 20
13.2108487258
 30
0.0
 11
45.0013462989
 21
22.2319810479
 31
0.0
 70
   160
  1
<>
 71
     2
 42
-1.0
  3
SLDDIMSTYLE1
100
AcDbAlignedDimension
 13
37.3943323436
 23
31.4408020688
 33
0.0
 14
37.3943323436
 24
13.2108487258
 34
0.0
 50
90.0
100
AcDbRotatedDimension
  0
DIMENSION
  5
245
330
1F
100
AcDbEntity
  8
DIMENSION
100
AcDbDimension
  2
_D_5
 10
29.3898431572
 20
13.365996392
 30
0.0
 11
29.3898431572
 21
21.5703077788
 31
0.0
 70
   160
  1
<>
 71
     2
 42
-1.0
  3
SLDDIMSTYLE1
100
AcDbAlignedDimension
 13
32.1065728604
 23
31.2856544026
 33
0.0
 14
32.1065728604
 24
13.365996392
 34
0.0
 50
90.0
100
AcDbRotatedDimension
  0
DIMENSION
  5
257
330
1F
100
AcDbEntity
  8
DIMENSION
100
AcDbDimension
  2
_D_6
 10
33.585941879
 20
13.365996392
 30
0.0
 11
33.585941879
 21
8.6197930675
 31
0.0
 70
   160
  1
<>
 71
     2
 42
-1.0
  3
SLDDIMSTYLE2
100
AcDbAlignedDimension
 13
31.3872062415
 23
13.605496392
 33
0.0
 14
32.1065728604
 24
13.365996392
 34
0.0
 50
90.0
100
AcDbRotatedDimension
  0
DIMENSION
  5
26D
330
1F
100
AcDbEntity
  8
DIMENSION
100
AcDbDimension
  2
_D_7
 10
38.308432913
 20
15.5043728034
 30
0.0
 11
41.4580392123
 21
15.5043728034
 31
0.0
 70
   160
  1
<>
 71
     2
 42
-1.0
  3
SLDDIMSTYLE2
100
AcDbAlignedDimension
 13
38.068932913
 23
15.0195753973
 33
0.0
 14
38.308432913
 24
16.465244708
 34
0.0
 50
0.0
100
AcDbRotatedDimension
  0
DIMENSION
  5
280
330
1F
100
AcDbEntity
  8
DIMENSION
100
AcDbDimension
  2
_D_8
 10
38.1532852468
 20
18.1385068673
 30
0.0
 11
39.2910368681
 21
18.1385068673
 31
0.0
 70
   160
  1
<>
 71
     2
 42
-1.0
  3
SLDDIMSTYLE2
100
AcDbAlignedDimension
 13
37.9137852468
 23
19.3820753973
 33
0.0
 14
38.1532852468
 24
16.7618603637
 34
0.0
100
AcDbRotatedDimension
  0
DIMENSION
  5
293
330
1F
100
AcDbEntity
  8
DIMENSION
100
AcDbDimension
  2
_D_9
 10
26.0465812415
 20
13.6866862736
 30
0.0
 11
31.0846457498
 21
8.6030882927
 31
0.0
 70
   163
  1
<>
 71
     1
 42
-1.0
  3
SLDDIMSTYLE3
100
AcDbDiametricDimension
 15
26.1403312415
 25
13.5243065104
 35
0.0
 40
0.0
  0
DIMENSION
  5
2A4
330
1F
100
AcDbEntity
  8
DIMENSION
100
AcDbDimension
  2
_D_10
 10
11.1934562415
 20
11.2423447888
 30
0.0
 11
10.1711748968
 21
11.2423447888
 31
0.0
 70
   160
  1
<>
 71
     2
 42
-1.0
  3
SLDDIMSTYLE4
100
AcDbAlignedDimension
 13
9.07847957
 23
14.1249492952
 33
0.0
 14
11.1934562415
 24
13.2565987258
 34
0.0
 50
0.0
100
AcDbRotatedDimension
  0
DIMENSION
  5
2B9
330
1F
100
AcDbEntity
  8
DIMENSION
100
AcDbDimension
  2
_D_11
 10
9.07847957
 20
9.7014071468
 30
0.0
 11
13.004603047
 21
9.7014071468
 31
0.0
 70
   160
  1
<>
 71
     2
 42
-1.0
  3
SLDDIMSTYLE0
100
AcDbAlignedDimension
 13
16.1934562415
 23
13.411746392
 33
0.0
 14
9.07847957
 24
14.1249492952
 34
0.0
 50
0.0
100
AcDbRotatedDimension
  0
DIMENSION
  5
2CD
330
1F
100
AcDbEntity
  8
DIMENSION
100
AcDbDimension
  2
_D_12
 10
21.2934562415
 20
7.6990377022
 30
0.0
 11
17.7582637746
 21
7.6990377022
 31
0.0
 70
   160
  1
<>
 71
     2
 42
-1.0
  3
SLDDIMSTYLE0
100
AcDbAlignedDimension
 13
9.07847957
 23
14.1249492952
 33
0.0
 14
21.2934562415
 24
13.411746392
 34
0.0
 50
0.0
100
AcDbRotatedDimension
  0
DIMENSION
  5
2E1
330
1F
100
AcDbEntity
  8
DIMENSION
100
AcDbDimension
  2
_D_13
 10
8.0788652926
 20
13.2108487258
 30
0.0
 11
8.0788652926
 21
14.1982198435
 31
0.0
 70
   160
  1
<>
 71
     2
 42
-1.0
  3
SLDDIMSTYLE4
100
AcDbAlignedDimension
 13
9.12422957
 23
14.8258253973
 33
0.0
 14
9.9925801394
 24
13.2108487258
 34
0.0
 50
90.0
100
AcDbRotatedDimension
  0
DIMENSION
  5
2F5
330
1F
100
AcDbEntity
  8
DIMENSION
100
AcDbDimension
  2
_D_14
 10
6.632794259
 20
13.2108487258
 30
0.0
 11
6.632794259
 21
16.8890862117
 31
0.0
 70
   160
  1
<>
 71
     2
 42
-1.0
  3
SLDDIMSTYLE0
100
AcDbAlignedDimension
 13
9.2793772362
 23
19.5758253973
 33
0.0
 14
9.9925801394
 24
13.2108487258
 34
0.0
 50
90.0
100
AcDbRotatedDimension
  0
DIMENSION
  5
309
330
1F
100
AcDbEntity
  8
DIMENSION
100
AcDbDimension
  2
_D_15
 10
40.27693685
 20
13.4503487258
 30
0.0
 11
40.27693685
 21
10.6449908932
 31
0.0
 70
   160
  1
<>
 71
     2
 42
-1.0
  3
SLDDIMSTYLE2
100
AcDbAlignedDimension
 13
37.3943323436
 23
13.2108487258
 33
0.0
 14
36.3872062415
 24
13.4503487258
 34
0.0
 50
90.0
100
AcDbRotatedDimension
  0
INSERT
  5
329
330
1F
100
AcDbEntity
  8
DIMENSION
100
AcDbBlockReference
  2
SW_CENTERMARKSYMBOL_0
 10
9.4731272362
 20
25.0758253973
 30
0.0
  0
INSERT
  5
335
330
1F
100
AcDbEntity
  8
DIMENSION
100
AcDbBlockReference
  2
SW_CENTERMARKSYMBOL_1
 10
37.9137852468
 20
25.0758253973
 30
0.0
  0
INSERT
  5
341
330
1F
100
AcDbEntity
  8
DIMENSION
100
AcDbBlockReference
  2
SW_CENTERMARKSYMBOL_2
 10
38.068932913
 20
29.8258253973
 30
0.0
  0
INSERT
  5
34D
330
1F
100
AcDbEntity
  8
DIMENSION
100
AcDbBlockReference
  2
SW_CENTERMARKSYMBOL_3
 10
36.1934562415
 20
31.2013020688
 30
0.0
  0
INSERT
  5
359
330
1F
100
AcDbEntity
  8
DIMENSION
100
AcDbBlockReference
  2
SW_CENTERMARKSYMBOL_4
 10
9.31797957
 20
29.8258253973
 30
0.0
  0
INSERT
  5
365
330
1F
100
AcDbEntity
  8
DIMENSION
100
AcDbBlockReference
  2
SW_CENTERMARKSYMBOL_5
 10
11.1934562415
 20
31.2013020688
 30
0.0
  0
INSERT
  5
371
330
1F
100
AcDbEntity
  8
DIMENSION
100
AcDbBlockReference
  2
SW_CENTERMARKSYMBOL_6
 10
16.1934562415
 20
31.0461544026
 30
0.0
  0
INSERT
  5
37D
330
1F
100
AcDbEntity
  8
DIMENSION
100
AcDbBlockReference
  2
SW_CENTERMARKSYMBOL_7
 10
21.2934562415
 20
31.0461544026
 30
0.0
  0
INSERT
  5
389
330
1F
100
AcDbEntity
  8
DIMENSION
100
AcDbBlockReference
  2
SW_CENTERMARKSYMBOL_8
 10
21.2934562415
 20
13.605496392
 30
0.0
  0
INSERT
  5
395
330
1F
100
AcDbEntity
  8
DIMENSION
100
AcDbBlockReference
  2
SW_CENTERMARKSYMBOL_9
 10
16.1934562415
 20
13.605496392
 30
0.0
  0
INSERT
  5
3A1
330
1F
100
AcDbEntity
  8
DIMENSION
100
AcDbBlockReference
  2
SW_CENTERMARKSYMBOL_10
 10
11.1934562415
 20
13.4503487258
 30
0.0
  0
INSERT
  5
3AD
330
1F
100
AcDbEntity
  8
DIMENSION
100
AcDbBlockReference
  2
SW_CENTERMARKSYMBOL_11
 10
9.31797957
 20
14.8258253973
 30
0.0
  0
INSERT
  5
3B9
330
1F
100
AcDbEntity
  8
DIMENSION
100
AcDbBlockReference
  2
SW_CENTERMARKSYMBOL_12
 10
31.1934562415
 20
31.0461544026
 30
0.0
  0
INSERT
  5
3C5
330
1F
100
AcDbEntity
  8
DIMENSION
100
AcDbBlockReference
  2
SW_CENTERMARKSYMBOL_13
 10
26.0934562415
 20
31.0461544026
 30
0.0
  0
INSERT
  5
3D1
330
1F
100
AcDbEntity
  8
DIMENSION
100
AcDbBlockReference
  2
SW_CENTERMARKSYMBOL_14
 10
26.0934562415
 20
13.605496392
 30
0.0
  0
INSERT
  5
3DD
330
1F
100
AcDbEntity
  8
DIMENSION
100
AcDbBlockReference
  2
SW_CENTERMARKSYMBOL_15
 10
31.1934562415
 20
13.605496392
 30
0.0
  0
INSERT
  5
3E9
330
1F
100
AcDbEntity
  8
DIMENSION
100
AcDbBlockReference
  2
SW_CENTERMARKSYMBOL_16
 10
36.1934562415
 20
13.4503487258
 30
0.0
  0
INSERT
  5
3F5
330
1F
100
AcDbEntity
  8
DIMENSION
100
AcDbBlockReference
  2
SW_CENTERMARKSYMBOL_17
 10
38.068932913
 20
14.8258253973
 30
0.0
  0
INSERT
  5
401
330
1F
100
AcDbEntity
  8
DIMENSION
100
AcDbBlockReference
  2
SW_CENTERMARKSYMBOL_18
 10
37.9137852468
 20
19.5758253973
 30
0.0
  0
INSERT
  5
40D
330
1F
100
AcDbEntity
  8
DIMENSION
100
AcDbBlockReference
  2
SW_CENTERMARKSYMBOL_19
 10
9.4731272362
 20
19.5758253973
 30
0.0
  0
LINE
  5
40E
330
1F
100
AcDbEntity
  8
0
  6
Continuous
 62
     7
370
    18
100
AcDbLine
 10
48.7292041048
 20
16.5270733866
 30
0.0
 11
48.8542041048
 21
16.5270733866
 31
0.0
  0
LINE
  5
40F
330
1F
100
AcDbEntity
  8
0
  6
Continuous
 62
     7
370
    18
100
AcDbLine
 10
48.8542041048
 20
16.465244708
 30
0.0
 11
48.7292041048
 21
16.465244708
 31
0.0
  0
LINE
  5
410
330
1F
100
AcDbEntity
  8
0
  6
Continuous
 62
     7
370
    18
100
AcDbLine
 10
48.7292041048
 20
16.465244708
 30
0.0
 11
48.7292041048
 21
16.5270733866
 31
0.0
  0
LINE
  5
411
330
1F
100
AcDbEntity
  8
0
  6
Continuous
 62
     7
370
    18
100
AcDbLine
 10
48.8542041048
 20
16.5270733866
 30
0.0
 11
48.8542041048
 21
16.465244708
 31
0.0
  0
LINE
  5
412
330
1F
100
AcDbEntity
  8
0
  6
Continuous
 62
     7
370
    18
100
AcDbLine
 10
48.7292041048
 20
14.1249492952
 30
0.0
 11
48.8542041048
 21
14.1249492952
 31
0.0
  0
LINE
  5
413
330
1F
100
AcDbEntity
  8
0
  6
Continuous
 62
     7
370
    18
100
AcDbLine
 10
48.7292041048
 20
14.1249492952
 30
0.0
 11
48.7292041048
 21
16.465244708
 31
0.0
  0
LINE
  5
414
330
1F
100
AcDbEntity
  8
0
  6
Continuous
 62
     7
370
    18
100
AcDbLine
 10
48.8542041048
 20
14.1249492952
 30
0.0
 11
48.8542041048
 21
16.465244708
 31
0.0
  0
LINE
  5
415
330
1F
100
AcDbEntity
  8
0
  6
Continuous
 62
     7
370
    18
100
AcDbLine
 10
48.7292041048
 20
28.186406087
 30
0.0
 11
48.8542041048
 21
28.186406087
 31
0.0
  0
LINE
  5
416
330
1F
100
AcDbEntity
  8
0
  6
Continuous
 62
     7
370
    18
100
AcDbLine
 10
48.8542041048
 20
28.1245774076
 30
0.0
 11
48.7292041048
 21
28.1245774076
 31
0.0
  0
LINE
  5
417
330
1F
100
AcDbEntity
  8
0
  6
Continuous
 62
     7
370
    18
100
AcDbLine
 10
48.7292041048
 20
28.1245774076
 30
0.0
 11
48.7292041048
 21
28.186406087
 31
0.0
  0
LINE
  5
418
330
1F
100
AcDbEntity
  8
0
  6
Continuous
 62
     7
370
    18
100
AcDbLine
 10
48.8542041048
 20
28.186406087
 30
0.0
 11
48.8542041048
 21
28.1245774076
 31
0.0
  0
LINE
  5
419
330
1F
100
AcDbEntity
  8
0
  6
Continuous
 62
     7
370
    18
100
AcDbLine
 10
48.7292041048
 20
30.5267014994
 30
0.0
 11
48.8542041048
 21
30.5267014994
 31
0.0
  0
LINE
  5
41A
330
1F
100
AcDbEntity
  8
0
  6
Continuous
 62
     7
370
    18
100
AcDbLine
 10
48.7292041048
 20
28.186406087
 30
0.0
 11
48.7292041048
 21
30.5267014994
 31
0.0
  0
LINE
  5
41B
330
1F
100
AcDbEntity
  8
0
  6
Continuous
 62
     7
370
    18
100
AcDbLine
 10
48.8542041048
 20
28.186406087
 30
0.0
 11
48.8542041048
 21
30.5267014994
 31
0.0
  0
LINE
  5
41C
330
1F
100
AcDbEntity
  8
0
  6
Continuous
 62
     7
370
    18
100
AcDbLine
 10
48.7292041048
 20
31.4408020688
 30
0.0
 11
48.8542041048
 21
31.4408020688
 31
0.0
  0
SPLINE
  5
41D
330
1F
100
AcDbEntity
  8
0
  6
Continuous
 62
     7
370
    18
100
AcDbSpline
210
0.0
220
0.0
230
1.0
 70
    24
 71
     3
 72
    17
 73
    13
 74
     0
 42
0.000000001
 43
0.00000001
 40
0.0
 40
0.0
 40
0.0
 40
0.0
 40
0.0625
 40
0.125
 40
0.25
 40
0.375
 40
0.5
 40
0.625
 40
0.75
 40
0.875
 40
0.9375
 40
1.0
 40
1.0
 40
1.0
 40
1.0
 10
48.72920410477118
 20
30.52670149941262
 30
0.0
 10
48.72920410477118
 20
30.55413197115105
 30
0.0
 10
48.72920410477118
 20
30.60835250502638
 30
0.0
 10
48.72920410477118
 20
30.7212519699698
 30
0.0
 10
48.72920410477118
 20
30.86435609623594
 30
0.0
 10
48.72920410477118
 20
31.03004718166129
 30
0.0
 10
48.72920410477118
 20
31.1778452856903
 30
0.0
 10
48.72920410477118
 20
31.29763415288622
 30
0.0
 10
48.72920410477118
 20
31.38274232421763
 30
0.0
 10
48.72920410477118
 20
31.42314682766517
 30
0.0
 10
48.72920410477118
 20
31.43841710455289
 30
0.0
 10
48.72920410477118
 20
31.44080206880747
 30
0.0
 10
48.72920410477118
 20
31.44080206880747
 30
0.0
  0
SPLINE
  5
41E
330
1F
100
AcDbEntity
  8
0
  6
Continuous
 62
     7
370
    18
100
AcDbSpline
210
0.0
220
0.0
230
1.0
 70
    24
 71
     3
 72
    17
 73
    13
 74
     0
 42
0.000000001
 43
0.00000001
 40
0.0
 40
0.0
 40
0.0
 40
0.0
 40
0.0625
 40
0.125
 40
0.25
 40
0.375
 40
0.5
 40
0.625
 40
0.75
 40
0.875
 40
0.9375
 40
1.0
 40
1.0
 40
1.0
 40
1.0
 10
48.85420410477118
 20
30.52670149941262
 30
0.0
 10
48.85420410477118
 20
30.55413197115105
 30
0.0
 10
48.85420410477118
 20
30.60835250502638
 30
0.0
 10
48.85420410477118
 20
30.7212519699698
 30
0.0
 10
48.85420410477118
 20
30.86435609623594
 30
0.0
 10
48.85420410477118
 20
31.03004718166129
 30
0.0
 10
48.85420410477118
 20
31.1778452856903
 30
0.0
 10
48.85420410477118
 20
31.29763415288622
 30
0.0
 10
48.85420410477118
 20
31.38274232421763
 30
0.0
 10
48.85420410477118
 20
31.42314682766517
 30
0.0
 10
48.85420410477118
 20
31.43841710455289
 30
0.0
 10
48.85420410477118
 20
31.44080206880747
 30
0.0
 10
48.85420410477118
 20
31.44080206880747
 30
0.0
  0
LINE
  5
41F
330
1F
100
AcDbEntity
  8
0
  6
Continuous
 62
     7
370
    18
100
AcDbLine
 10
48.7292041048
 20
13.2108487258
 30
0.0
 11
48.8542041048
 21
13.2108487258
 31
0.0
  0
SPLINE
  5
420
330
1F
100
AcDbEntity
  8
0
  6
Continuous
 62
     7
370
    18
100
AcDbSpline
210
0.0
220
0.0
230
1.0
 70
    24
 71
     3
 72
    17
 73
    13
 74
     0
 42
0.000000001
 43
0.00000001
 40
0.0
 40
0.0
 40
0.0
 40
0.0
 40
0.0625
 40
0.125
 40
0.25
 40
0.375
 40
0.5
 40
0.625
 40
0.75
 40
0.875
 40
0.9375
 40
1.0
 40
1.0
 40
1.0
 40
1.0
 10
48.72920410477118
 20
13.21084872577871
 30
0.0
 10
48.72920410477118
 20
13.21084872577871
 30
0.0
 10
48.72920410477118
 20
13.2132336900333
 30
0.0
 10
48.72920410477118
 20
13.22850396692101
 30
0.0
 10
48.72920410477118
 20
13.26890847036855
 30
0.0
 10
48.72920410477118
 20
13.35401664169996
 30
0.0
 10
48.72920410477118
 20
13.47380550889589
 30
0.0
 10
48.72920410477118
 20
13.62160361292489
 30
0.0
 10
48.72920410477118
 20
13.78729469835024
 30
0.0
 10
48.72920410477118
 20
13.93039882461638
 30
0.0
 10
48.72920410477118
 20
14.0432982895598
 30
0.0
 10
48.72920410477118
 20
14.09751882343513
 30
0.0
 10
48.72920410477118
 20
14.12494929517356
 30
0.0
  0
SPLINE
  5
421
330
1F
100
AcDbEntity
  8
0
  6
Continuous
 62
     7
370
    18
100
AcDbSpline
210
0.0
220
0.0
230
1.0
 70
    24
 71
     3
 72
    17
 73
    13
 74
     0
 42
0.000000001
 43
0.00000001
 40
0.0
 40
0.0
 40
0.0
 40
0.0
 40
0.0625
 40
0.125
 40
0.25
 40
0.375
 40
0.5
 40
0.625
 40
0.75
 40
0.875
 40
0.9375
 40
1.0
 40
1.0
 40
1.0
 40
1.0
 10
48.85420410477118
 20
13.21084872577871
 30
0.0
 10
48.85420410477118
 20
13.21084872577871
 30
0.0
 10
48.85420410477118
 20
13.2132336900333
 30
0.0
 10
48.85420410477118
 20
13.22850396692101
 30
0.0
 10
48.85420410477118
 20
13.26890847036855
 30
0.0
 10
48.85420410477118
 20
13.35401664169996
 30
0.0
 10
48.85420410477118
 20
13.47380550889589
 30
0.0
 10
48.85420410477118
 20
13.62160361292489
 30
0.0
 10
48.85420410477118
 20
13.78729469835024
 30
0.0
 10
48.85420410477118
 20
13.93039882461638
 30
0.0
 10
48.85420410477118
 20
14.0432982895598
 30
0.0
 10
48.85420410477118
 20
14.09751882343513
 30
0.0
 10
48.85420410477118
 20
14.12494929517356
 30
0.0
  0
LINE
  5
422
330
1F
100
AcDbEntity
  8
0
  6
Continuous
 62
     7
370
    18
100
AcDbLine
 10
48.8542041048
 20
16.7132729655
 30
0.0
 11
48.7292041048
 21
16.7132729655
 31
0.0
  0
SPLINE
  5
423
330
1F
100
AcDbEntity
  8
0
  6
Continuous
 62
     7
370
    18
100
AcDbSpline
210
0.0
220
0.0
230
1.0
 70
    24
 71
     3
 72
    10
 73
     6
 74
     0
 42
0.000000001
 43
0.00000001
 40
-0.0019346807021399
 40
-0.0019346807021399
 40
-0.0019346807021399
 40
-0.0019346807021399
 40
0.4769836461159574
 40
0.792034417986394
 40
0.9897035623507104
 40
0.9897035623507104
 40
0.9897035623507104
 40
0.9897035623507104
 10
48.72920410477118
 20
16.52707338662108
 30
0.0
 10
48.72920410477118
 20
16.55530612842841
 30
0.0
 10
48.72920410477118
 20
16.60372127485317
 30
0.0
 10
48.72920410477118
 20
16.66780806596028
 30
0.0
 10
48.72920410477118
 20
16.70063852973368
 30
0.0
 10
48.72920410477118
 20
16.7132729654951
 30
0.0
  0
SPLINE
  5
424
330
1F
100
AcDbEntity
  8
0
  6
Continuous
 62
     7
370
    18
100
AcDbSpline
210
0.0
220
0.0
230
1.0
 70
    24
 71
     3
 72
    10
 73
     6
 74
     0
 42
0.000000001
 43
0.00000001
 40
-0.0019346807021399
 40
-0.0019346807021399
 40
-0.0019346807021399
 40
-0.0019346807021399
 40
0.4769836461159574
 40
0.792034417986394
 40
0.9897035623507104
 40
0.9897035623507104
 40
0.9897035623507104
 40
0.9897035623507104
 10
48.85420410477118
 20
16.52707338662108
 30
0.0
 10
48.85420410477118
 20
16.55530612842841
 30
0.0
 10
48.85420410477118
 20
16.60372127485317
 30
0.0
 10
48.85420410477118
 20
16.66780806596028
 30
0.0
 10
48.85420410477118
 20
16.70063852973368
 30
0.0
 10
48.85420410477118
 20
16.7132729654951
 30
0.0
  0
LINE
  5
425
330
1F
100
AcDbEntity
  8
0
  6
Continuous
 62
     7
370
    18
100
AcDbLine
 10
48.7292041048
 20
27.9383778285
 30
0.0
 11
48.8542041048
 21
27.9383778285
 31
0.0
  0
SPLINE
  5
426
330
1F
100
AcDbEntity
  8
0
  6
Continuous
 62
     7
370
    18
100
AcDbSpline
210
0.0
220
0.0
230
1.0
 70
    24
 71
     3
 72
    10
 73
     6
 74
     0
 42
0.000000001
 43
0.00000001
 40
0.0102963024342141
 40
0.0102963024342141
 40
0.0102963024342141
 40
0.0102963024342141
 40
0.2079655081549331
 40
0.5230162800356294
 40
1.001934540596154
 40
1.001934540596154
 40
1.001934540596154
 40
1.001934540596154
 10
48.72920410477118
 20
27.93837782851634
 30
0.0
 10
48.72920410477118
 20
27.95101227489707
 30
0.0
 10
48.72920410477118
 20
27.9838427596208
 30
0.0
 10
48.72920410477118
 20
28.04792956743728
 30
0.0
 10
48.72920410477118
 20
28.0963446829421
 30
0.0
 10
48.72920410477118
 20
28.12457740761188
 30
0.0
  0
SPLINE
  5
427
330
1F
100
AcDbEntity
  8
0
  6
Continuous
 62
     7
370
    18
100
AcDbSpline
210
0.0
220
0.0
230
1.0
 70
    24
 71
     3
 72
    10
 73
     6
 74
     0
 42
0.000000001
 43
0.00000001
 40
0.0102963024342141
 40
0.0102963024342141
 40
0.0102963024342141
 40
0.0102963024342141
 40
0.2079655081549331
 40
0.5230162800356294
 40
1.001934540596154
 40
1.001934540596154
 40
1.001934540596154
 40
1.001934540596154
 10
48.85420410477118
 20
27.93837782851634
 30
0.0
 10
48.85420410477118
 20
27.95101227489707
 30
0.0
 10
48.85420410477118
 20
27.9838427596208
 30
0.0
 10
48.85420410477118
 20
28.04792956743728
 30
0.0
 10
48.85420410477118
 20
28.0963446829421
 30
0.0
 10
48.85420410477118
 20
28.12457740761188
 30
0.0
  0
LINE
  5
428
330
1F
100
AcDbEntity
  8
0
  6
Continuous
 62
     7
370
    18
100
AcDbLine
 10
48.7292041048
 20
16.7618603637
 30
0.0
 11
48.8542041048
 21
16.7618603637
 31
0.0
  0
LINE
  5
429
330
1F
100
AcDbEntity
  8
0
  6
Continuous
 62
     7
370
    18
100
AcDbLine
 10
48.7292041048
 20
16.7132729655
 30
0.0
 11
48.7292041048
 21
16.7618603637
 31
0.0
  0
LINE
  5
42A
330
1F
100
AcDbEntity
  8
0
  6
Continuous
 62
     7
370
    18
100
AcDbLine
 10
48.8542041048
 20
16.7618603637
 30
0.0
 11
48.8542041048
 21
16.7132729655
 31
0.0
  0
LINE
  5
42B
330
1F
100
AcDbEntity
  8
0
  6
Continuous
 62
     7
370
    18
100
AcDbLine
 10
48.8542041048
 20
27.8897904308
 30
0.0
 11
48.7292041048
 21
27.8897904308
 31
0.0
  0
LINE
  5
42C
330
1F
100
AcDbEntity
  8
0
  6
Continuous
 62
     7
370
    18
100
AcDbLine
 10
48.7292041048
 20
27.8897904308
 30
0.0
 11
48.7292041048
 21
27.9383778285
 31
0.0
  0
LINE
  5
42D
330
1F
100
AcDbEntity
  8
0
  6
Continuous
 62
     7
370
    18
100
AcDbLine
 10
48.8542041048
 20
27.9383778285
 30
0.0
 11
48.8542041048
 21
27.8897904308
 31
0.0
  0
LINE
  5
42E
330
1F
100
AcDbEntity
  8
0
  6
Continuous
 62
     7
370
    18
100
AcDbLine
 10
48.7292041048
 20
16.7618603637
 30
0.0
 11
48.7292041048
 21
27.8897904308
 31
0.0
  0
LINE
  5
42F
330
1F
100
AcDbEntity
  8
0
  6
Continuous
 62
     7
370
    18
100
AcDbLine
 10
48.8542041048
 20
16.7618603637
 30
0.0
 11
48.8542041048
 21
27.8897904308
 31
0.0
  0
DIMENSION
  5
430
330
1F
100
AcDbEntity
  8
DIMENSION
100
AcDbDimension
  2
_D_16
 10
48.7292041048
 20
11.2423447888
 30
0.0
 11
47.5648719723
 21
11.2423447888
 31
0.0
 70
   160
  1
<>
 71
     2
 42
-1.0
  3
SLDDIMSTYLE4
100
AcDbAlignedDimension
 13
48.8542041048
 23
13.2108487258
 33
0.0
 14
48.7292041048
 24
13.2108487258
 34
0.0
100
AcDbRotatedDimension
  0
ENDSEC
  0
SECTION
  2
OBJECTS
  0
DICTIONARY
  5
C
330
0
100
AcDbDictionary
281
     1
  3
ACAD_DETAILVIEWSTYLE
350
44D
  3
ACAD_GROUP
350
D
  3
ACAD_LAYOUT
350
1A
  3
ACAD_MATERIAL
350
43
  3
ACAD_MLEADERSTYLE
350
6B
  3
ACAD_MLINESTYLE
350
17
  3
ACAD_PLOTSETTINGS
350
19
  3
ACAD_PLOTSTYLENAME
350
E
  3
ACAD_SCALELIST
350
47
  3
ACAD_SECTIONVIEWSTYLE
350
44E
  3
ACAD_TABLESTYLE
350
69
  3
ACDB_RECOMPOSE_DATA
350
44A
  3
AcDbVariableDictionary
350
444
  0
DICTIONARY
  5
44D
102
{ACAD_REACTORS
330
C
102
}
330
C
100
AcDbDictionary
281
     1
  0
DICTIONARY
  5
D
102
{ACAD_REACTORS
330
C
102
}
330
C
100
AcDbDictionary
281
     1
  0
DICTIONARY
  5
1A
102
{ACAD_REACTORS
330
C
102
}
330
C
100
AcDbDictionary
281
     1
  3
Layout1
350
1E
  3
Layout2
350
26
  3
Model
350
22
  0
DICTIONARY
  5
43
102
{ACAD_REACTORS
330
C
102
}
330
C
100
AcDbDictionary
281
     1
  3
ByBlock
350
45
  3
ByLayer
350
44
  3
Global
350
46
  0
DICTIONARY
  5
6B
102
{ACAD_REACTORS
330
C
102
}
330
C
100
AcDbDictionary
281
     1
  3
Standard
350
6C
  0
DICTIONARY
  5
17
102
{ACAD_REACTORS
330
C
102
}
330
C
100
AcDbDictionary
281
     1
  3
Standard
350
18
  0
DICTIONARY
  5
19
102
{ACAD_REACTORS
330
C
102
}
330
C
100
AcDbDictionary
281
     1
  0
ACDBDICTIONARYWDFLT
  5
E
102
{ACAD_REACTORS
330
C
102
}
330
C
100
AcDbDictionary
281
     1
  3
Normal
350
F
100
AcDbDictionaryWithDefault
340
F
  0
DICTIONARY
  5
47
102
{ACAD_REACTORS
330
C
102
}
330
C
100
AcDbDictionary
281
     1
  3
A0
350
48
  3
A1
350
49
  3
A2
350
4A
  3
A3
350
4B
  3
A4
350
4C
  3
A5
350
4D
  3
A6
350
4E
  3
A7
350
4F
  3
A8
350
50
  3
A9
350
51
  3
B0
350
52
  3
B1
350
53
  3
B2
350
54
  3
B3
350
55
  3
B4
350
56
  3
B5
350
57
  3
B6
350
58
  3
B7
350
59
  3
B8
350
5A
  3
B9
350
5B
  3
C0
350
5C
  3
C1
350
5D
  3
C2
350
5E
  3
C3
350
5F
  3
C4
350
60
  3
C5
350
61
  3
C6
350
62
  3
C7
350
63
  3
C8
350
64
  3
C9
350
65
  3
D0
350
66
  3
D1
350
67
  3
D2
350
68
  0
DICTIONARY
  5
44E
102
{ACAD_REACTORS
330
C
102
}
330
C
100
AcDbDictionary
281
     1
  0
DICTIONARY
  5
69
102
{ACAD_REACTORS
330
C
102
}
330
C
100
AcDbDictionary
281
     1
  3
Standard
350
6A
  0
XRECORD
  5
44A
102
{ACAD_REACTORS
330
C
102
}
330
C
100
AcDbXrecord
280
     1
 90
        1
330
6A
  0
DICTIONARY
  5
444
102
{ACAD_REACTORS
330
C
102
}
330
C
100
AcDbDictionary
281
     1
  3
CANNOSCALE
350
445
  3
CMLEADERSTYLE
350
44C
  3
CTABLESTYLE
350
44B
  0
LAYOUT
  5
1E
102
{ACAD_REACTORS
330
1A
102
}
330
1A
100
AcDbPlotSettings
  1

  2
none_device
  4

  6

 40
0.0
 41
0.0
 42
0.0
 43
0.0
 44
0.0
 45
0.0
 46
0.0
 47
0.0
 48
0.0
 49
0.0
140
0.0
141
0.0
142
1.0
143
1.0
 70
   688
 72
     0
 73
     0
 74
     5
  7

 75
    16
 76
     0
 77
     2
 78
   300
147
1.0
148
0.0
149
0.0
100
AcDbLayout
  1
Layout1
 70
     1
 71
     1
 10
0.0
 20
0.0
 11
12.0
 21
9.0
 12
0.0
 22
0.0
 32
0.0
 14
1.0000000000E+20
 24
1.0000000000E+20
 34
1.0000000000E+20
 15
-1.0000000000E+20
 25
-1.0000000000E+20
 35
-1.0000000000E+20
146
0.0
 13
0.0
 23
0.0
 33
0.0
 16
1.0
 26
0.0
 36
0.0
 17
0.0
 27
1.0
 37
0.0
 76
     0
330
1B
  0
LAYOUT
  5
26
102
{ACAD_REACTORS
330
1A
102
}
330
1A
100
AcDbPlotSettings
  1

  2
none_device
  4

  6

 40
0.0
 41
0.0
 42
0.0
 43
0.0
 44
0.0
 45
0.0
 46
0.0
 47
0.0
 48
0.0
 49
0.0
140
0.0
141
0.0
142
1.0
143
1.0
 70
   688
 72
     0
 73
     0
 74
     5
  7

 75
    16
 76
     0
 77
     2
 78
   300
147
1.0
148
0.0
149
0.0
100
AcDbLayout
  1
Layout2
 70
     1
 71
     2
 10
0.0
 20
0.0
 11
0.0
 21
0.0
 12
0.0
 22
0.0
 32
0.0
 14
0.0
 24
0.0
 34
0.0
 15
0.0
 25
0.0
 35
0.0
146
0.0
 13
0.0
 23
0.0
 33
0.0
 16
1.0
 26
0.0
 36
0.0
 17
0.0
 27
1.0
 37
0.0
 76
     0
330
23
  0
LAYOUT
  5
22
102
{ACAD_REACTORS
330
1A
102
}
330
1A
100
AcDbPlotSettings
  1

  2
none_device
  4
Letter_(8.50_x_11.00_Inches)
  6

 40
6.35
 41
6.35
 42
6.35000508
 43
6.35000508
 44
215.9
 45
279.4
 46
0.0
 47
0.0
 48
0.0
 49
0.0
140
0.0
141
0.0
142
1.0
143
1.0
 70
  1712
 72
     0
 73
     0
 74
     0
  7

 75
     0
 76
     0
 77
     2
 78
   300
147
1.0
148
0.0
149
0.0
100
AcDbLayout
  1
Model
 70
     1
 71
     0
 10
0.0
 20
0.0
 11
55.0
 21
42.5
 12
0.0
 22
0.0
 32
0.0
 14
0.0
 24
0.0
 34
0.0
 15
55.0
 25
42.5
 35
0.0
146
0.0
 13
0.0
 23
0.0
 33
0.0
 16
1.0
 26
0.0
 36
0.0
 17
0.0
 27
1.0
 37
0.0
 76
     0
330
1F
331
29
  0
MATERIAL
  5
45
102
{ACAD_REACTORS
330
43
102
}
330
43
100
AcDbMaterial
  1
ByBlock
  0
MATERIAL
  5
44
102
{ACAD_REACTORS
330
43
102
}
330
43
100
AcDbMaterial
  1
ByLayer
  0
MATERIAL
  5
46
102
{ACAD_REACTORS
330
43
102
}
330
43
100
AcDbMaterial
  1
Global
  0
MLEADERSTYLE
  5
6C
102
{ACAD_REACTORS
330
6B
102
}
330
6B
100
AcDbMLeaderStyle
170
     2
171
     1
172
     0
 90
        2
 40
0.0
 41
0.0
173
     1
 91
-1056964608
340
14
 92
       -2
290
     1
 42
0.09
291
     1
 43
0.36
  3
Standard
341
0
 44
0.18
300

342
11
174
     1
178
     6
175
     1
176
     0
 93
-1056964608
 45
0.18
292
     0
297
     0
 46
0.18
343
0
 94
-1056964608
 47
1.0
 49
1.0
140
1.0
293
     1
141
0.0
294
     1
177
     0
142
1.0
295
     0
296
     0
143
0.125
1001
ACAD_MLEADERVER
1070
     2
  0
MLINESTYLE
  5
18
102
{ACAD_REACTORS
330
17
102
}
330
17
100
AcDbMlineStyle
  2
Standard
 70
     0
  3

 62
   256
 51
90.0
 52
90.0
 71
     2
 49
0.5
 62
   256
  6
BYLAYER
 49
-0.5
 62
   256
  6
BYLAYER
  0
ACDBPLACEHOLDER
  5
F
102
{ACAD_REACTORS
330
E
102
}
330
E
  0
SCALE
  5
48
102
{ACAD_REACTORS
330
47
102
}
330
47
100
AcDbScale
 70
     0
300
1:1
140
1.0
141
1.0
290
     1
  0
SCALE
  5
49
102
{ACAD_REACTORS
330
47
102
}
330
47
100
AcDbScale
 70
     0
300
1:2
140
1.0
141
2.0
290
     0
  0
SCALE
  5
4A
102
{ACAD_REACTORS
330
47
102
}
330
47
100
AcDbScale
 70
     0
300
1:4
140
1.0
141
4.0
290
     0
  0
SCALE
  5
4B
102
{ACAD_REACTORS
330
47
102
}
330
47
100
AcDbScale
 70
     0
300
1:5
140
1.0
141
5.0
290
     0
  0
SCALE
  5
4C
102
{ACAD_REACTORS
330
47
102
}
330
47
100
AcDbScale
 70
     0
300
1:8
140
1.0
141
8.0
290
     0
  0
SCALE
  5
4D
102
{ACAD_REACTORS
330
47
102
}
330
47
100
AcDbScale
 70
     0
300
1:10
140
1.0
141
10.0
290
     0
  0
SCALE
  5
4E
102
{ACAD_REACTORS
330
47
102
}
330
47
100
AcDbScale
 70
     0
300
1:16
140
1.0
141
16.0
290
     0
  0
SCALE
  5
4F
102
{ACAD_REACTORS
330
47
102
}
330
47
100
AcDbScale
 70
     0
300
1:20
140
1.0
141
20.0
290
     0
  0
SCALE
  5
50
102
{ACAD_REACTORS
330
47
102
}
330
47
100
AcDbScale
 70
     0
300
1:30
140
1.0
141
30.0
290
     0
  0
SCALE
  5
51
102
{ACAD_REACTORS
330
47
102
}
330
47
100
AcDbScale
 70
     0
300
1:40
140
1.0
141
40.0
290
     0
  0
SCALE
  5
52
102
{ACAD_REACTORS
330
47
102
}
330
47
100
AcDbScale
 70
     0
300
1:50
140
1.0
141
50.0
290
     0
  0
SCALE
  5
53
102
{ACAD_REACTORS
330
47
102
}
330
47
100
AcDbScale
 70
     0
300
1:100
140
1.0
141
100.0
290
     0
  0
SCALE
  5
54
102
{ACAD_REACTORS
330
47
102
}
330
47
100
AcDbScale
 70
     0
300
2:1
140
2.0
141
1.0
290
     0
  0
SCALE
  5
55
102
{ACAD_REACTORS
330
47
102
}
330
47
100
AcDbScale
 70
     0
300
4:1
140
4.0
141
1.0
290
     0
  0
SCALE
  5
56
102
{ACAD_REACTORS
330
47
102
}
330
47
100
AcDbScale
 70
     0
300
8:1
140
8.0
141
1.0
290
     0
  0
SCALE
  5
57
102
{ACAD_REACTORS
330
47
102
}
330
47
100
AcDbScale
 70
     0
300
10:1
140
10.0
141
1.0
290
     0
  0
SCALE
  5
58
102
{ACAD_REACTORS
330
47
102
}
330
47
100
AcDbScale
 70
     0
300
100:1
140
100.0
141
1.0
290
     0
  0
SCALE
  5
59
102
{ACAD_REACTORS
330
47
102
}
330
47
100
AcDbScale
 70
     0
300
1/128" = 1'-0"
140
0.0078125
141
12.0
290
     0
  0
SCALE
  5
5A
102
{ACAD_REACTORS
330
47
102
}
330
47
100
AcDbScale
 70
     0
300
1/64" = 1'-0"
140
0.015625
141
12.0
290
     0
  0
SCALE
  5
5B
102
{ACAD_REACTORS
330
47
102
}
330
47
100
AcDbScale
 70
     0
300
1/32" = 1'-0"
140
0.03125
141
12.0
290
     0
  0
SCALE
  5
5C
102
{ACAD_REACTORS
330
47
102
}
330
47
100
AcDbScale
 70
     0
300
1/16" = 1'-0"
140
0.0625
141
12.0
290
     0
  0
SCALE
  5
5D
102
{ACAD_REACTORS
330
47
102
}
330
47
100
AcDbScale
 70
     0
300
3/32" = 1'-0"
140
0.09375
141
12.0
290
     0
  0
SCALE
  5
5E
102
{ACAD_REACTORS
330
47
102
}
330
47
100
AcDbScale
 70
     0
300
1/8" = 1'-0"
140
0.125
141
12.0
290
     0
  0
SCALE
  5
5F
102
{ACAD_REACTORS
330
47
102
}
330
47
100
AcDbScale
 70
     0
300
3/16" = 1'-0"
140
0.1875
141
12.0
290
     0
  0
SCALE
  5
60
102
{ACAD_REACTORS
330
47
102
}
330
47
100
AcDbScale
 70
     0
300
1/4" = 1'-0"
140
0.25
141
12.0
290
     0
  0
SCALE
  5
61
102
{ACAD_REACTORS
330
47
102
}
330
47
100
AcDbScale
 70
     0
300
3/8" = 1'-0"
140
0.375
141
12.0
290
     0
  0
SCALE
  5
62
102
{ACAD_REACTORS
330
47
102
}
330
47
100
AcDbScale
 70
     0
300
1/2" = 1'-0"
140
0.5
141
12.0
290
     0
  0
SCALE
  5
63
102
{ACAD_REACTORS
330
47
102
}
330
47
100
AcDbScale
 70
     0
300
3/4" = 1'-0"
140
0.75
141
12.0
290
     0
  0
SCALE
  5
64
102
{ACAD_REACTORS
330
47
102
}
330
47
100
AcDbScale
 70
     0
300
1" = 1'-0"
140
1.0
141
12.0
290
     0
  0
SCALE
  5
65
102
{ACAD_REACTORS
330
47
102
}
330
47
100
AcDbScale
 70
     0
300
1-1/2" = 1'-0"
140
1.5
141
12.0
290
     0
  0
SCALE
  5
66
102
{ACAD_REACTORS
330
47
102
}
330
47
100
AcDbScale
 70
     0
300
3" = 1'-0"
140
3.0
141
12.0
290
     0
  0
SCALE
  5
67
102
{ACAD_REACTORS
330
47
102
}
330
47
100
AcDbScale
 70
     0
300
6" = 1'-0"
140
6.0
141
12.0
290
     0
  0
SCALE
  5
68
102
{ACAD_REACTORS
330
47
102
}
330
47
100
AcDbScale
 70
     0
300
1'-0" = 1'-0"
140
12.0
141
12.0
290
     0
  0
TABLESTYLE
  5
6A
102
{ACAD_REACTORS
330
69
102
}
102
{ACAD_XDICTIONARY
360
446
102
}
330
69
100
AcDbTableStyle
  3
Standard
 70
     0
 71
     0
 40
0.06
 41
0.06
280
     0
281
     0
  7
Standard
140
0.18
170
     2
 62
     0
 63
   257
283
     0
274
    -2
284
     1
 64
     0
275
    -2
285
     1
 65
     0
276
    -2
286
     1
 66
     0
277
    -2
287
     1
 67
     0
278
    -2
288
     1
 68
     0
279
    -2
289
     1
 69
     0
  7
Standard
140
0.25
170
     5
 62
     0
 63
   257
283
     0
274
    -2
284
     1
 64
     0
275
    -2
285
     1
 65
     0
276
    -2
286
     1
 66
     0
277
    -2
287
     1
 67
     0
278
    -2
288
     1
 68
     0
279
    -2
289
     1
 69
     0
  7
Standard
140
0.18
170
     5
 62
     0
 63
   257
283
     0
274
    -2
284
     1
 64
     0
275
    -2
285
     1
 65
     0
276
    -2
286
     1
 66
     0
277
    -2
287
     1
 67
     0
278
    -2
288
     1
 68
     0
279
    -2
289
     1
 69
     0
  0
DICTIONARYVAR
  5
445
102
{ACAD_REACTORS
330
444
102
}
330
444
100
DictionaryVariables
280
     0
  1
1:1
  0
DICTIONARYVAR
  5
44C
102
{ACAD_REACTORS
330
444
102
}
330
444
100
DictionaryVariables
280
     0
  1
Standard
  0
DICTIONARYVAR
  5
44B
102
{ACAD_REACTORS
330
444
102
}
330
444
100
DictionaryVariables
280
     0
  1
Standard
  0
DICTIONARY
  5
446
330
6A
100
AcDbDictionary
280
     1
281
     1
  3
ACAD_ROUNDTRIP_2008_TABLESTYLE_CELLSTYLEMAP
360
448
  3
ACAD_XREC_ROUNDTRIP
360
447
  0
CELLSTYLEMAP
  5
448
102
{ACAD_REACTORS
330
446
102
}
330
446
100
AcDbCellStyleMap
 90
        3
300
CELLSTYLE
  1
TABLEFORMAT_BEGIN
 90
        5
170
     1
 91
        0
 92
    32768
 62
   257
 93
        1
300
CONTENTFORMAT
  1
CONTENTFORMAT_BEGIN
 90
        0
 91
        0
 92
        4
 93
        0
300

 40
0.0
140
1.0
 94
        5
 62
     0
340
11
144
0.25
309
CONTENTFORMAT_END
171
     1
301
MARGIN
  1
CELLMARGIN_BEGIN
 40
0.06
 40
0.06
 40
0.06
 40
0.06
 40
0.06
 40
0.06
309
CELLMARGIN_END
 94
        6
 95
        1
302
GRIDFORMAT
  1
GRIDFORMAT_BEGIN
 90
        0
 91
        1
 62
     0
 92
       -2
340
14
 93
        0
 40
0.045
309
GRIDFORMAT_END
 95
        2
302
GRIDFORMAT
  1
GRIDFORMAT_BEGIN
 90
        0
 91
        1
 62
     0
 92
       -2
340
14
 93
        0
 40
0.045
309
GRIDFORMAT_END
 95
        4
302
GRIDFORMAT
  1
GRIDFORMAT_BEGIN
 90
        0
 91
        1
 62
     0
 92
       -2
340
14
 93
        0
 40
0.045
309
GRIDFORMAT_END
 95
        8
302
GRIDFORMAT
  1
GRIDFORMAT_BEGIN
 90
        0
 91
        1
 62
     0
 92
       -2
340
14
 93
        0
 40
0.045
309
GRIDFORMAT_END
 95
       16
302
GRIDFORMAT
  1
GRIDFORMAT_BEGIN
 90
        0
 91
        1
 62
     0
 92
       -2
340
14
 93
        0
 40
0.045
309
GRIDFORMAT_END
 95
       32
302
GRIDFORMAT
  1
GRIDFORMAT_BEGIN
 90
        0
 91
        1
 62
     0
 92
       -2
340
14
 93
        0
 40
0.045
309
GRIDFORMAT_END
309
TABLEFORMAT_END
  1
CELLSTYLE_BEGIN
 90
        1
 91
        1
300
_TITLE
309
CELLSTYLE_END
300
CELLSTYLE
  1
TABLEFORMAT_BEGIN
 90
        5
170
     1
 91
        0
 92
        0
 62
   257
 93
        1
300
CONTENTFORMAT
  1
CONTENTFORMAT_BEGIN
 90
        0
 91
        0
 92
        4
 93
        0
300

 40
0.0
140
1.0
 94
        5
 62
     0
340
11
144
0.18
309
CONTENTFORMAT_END
171
     1
301
MARGIN
  1
CELLMARGIN_BEGIN
 40
0.06
 40
0.06
 40
0.06
 40
0.06
 40
0.06
 40
0.06
309
CELLMARGIN_END
 94
        6
 95
        1
302
GRIDFORMAT
  1
GRIDFORMAT_BEGIN
 90
        0
 91
        1
 62
     0
 92
       -2
340
14
 93
        0
 40
0.045
309
GRIDFORMAT_END
 95
        2
302
GRIDFORMAT
  1
GRIDFORMAT_BEGIN
 90
        0
 91
        1
 62
     0
 92
       -2
340
14
 93
        0
 40
0.045
309
GRIDFORMAT_END
 95
        4
302
GRIDFORMAT
  1
GRIDFORMAT_BEGIN
 90
        0
 91
        1
 62
     0
 92
       -2
340
14
 93
        0
 40
0.045
309
GRIDFORMAT_END
 95
        8
302
GRIDFORMAT
  1
GRIDFORMAT_BEGIN
 90
        0
 91
        1
 62
     0
 92
       -2
340
14
 93
        0
 40
0.045
309
GRIDFORMAT_END
 95
       16
302
GRIDFORMAT
  1
GRIDFORMAT_BEGIN
 90
        0
 91
        1
 62
     0
 92
       -2
340
14
 93
        0
 40
0.045
309
GRIDFORMAT_END
 95
       32
302
GRIDFORMAT
  1
GRIDFORMAT_BEGIN
 90
        0
 91
        1
 62
     0
 92
       -2
340
14
 93
        0
 40
0.045
309
GRIDFORMAT_END
309
TABLEFORMAT_END
  1
CELLSTYLE_BEGIN
 90
        2
 91
        1
300
_HEADER
309
CELLSTYLE_END
300
CELLSTYLE
  1
TABLEFORMAT_BEGIN
 90
        5
170
     1
 91
        0
 92
        0
 62
   257
 93
        1
300
CONTENTFORMAT
  1
CONTENTFORMAT_BEGIN
 90
        0
 91
        0
 92
        4
 93
        0
300

 40
0.0
140
1.0
 94
        2
 62
     0
340
11
144
0.18
309
CONTENTFORMAT_END
171
     1
301
MARGIN
  1
CELLMARGIN_BEGIN
 40
0.06
 40
0.06
 40
0.06
 40
0.06
 40
0.06
 40
0.06
309
CELLMARGIN_END
 94
        6
 95
        1
302
GRIDFORMAT
  1
GRIDFORMAT_BEGIN
 90
        0
 91
        1
 62
     0
 92
       -2
340
14
 93
        0
 40
0.045
309
GRIDFORMAT_END
 95
        2
302
GRIDFORMAT
  1
GRIDFORMAT_BEGIN
 90
        0
 91
        1
 62
     0
 92
       -2
340
14
 93
        0
 40
0.045
309
GRIDFORMAT_END
 95
        4
302
GRIDFORMAT
  1
GRIDFORMAT_BEGIN
 90
        0
 91
        1
 62
     0
 92
       -2
340
14
 93
        0
 40
0.045
309
GRIDFORMAT_END
 95
        8
302
GRIDFORMAT
  1
GRIDFORMAT_BEGIN
 90
        0
 91
        1
 62
     0
 92
       -2
340
14
 93
        0
 40
0.045
309
GRIDFORMAT_END
 95
       16
302
GRIDFORMAT
  1
GRIDFORMAT_BEGIN
 90
        0
 91
        1
 62
     0
 92
       -2
340
14
 93
        0
 40
0.045
309
GRIDFORMAT_END
 95
       32
302
GRIDFORMAT
  1
GRIDFORMAT_BEGIN
 90
        0
 91
        1
 62
     0
 92
       -2
340
14
 93
        0
 40
0.045
309
GRIDFORMAT_END
309
TABLEFORMAT_END
  1
CELLSTYLE_BEGIN
 90
        3
 91
        2
300
_DATA
309
CELLSTYLE_END
  0
XRECORD
  5
447
102
{ACAD_REACTORS
330
446
102
}
330
446
100
AcDbXrecord
280
     1
102
ACAD_ROUNDTRIP_PRE2007_TABLESTYLE
 90
        4
 91
        0
  1

 92
        4
 93
        0
  2

 94
        4
 95
        0
  3

  0
ENDSEC
  0
EOF
